#VERSION:0.83;
#TITLE:ANTHEM LANDING;
#SUBTITLE:;
#ARTIST:DJムラサメ;
#TITLETRANSLIT:;
#SUBTITLETRANSLIT:;
#ARTISTTRANSLIT:DJ MURASAME;
#GENRE:LATIN TEK;
#CREDIT:;
#MUSIC:ANTHEM LANDING.ogg;
#BANNER:ANTHEM LANDING.png;
#BACKGROUND:ANTHEM LANDING-bg.png;
#CDTITLE:./CDTitles/bm IIDX 18 Resort Anthem.png;
#SAMPLESTART:88.179;
#SAMPLELENGTH:15.000;
#SELECTABLE:YES;
#OFFSET:1.614;
#BPMS:0.000=151.000;
#STOPS:;
#BGCHANGES:4.000=ANTHEM LANDING.mp4=1.000=0=0=0=StretchNoLoop====,
99999.000=-nosongbg-=1.000=0=0=0=StretchNoLoop====
;
#FGCHANGES:;

//--------------- dance-single - Extraordiberry vs. forcednature ----------------
#NOTEDATA:;
#STEPSTYPE:dance-single;
#DESCRIPTION:Extraordiberry vs. forcednature;
#DIFFICULTY:Beginner;
#METER:3;
#RADARVALUES:0,0,0,0,0;
#OFFSET:0.786;
#BPMS:0.000=151.000;
#STOPS:72.000=1.589;
#CREDIT:Extraordiberry vs. forcednature;
#MUSIC:../ANTHEM LANDING (N)/ANTHEM LANDING (N).ogg;
#NOTES:
0000
0000
0000
0000
,
0000
0000
0000
0000
,
0000
0000
0000
0000
,
0000
0000
0000
0000
,
0000
0000
0000
0000
,
0000
0000
0000
0000
,
0000
0000
0000
0000
,
0000
0000
0000
0000
,
0000
0000
0000
0000
,
2002
0000
0000
0000
,
0000
0000
0000
0000
,
0000
0000
0000
0000
,
0000
0000
3003
0000
,
0220
0000
0000
0000
,
0000
0000
0000
0000
,
0000
0000
0000
0000
,
0000
0000
0330
0000
,
0200
0000
0000
0000
,
0300
0000
1001
0000
,
0000
0000
1000
0000
,
0000
0000
0010
0000
,
0000
0000
1000
0000
,
0000
0000
0001
0000
,
0000
0000
0010
0000
,
0000
0000
0001
0000
,
0000
0000
0100
0000
,
0000
0000
0020
0000
,
0030
0000
1000
0000
,
1000
0000
0010
0000
,
0010
0000
1000
0000
,
1000
0000
0010
0000
,
0100
0000
0001
0000
,
0001
0000
0010
0000
,
0010
0000
1001
0000
,
0000
0000
1000
0000
,
0001
0000
1001
0000
,
0000
0000
1000
0000
,
0000
0000
0010
0000
,
0000
0000
0100
0000
,
0100
0000
0001
0000
,
0000
0000
0010
0000
,
0000
0000
0001
0000
,
0000
0000
0100
0000
,
0010
0000
1000
0000
,
0000
0000
0100
0000
,
0000
0000
1000
0000
,
1000
0000
0001
0000
,
1000
0000
1001
0000
,
0000
0000
0001
0000
,
0000
0000
0100
0000
,
0000
0000
0001
0000
,
0000
0000
0010
0000
,
0000
0000
0010
0000
,
0000
0000
0001
0000
,
0000
0000
0100
0000
,
0000
0000
0010
0000
,
0010
0000
1000
0000
,
1000
0000
0001
0000
,
0001
0000
1000
0000
,
1000
0000
0100
0000
,
0100
0000
1000
0000
,
1000
0000
0001
0000
,
0001
0000
0100
0000
,
0010
0000
1001
0000
,
0000
0000
1000
0000
,
0000
0000
0100
0000
,
0000
0000
0010
0000
,
0000
0000
0001
0000
,
1000
0000
0010
0000
,
0100
0000
0001
0000
,
1000
0000
0100
0000
,
0010
0000
1001
0000
;

//--------------- dance-single - Extraordiberry vs. forcednature ----------------
#NOTEDATA:;
#STEPSTYPE:dance-single;
#DESCRIPTION:Extraordiberry vs. forcednature;
#DIFFICULTY:Easy;
#METER:7;
#RADARVALUES:0,0,0,0,0;
#OFFSET:0.786;
#BPMS:0.000=151.000;
#STOPS:72.000=1.589;
#CREDIT:Extraordiberry vs. forcednature;
#MUSIC:../ANTHEM LANDING (N)/ANTHEM LANDING (N).ogg;
#NOTES:
0000
0000
0000
0000
,
0000
0000
0000
0000
,
0000
0000
0000
0000
,
0000
0000
0000
0000
,
0000
0000
0000
0000
,
0000
0000
0000
0000
,
0000
0000
0000
0000
,
0000
0000
0000
0000
,
0000
0000
0000
0000
,
2002
0000
0000
0000
,
0003
0000
0000
0000
,
3020
0000
0000
0000
,
0000
0000
0000
0000
,
0230
0000
0000
0000
,
0000
0000
0000
0000
,
0302
0000
0000
0000
,
2000
0000
0000
3003
,
2002
0000
0000
0000
,
3003
0000
0001
0100
,
0001
0100
0010
1000
,
0001
0010
0100
1000
,
0100
1000
0001
0100
,
0010
1000
0100
0010
,
0100
0010
0001
1000
,
0010
0100
0001
0010
,
0001
0010
0200
0000
,
0000
0000
0020
0000
,
0330
0000
1001
1000
,
0010
1000
0001
0010
,
0001
1000
0100
1000
,
0001
0100
0001
1000
,
0100
0010
1001
0001
,
0100
0001
1000
0100
,
1000
0001
2002
0000
,
3003
0000
0000
0000
0001
1000
0000
0000
,
1000
0001
1001
0000
,
1000
1000
0010
0000
,
0010
0010
0100
0000
,
0100
0100
0002
0000
,
0003
0010
1001
1000
,
0020
0030
0100
0001
,
0100
0010
1000
0001
,
1000
0100
0010
0002
,
0003
0100
0110
0001
,
1000
0001
1000
0000
0010
0000
0100
0000
,
0002
0000
0003
0000
0010
0001
0010
0000
,
0001
0000
1000
0000
0010
1000
0010
0000
,
1000
0001
1001
0000
,
1000
0000
0100
0000
0010
0100
0010
0000
,
0001
0100
0010
0010
,
0100
0100
0010
0010
,
0100
0100
1001
0001
,
1000
0001
1000
0000
0100
0000
0010
0000
,
0001
1000
0001
0000
0200
0000
0310
0000
,
0200
0310
2000
3002
,
0023
0030
1001
1000
,
0100
1000
0100
0000
1000
0000
0010
0000
,
1000
0010
1000
0000
0001
0000
0010
0000
,
0001
0010
0001
0000
0100
0000
0001
0000
,
0100
0010
0100
0000
0010
0000
1000
0000
,
0001
1000
0001
0000
0010
0000
0001
0000
,
1000
0001
1000
0000
0100
0000
0010
0000
,
0100
1000
0100
0000
0010
0000
0001
0000
,
0100
0001
0100
0000
1001
0000
1000
0000
,
0010
0000
0100
0010
0100
0000
0001
0000
,
1000
0001
1000
0000
0100
0000
0010
0000
,
0001
1000
0001
0000
0100
0000
0001
0000
,
0100
0010
0100
0000
0020
0000
1000
0000
,
1000
1030
0200
0001
,
0001
0301
2002
0000
,
3003
0000
0001
0000
1000
0010
1000
0000
,
0001
0010
0001
0000
1001
0000
0000
0000
;

//--------------- dance-single - Extraordiberry vs. forcednature ----------------
#NOTEDATA:;
#STEPSTYPE:dance-single;
#DESCRIPTION:Extraordiberry vs. forcednature;
#DIFFICULTY:Medium;
#METER:12;
#RADARVALUES:0,0,0,0,0;
#OFFSET:1.595;
#BPMS:0.000=151.000;
#STOPS:68.000=1.192;
#CREDIT:Extraordiberry vs. forcednature;
#MUSIC:../ANTHEM LANDING (H)/ANTHEM LANDING (H).ogg;
#NOTES:
0000
0000
0000
0000
,
0000
0000
0000
0000
,
0000
0000
0000
0000
,
0000
0000
0000
0000
,
0000
0000
0000
0000
,
0001
1000
0100
1000
0001
0010
0100
0010
,
0001
1000
0010
1000
0001
0100
0010
0100
,
0001
1000
0100
0010
0001
1000
0010
0000
,
0220
0000
0330
0010
0100
0000
0001
1000
,
1001
0000
0001
0010
0100
0000
0010
0100
,
1000
0000
0010
0100
0001
0100
0010
1000
,
0001
0000
1000
0100
0010
0000
0100
0010
,
0001
0000
0100
0010
1000
0010
0100
0001
,
0010
0000
0100
1000
0001
0000
0100
0001
,
2000
0100
0001
0010
,
3001
1000
0001
1000
0010
0100
0001
0010
,
0100
1000
0100
1000
0010
0100
0002
0000
,
0003
0000
0000
0000
1000
0000
0000
0100
0000
0000
0010
0000
0000
0100
0000
0000
,
1000
0000
1000
0000
0001
0000
0000
0100
0000
0000
0010
0000
0000
0100
0000
0000
,
0001
0000
0001
0000
1000
0000
0000
0010
0000
0000
0001
0000
0000
0010
0000
0000
,
1000
0000
1000
0000
0001
0000
0000
0010
0000
0000
1000
0000
0000
0010
0000
0000
,
0001
0000
0001
0000
1000
0000
0000
0100
0000
0000
0010
0000
0000
0100
0000
0000
,
1000
0000
1000
0000
0001
0000
0000
0100
0000
0000
0010
0000
0000
0100
0000
0000
,
0001
0001
1000
0100
1000
0100
0010
0001
,
0010
0001
0100
0010
1000
0001
0010
0100
,
1000
0001
2002
0000
3003
0000
1000
0000
,
1000
0001
0100
0000
0100
0001
0010
0000
,
0010
0001
0100
0000
0010
0000
1000
0000
,
0001
0000
0000
0000
0000
0000
1000
0000
0000
0000
0000
0000
0100
0000
0000
0000
0000
0000
0000
0000
0000
0010
0000
0000
0000
0000
0000
0000
0000
0000
0100
0000
0000
0000
0000
0000
1000
0000
0000
0000
0001
0000
0000
0000
1000
0000
0000
0000
,
0001
1001
0001
1000
,
0001
0001
1000
0000
0010
1000
0100
0000
,
0100
0010
0001
0000
0001
1000
0010
0000
,
0100
0000
0000
0000
0000
0000
0000
0000
0000
0000
0000
0000
0001
0000
0000
0000
0000
0000
0000
0000
0000
0001
0000
0000
0000
0000
0000
0000
0000
0000
0001
0000
0000
0000
0000
0000
1000
0000
0000
0000
0001
0000
0000
0000
1000
0000
0000
0000
,
0001
0000
0000
0000
0000
0000
0000
0000
0000
0000
0000
0000
0100
0000
0000
0000
0000
0000
0000
0000
0000
0100
0000
0000
0000
0000
0000
0000
0000
0000
0100
0000
0000
0000
0000
0000
0001
0000
0000
0000
1000
0000
0000
0000
0001
0000
0000
0000
,
1000
0200
1000
0010
,
1300
0100
0010
0000
0001
1000
0010
0000
,
0100
0001
0020
0000
0100
0000
0001
0000
,
0130
1000
0001
0000
0100
0010
1000
0000
,
0001
0010
0200
0000
1000
0000
0010
0000
,
1300
0001
0100
0000
0010
1000
0001
0000
,
0010
0100
2000
0000
0010
0000
0001
0000
,
0010
0000
3001
1000
0001
1000
0010
0100
,
0010
0100
0001
0010
0100
1000
0010
0100
,
0001
0000
1001
0000
1100
0000
0001
0010
,
0100
0000
1001
0000
0101
0000
1000
0010
,
0100
0000
1000
0100
0001
0000
0001
0010
,
0100
0000
0001
0100
1000
0000
1000
0010
,
0100
0000
0101
0000
0011
0000
0010
0100
,
1000
0000
1100
0000
1010
0000
0010
0100
,
0001
0000
1000
0010
0001
0000
0010
1000
,
0100
0020
0001
0100
,
0031
0000
0000
0000
1000
0000
0001
0000
0100
0000
0000
0100
0000
0000
0010
0000
,
1000
0000
0001
0000
1000
0000
0100
0000
0010
0000
0000
0010
0000
0000
0001
0000
,
0100
0000
0000
0000
0010
0000
1000
0000
0001
0000
0000
0001
0000
0000
0010
0000
,
0100
1000
0001
0100
0010
0000
1001
0000
,
1001
0000
1000
0100
0001
0000
0100
0000
,
1000
0100
0010
0100
0000
0010
0000
0001
,
0010
0000
0000
0000
0001
0000
0000
1000
0000
0000
0010
0000
0000
0000
0100
0000
,
0000
0000
0001
0000
0010
0000
0001
0000
1000
0000
0010
0000
0100
0000
0000
0001
,
0000
0000
0010
0000
0100
0000
0000
0000
0010
0000
0100
0000
0010
0000
0000
0001
,
0000
1000
0002
0000
0100
0000
1000
0000
,
0103
0010
2000
0000
0100
0000
0001
0000
,
3010
0100
0001
1000
0100
0010
0001
1000
,
0010
0000
0110
0000
0100
0001
0010
0100
,
1000
0010
0100
0000
0001
1000
0100
0010
,
0010
0100
0001
0000
0100
1000
0001
0010
,
0100
1000
0010
0000
0100
0001
0010
0100
,
0100
1000
0020
0000
0100
0000
1000
0000
,
0130
0000
0010
1000
0100
1000
0010
0100
,
0002
0000
0013
0200
0000
1300
0002
0000
,
0203
0320
1000
0130
,
0101
2010
3002
1000
,
0100
0000
1003
0001
1000
0001
0010
0100
,
1000
0001
0100
0010
0100
0010
1000
0010
,
0001
0010
1000
0100
0010
0100
0001
0100
,
1000
0001
0100
0100
0010
0010
0100
0010
,
1000
0001
1000
0000
1001
0000
0000
0000
0000
0000
0000
0000
0000
0000
0000
0000
;

//--------------- dance-single - Extraordiberry vs. forcednature ----------------
#NOTEDATA:;
#STEPSTYPE:dance-single;
#DESCRIPTION:Extraordiberry vs. forcednature;
#DIFFICULTY:Hard;
#METER:16;
#RADARVALUES:0,0,0,0,0;
#OFFSET:1.614;
#BPMS:0.000=151.000;
#TIMESIGNATURES:0.000=4=4,
224.000=2=4,
226.000=4=4
;
#CREDIT:Extraordiberry vs. forcednature;
#MUSIC:ANTHEM LANDING.ogg;
#NOTES:
0000
0000
0000
0000
,
0000
0000
0000
0000
,
0000
0000
0000
0000
,
0000
0000
0000
0000
,
0000
0000
0000
0000
,
1001
0000
0001
0000
0000
1000
0000
0000
0010
0000
0000
0100
0000
0000
0010
0000
,
0000
0000
1000
0000
0000
0001
0000
0000
0010
0000
0000
0100
0000
0000
0010
0000
,
0000
0000
0001
0000
0000
1000
0000
0000
0010
0000
0000
0100
0000
0000
0010
0000
,
0000
0000
1000
0000
0000
0001
0000
0000
0011
0000
0000
0110
0000
0000
1100
0000
,
1001
0000
0001
0000
0100
0010
0000
0000
0100
0000
0010
0100
0000
0000
0001
0000
,
1001
0000
1000
0000
0100
0010
0000
0000
0100
0000
0010
0100
0000
0000
1000
0000
,
1001
0000
0001
0000
0100
0010
0000
0000
0110
0000
0000
0100
0001
0000
1000
0000
,
1100
0000
0000
0110
0000
0000
0011
0000
0000
0001
0100
0000
1001
0000
0000
0000
,
1000
0100
0010
0000
0100
0010
0000
0010
0001
0000
1000
0010
0000
0010
0100
0000
,
0001
1000
0100
0000
0010
0100
0000
1000
0001
0000
0100
0010
0000
0010
0100
0000
,
0001
1000
0100
0000
0010
0100
0000
0100
1000
0000
0001
0100
0000
0100
0010
0000
,
1000
0001
0010
0000
0100
0010
0000
0100
2000
0000
0000
3020
0000
0000
2030
0000
,
3001
1000
0100
0000
0010
0100
0000
0100
1000
0000
0001
0100
0000
0100
0010
0000
,
1000
0100
1000
0100
0010
0001
0010
0001
1000
0000
0010
0100
0000
0010
1000
0000
,
0001
0010
0100
0000
0010
0002
0000
0000
2003
0000
0000
3020
0000
0000
0130
0000
,
0110
0000
0000
1010
0000
0000
0110
0000
0000
0100
0001
0000
0011
0000
0100
0000
,
1001
0000
0000
0000
1000
0000
0001
1000
0000
0001
1000
0001
1000
0000
0001
0000
,
0100
0001
0100
0000
0001
0000
0100
0010
0000
0100
0001
0100
0001
0000
0100
0000
,
0010
1000
0010
1000
0010
0100
0010
0000
0100
0000
0010
1000
0010
0000
0100
0000
,
0001
1000
0001
1000
0001
0000
1000
0100
0010
0000
0001
0000
0010
0000
0100
0000
,
1000
0001
1000
0001
1000
0000
0010
0100
0001
0000
0100
0000
0110
0000
1001
0000
,
1000
0100
0010
0000
0001
0010
0100
0000
1000
0001
0100
0000
0001
1000
0010
0000
,
0100
0001
1000
0000
0100
0010
0001
0000
1000
0010
0100
0000
0001
1000
0100
0010
,
0001
1000
0010
0000
0100
0001
1000
0000
0100
0010
0001
0000
0010
0100
1000
0000
,
0001
0100
0010
0000
1000
0100
0010
0000
0001
1000
0010
0000
0100
0001
1000
0000
,
0100
0010
0100
0000
0001
0000
0100
0010
0100
0000
1000
0000
0100
0010
0100
0000
,
0001
0000
0100
0010
0100
1000
0100
0000
0010
0000
0001
1000
0001
0100
0010
0000
,
1000
0100
0010
0000
0100
0010
0001
0000
1000
0010
0100
0000
0001
0010
0100
0000
,
1000
0001
0100
0000
0001
1000
0010
0000
0100
0001
1000
0100
1000
0001
0100
0010
,
1000
0000
0100
0000
1000
0000
0100
0001
0000
0001
0000
0100
1000
0000
0100
0010
,
0001
0000
0100
0000
0001
0000
0100
1000
0000
1000
0000
0100
0001
0000
0100
0010
,
1000
0000
0010
0000
1000
0000
0010
0001
0000
0001
0000
0010
1000
0000
0010
0100
,
0001
0000
0010
0000
0001
0000
0010
1000
0000
1000
0000
0010
0001
0000
0010
0100
,
1000
0000
0001
0000
0100
0000
0010
0001
0000
0001
0000
0010
0100
0000
0010
1000
,
0001
0000
1000
0000
0100
0000
0010
1000
0000
1000
0000
0010
0100
0000
0010
0001
,
1000
0000
0001
0000
0010
0000
0100
0001
0000
0001
0000
0100
0010
0000
0100
1000
,
0001
0010
0001
1000
0010
1000
0001
0010
0001
0010
0001
1000
0010
1000
0001
0010
,
0100
1000
0001
0100
0001
1000
0100
1000
0100
1000
0001
0100
0001
1000
0100
0010
,
0002
0000
0000
0000
0103
0000
0010
0100
0020
0000
0000
0000
1030
0000
0100
1000
,
0200
0000
0000
0000
0310
0000
0001
1000
0002
0000
0100
0000
0103
0000
0010
1000
,
0002
0000
0000
0000
0013
0000
0100
1000
0200
0000
0000
0000
1300
0000
0010
0100
,
0002
0000
0000
0000
0013
0000
0001
1000
0001
0000
0100
0000
0100
0000
0010
0000
,
0210
0001
0010
1000
,
0300
0000
0100
0000
0001
0000
0010
0000
0100
0010
0100
0000
2000
0000
0000
0000
,
3010
0002
0000
0013
0200
0000
0302
0000
,
0023
0000
1000
0000
0100
0000
0031
1000
,
2001
3200
0001
0010
,
1300
0001
0100
0010
1000
0001
0010
0100
,
1000
1010
0001
0101
1000
1100
0001
0011
,
1000
0110
0001
0101
0010
1100
0010
1001
,
0101
0101
0110
1010
1100
0110
0011
0110
,
0100
1000
0100
0010
0001
0000
0000
0000
1002
0000
0000
0000
0203
0000
0000
0000
,
2300
0000
3100
0001
2000
0000
3020
0000
,
0130
0001
0010
0100
2000
0000
3002
0000
,
0013
0100
0001
0100
2000
0000
3002
0000
,
0103
0000
0010
0000
1000
0000
0001
0000
1000
0010
0100
0010
1000
0001
0100
0001
,
1000
0100
1000
0001
0100
0010
1000
0001
0010
0100
1000
0001
0100
0010
1000
0001
,
0010
0100
1000
0100
0010
0001
1000
0010
0100
0001
1000
0100
1000
0001
0010
0100
,
1000
0001
0100
1000
0100
0001
0100
0010
1000
0001
0010
0001
1000
0010
1000
0001
,
0010
0100
0010
0001
1000
0010
0100
0001
2000
0000
0000
0000
3200
0000
0000
0000
,
0302
0000
0103
1000
0002
0000
0023
0000
,
0031
0100
1000
0100
0002
0000
2003
0000
,
3010
0100
1000
0100
0002
0000
2003
0000
,
3100
0000
0010
0000
0001
0000
1000
0000
0001
0010
0100
0010
0001
0100
0010
1000
,
0001
0010
0100
1000
0010
0100
0010
1000
0001
0010
0001
1000
0010
0100
0001
1000
,
0100
0010
0001
0100
0001
0010
0100
1000
0010
1000
0001
0100
0010
1000
0001
0010
,
0100
1000
0100
0001
0100
0010
0001
1000
0001
0100
0010
1000
0001
0010
0100
1000
,
0010
0100
0001
0010
0001
0100
0010
1000
0100
0000
1000
0010
1000
0010
0100
0001
,
0100
0000
0001
0010
0001
0010
0100
1000
0100
0000
1000
0010
1000
0010
0100
0001
,
1000
0100
0010
0100
0001
0100
0010
0100
1000
0000
0001
0100
0001
1000
0100
1000
,
0001
0000
1000
0010
1000
0001
0010
0001
1000
0000
0010
0100
0001
0010
0100
1000
,
0001
0100
0010
0100
1000
0100
0010
0100
0002
0000
0000
0000
0000
0000
0000
0000
,
0000
0000
0000
0000
,
0000
0000
0000
0000
0000
0003
0000
0000
;

//--------------- dance-double - Extraordiberry vs. forcednature ----------------
#NOTEDATA:;
#STEPSTYPE:dance-double;
#DESCRIPTION:Extraordiberry vs. forcednature;
#DIFFICULTY:Easy;
#METER:7;
#RADARVALUES:0,0,0,0,0;
#OFFSET:0.786;
#BPMS:0.000=151.000;
#STOPS:72.000=1.589;
#CREDIT:Extraordiberry vs. forcednature;
#MUSIC:../ANTHEM LANDING (N)/ANTHEM LANDING (N).ogg;
#NOTES:
00000000
00000000
00000000
00000000
,
00000000
00000000
00000000
00000000
,
00000000
00000000
00000000
00000000
,
00000000
00000000
00000000
00000000
,
00000000
00000000
00000000
00000000
,
00000000
00000000
00000000
00000000
,
00000000
00000000
00000000
00000000
,
00000000
00000000
00000000
00000000
,
00000000
00000000
00000000
00000000
,
00022000
00000000
00000000
00000000
,
00033000
00000000
00000000
00000000
,
00200000
00000000
00000000
00000000
,
00000000
00000000
00000000
00000000
,
00320000
00000000
00000000
00000000
,
00000000
00000000
00000000
00000000
,
02030000
00000000
00000000
00000000
,
00200000
00000000
00000000
03300000
,
20020000
00000000
00000000
00000000
,
30030000
00000000
00010000
01000000
,
00010000
01000000
00001000
00010000
,
00001000
00010000
00000010
00001000
,
00000010
00001000
00000001
00000010
,
00000100
00001000
00000010
00000100
,
00000010
00000100
00001000
00010000
,
00001000
00010000
00100000
01000000
,
00100000
01000000
00020000
00000000
,
00000000
00000000
20000000
00000000
,
30030000
00000000
10010000
10000000
,
00100000
10000000
00010000
00100000
,
00001000
00010000
00000100
00001000
,
00000001
00000010
00000001
00001000
,
00000010
00001000
00001001
00000001
,
00000100
00000001
00001000
00000100
,
00010000
00001000
00022000
00000000
,
00033000
00000000
00000000
00000000
00001000
00010000
00000000
00000000
,
00010000
00001000
00011000
00000000
,
01000000
01000000
00001000
00000000
,
01000000
01000000
00001000
00000000
,
00100000
00100000
00002000
00000000
,
00003000
00010000
00011000
00001000
,
00020000
00030000
00000100
00001000
,
00000100
00000010
00000001
00001000
,
00000001
00000100
00000010
00002000
,
00003000
00000100
00011000
00010000
,
00001000
00010000
00001000
00000000
00100000
00000000
00010000
00000000
,
02000000
00000000
03000000
00000000
00100000
01000000
00100000
00000000
,
10000000
00000000
01000000
00000000
00100000
01000000
00100000
00000000
,
00010000
01000000
10010000
00000000
,
00010000
00000000
00100000
00000000
00001000
00010000
00001000
00000000
,
00010000
00000100
00001000
00001000
,
00000001
00000001
00001000
00001000
,
00000001
00000001
00001001
00001000
,
00000010
00001000
00000010
00000000
00010000
00000000
00001000
00000000
,
00010000
00001000
00010000
00000000
00002000
00000000
00013000
00000000
,
00002000
00013000
00002000
00203000
,
00320000
00030000
10010000
10000000
,
01000000
10000000
01000000
00000000
00100000
00000000
01000000
00000000
,
00100000
01000000
00100000
00000000
00010000
00000000
00100000
00000000
,
00010000
00100000
00010000
00000000
01000000
00000000
00001000
00000000
,
00010000
00001000
00010000
00000000
00000100
00000000
00001000
00000000
,
00000100
00001000
00000100
00000000
00001000
00000000
00000010
00000000
,
00001000
00000010
00001000
00000000
00000001
00000000
00000100
00000000
,
00000010
00000100
00000010
00000000
00001000
00000000
00000100
00000000
,
00010000
00000100
00010000
00000000
00011000
00000000
00001000
00000000
,
00100000
00000000
00010000
00100000
00010000
00000000
01000000
00000000
,
00100000
01000000
00100000
00000000
10000000
00000000
01000000
00000000
,
10000000
00010000
10000000
00000000
00010000
00000000
00100000
00000000
,
00001000
00010000
00001000
00000000
00020000
00000000
00000100
00000000
,
00000100
00030100
00000200
00000010
,
00000010
00000310
00000220
00000000
,
00000330
00000000
00000010
00000000
00000100
00001000
00000100
00000000
,
00010000
00001000
00010000
00000000
00011000
00000000
00000000
00000000
;

//--------------- dance-double - Extraordiberry vs. forcednature ----------------
#NOTEDATA:;
#STEPSTYPE:dance-double;
#DESCRIPTION:Extraordiberry vs. forcednature;
#DIFFICULTY:Medium;
#METER:12;
#RADARVALUES:0,0,0,0,0;
#OFFSET:1.595;
#BPMS:0.000=151.000;
#STOPS:68.000=1.192;
#CREDIT:Extraordiberry vs. forcednature;
#MUSIC:../ANTHEM LANDING (H)/ANTHEM LANDING (H).ogg;
#NOTES:
00000000
00000000
00000000
00000000
,
00000000
00000000
00000000
00000000
,
00000000
00000000
00000000
00000000
,
00000000
00000000
00000000
00000000
,
00000000
00000000
00000000
00000000
,
00010000
00001000
00100000
00001000
00010000
01000000
00100000
01000000
,
10000000
00010000
10000000
00100000
01000000
00100000
00010000
00001000
,
00000100
00000010
00000100
00000001
00001000
00000001
00000010
00000000
,
00000220
00000000
00000330
00000100
00000010
00000000
00000001
00001000
,
00001001
00000000
00000001
00000010
00000100
00000000
00000010
00000100
,
00001000
00000000
00000100
00010000
00001000
00010000
00000010
00001000
,
00000010
00000000
00000100
00001000
00010000
00000000
00001000
00010000
,
00100000
00000000
01000000
00100000
10000000
00010000
01000000
00010000
,
00100000
00000000
01000000
10000000
01000000
00000000
00010000
00001000
,
00020000
00000100
00001000
00000010
,
00031000
00000010
00001000
00000010
00000001
00000010
00000100
00001000
,
00000001
00000100
00001000
00010000
00001000
00010000
00200000
00000000
,
00300000
00000000
00000000
00000000
10000000
00000000
00000000
01000000
00000000
00000000
00010000
00000000
00000000
01000000
00000000
00000000
,
10000000
00000000
10000000
00000000
00100000
00000000
00000000
00010000
00000000
00000000
00001000
00000000
00000000
00010000
00000000
00000000
,
00001000
00000000
00001000
00000000
00000100
00000000
00000000
00000001
00000000
00000000
00000010
00000000
00000000
00000001
00000000
00000000
,
00000100
00000000
00000100
00000000
00001000
00000000
00000000
00010000
00000000
00000000
00100000
00000000
00000000
00010000
00000000
00000000
,
00001000
00000000
00001000
00000000
00010000
00000000
00000000
01000000
00000000
00000000
10000000
00000000
00000000
01000000
00000000
00000000
,
00100000
00000000
00100000
00000000
01000000
00000000
00000000
00010000
00000000
00000000
00001000
00000000
00000000
00010000
00000000
00000000
,
00001000
00001000
00000010
00000100
00000010
00000100
00001000
00000001
,
00001000
00000001
00000100
00001000
00010000
00001000
00010000
00100000
,
10000000
00010000
20020000
00000000
30030000
00000000
10000000
00000000
,
10000000
01000000
00010000
00000000
00010000
00001000
00000010
00000000
,
00000010
00000100
00001000
00000000
00001000
00000000
00000001
00000000
,
00001000
00000000
00000000
00000000
00000000
00000000
00000010
00000000
00000000
00000000
00000000
00000000
00000100
00000000
00000000
00000000
00000000
00000000
00000000
00000000
00000000
00000010
00000000
00000000
00000000
00000000
00000000
00000000
00000000
00000000
00000100
00000000
00000000
00000000
00000000
00000000
00001000
00000000
00000000
00000000
00010000
00000000
00000000
00000000
00001000
00000000
00000000
00000000
,
00010000
00011000
00001000
01000000
,
00010000
00010000
00100000
00000000
01000000
10000000
00100000
00000000
,
00100000
01000000
00001000
00000000
00001000
00010000
00000010
00000000
,
00010000
00000000
00000000
00000000
00000000
00000000
00000000
00000000
00000000
00000000
00000000
00000000
00000100
00000000
00000000
00000000
00000000
00000000
00000000
00000000
00000000
00000010
00000000
00000000
00000000
00000000
00000000
00000000
00000000
00000000
00000100
00000000
00000000
00000000
00000000
00000000
00010000
00000000
00000000
00000000
00001000
00000000
00000000
00000000
00010000
00000000
00000000
00000000
,
00001000
00000000
00000000
00000000
00000000
00000000
00000000
00000000
00000000
00000000
00000000
00000000
01000000
00000000
00000000
00000000
00000000
00000000
00000000
00000000
00000000
00100000
00000000
00000000
00000000
00000000
00000000
00000000
00000000
00000000
01000000
00000000
00000000
00000000
00000000
00000000
00001000
00000000
00000000
00000000
00010000
00000000
00000000
00000000
00001000
00000000
00000000
00000000
,
00010000
00000020
00001000
00000100
,
00000031
00000010
00001000
00000000
00000100
00001000
00000010
00000000
,
00010000
00001000
00200000
00000000
01000000
00000000
00010000
00000000
,
00301000
00100000
00010000
00000000
01000000
00100000
10000000
00000000
,
01000000
00010000
00002000
00000000
00100000
00000000
00010000
00000000
,
01003000
00010000
00100000
00000000
00001000
00010000
00000010
00000000
,
00001000
00000100
00000020
00000000
00000001
00000000
00000100
00000000
,
00000001
00000000
00000130
00001000
00000100
00001000
00000010
00000100
,
00001000
00010000
00100000
01000000
00100000
10000000
01000000
00010000
,
00001000
00000000
00011000
00000000
00101000
00000000
00100000
00010000
,
01000000
00000000
01010000
00000000
01001000
00000000
00001000
00010000
,
00000010
00000000
00001000
00000100
00000001
00000000
00000001
00000100
,
00001000
00000000
00010000
01000000
10000000
00000000
10000000
01000000
,
00010000
00000000
01001000
00000000
00110000
00000000
00100000
00001000
,
00010000
00000000
00010100
00000000
00001010
00000000
00000010
00000100
,
00000001
00000000
00000010
00001000
00010000
00000000
00100000
00010000
,
00001000
02000000
00010000
00100000
,
13000000
00000000
00000000
00000000
01000000
00000000
00010000
00000000
00100000
00000000
00000000
00100000
00000000
00000000
00100000
00000000
,
00001000
00000000
00010000
00000000
00001000
00000000
00000010
00000000
00000100
00000000
00000000
00000100
00000000
00000000
00001000
00000000
,
00000010
00000000
00000000
00000000
00000100
00000000
00000001
00000000
00000010
00000000
00000000
00000010
00000000
00000000
00000100
00000000
,
00000010
00000001
00000100
00001000
00010000
00000000
00011000
00000000
,
00011000
00000000
00001000
00010000
00100000
00000000
01000000
00000000
,
00100000
10000000
01000000
10000000
00000000
01000000
00000000
00010000
,
00001000
00000000
00000000
00000000
00000010
00000000
00000000
00000100
00000000
00000000
00000010
00000000
00000000
00000000
00000001
00000000
,
00000000
00000000
00000100
00000000
00000010
00000000
00000100
00000000
00001000
00000000
00010000
00000000
00001000
00000000
00000000
00010000
,
00000000
00000000
00100000
00000000
10000000
00000000
00000000
00000000
01000000
00000000
10000000
00000000
01000000
00000000
00000000
00010000
,
00000000
00001000
00020000
00000000
00000100
00000000
00001000
00000000
,
00030010
00010000
00002000
00000000
01000000
00000000
00010000
00000000
,
00103000
01000000
10000000
00100000
00010000
00001000
00010000
00001000
,
00000100
00000000
00001001
00000000
00000001
00000010
00000100
00010000
,
00001000
00100000
01000000
00000000
10000000
00100000
01000000
00001000
,
00010000
00000010
00000100
00000000
00000001
00000010
00000100
00010000
,
00000010
00001000
00000001
00000000
00000100
00001000
00010000
01000000
,
00010000
00001000
00200000
00000000
01000000
00000000
00010000
00000000
,
00301000
00000000
00100000
00010000
01000000
00001000
00010000
00000100
,
00002000
00000000
00003010
00000200
00000000
00000301
00000020
00000000
,
00002030
00023000
00000100
00030010
,
00011000
00201000
00320000
01000000
,
10000000
00000000
00130000
00010000
00100000
00010000
00001000
00000100
,
00000010
00000001
00000100
00001000
00000100
00001000
00010000
00001000
,
00010000
00100000
10000000
01000000
00100000
01000000
00010000
01000000
,
10000000
00010000
01000000
01000000
00100000
00100000
00010000
00001000
,
00010000
00001000
00010000
00000000
00011000
00000000
00000000
00000000
00000000
00000000
00000000
00000000
00000000
00000000
00000000
00000000
;

//--------------- dance-double - Extraordiberry vs. forcednature ----------------
#NOTEDATA:;
#STEPSTYPE:dance-double;
#DESCRIPTION:Extraordiberry vs. forcednature;
#DIFFICULTY:Hard;
#METER:16;
#RADARVALUES:0,0,0,0,0;
#OFFSET:1.614;
#BPMS:0.000=151.000;
#CREDIT:Extraordiberry vs. forcednature;
#MUSIC:ANTHEM LANDING.ogg;
#NOTES:
00000000
00000000
00000000
00000000
,
00000000
00000000
00000000
00000000
,
00000000
00000000
00000000
00000000
,
00000000
00000000
00000000
00000000
,
00000000
00000000
00000000
00000000
,
00011000
00000000
00010000
00000000
00000000
00000100
00000000
00000000
00001000
00000000
00000000
00000100
00000000
00000000
00010000
00000000
,
00000000
00000000
00001000
00000000
00000000
01000000
00000000
00000000
00010000
00000000
00000000
01000000
00000000
00000000
00001000
00000000
,
00000000
00000000
00010000
00000000
00000000
00000100
00000000
00000000
00001000
00000000
00000000
00000100
00000000
00000000
00010000
00000000
,
00000000
00000000
00001000
00000000
00000000
00010000
00000000
00000000
00100000
00000000
00000000
10000000
00000000
00000000
00010000
00000000
,
10010000
00000000
10000000
00000000
01000000
10000000
00000000
00000000
01000000
00000000
00010000
00001000
00000000
00000000
00010000
00000000
,
00011000
00000000
00001000
00000000
00010000
00001000
00000000
00000000
00010000
00000000
00001000
00000010
00000000
00000000
00000001
00000000
,
00001001
00000000
00001000
00000000
00000001
00000100
00000000
00000000
00000110
00000000
00000000
00000010
00001000
00000000
00000010
00000000
,
00001010
00000000
00000000
00011000
00000000
00000000
01010000
00000000
00000000
01100000
00000000
00000000
10010000
00000000
00000000
00000000
,
10000000
00010000
00100000
00000000
00010000
00100000
00000000
00100000
01000000
00000000
00010000
00001000
00000000
00001000
00010000
00000000
,
00001000
00010000
00000010
00000000
00001000
00000010
00000000
00000010
00000100
00000000
00000001
00001000
00000000
00001000
00000100
00000000
,
00001000
00000001
00000100
00000000
00000010
00000100
00000000
00000100
00001000
00000000
00010000
00001000
00000000
00001000
00010000
00000000
,
00001000
00100000
00010000
00000000
10000000
00200000
00000000
00000000
00320000
00000000
00000000
00032000
00000000
00000000
00003200
00000000
,
00000301
00001000
00000100
00000000
00001000
00000100
00000000
00000100
00000010
00000000
00001000
00010000
00000000
00010000
00001000
00000000
,
00010000
00001000
01000000
00000000
00010000
01000000
00100000
00000000
10000000
00010000
00100000
00010000
00100000
00001000
00010000
00000000
,
00001000
00010000
00000010
00000000
00001000
00000002
00000000
00000000
00000023
00000000
00000000
00002030
00000000
00000000
00013000
00000000
,
00011000
00000000
00000000
01010000
00000000
00000000
01100000
00000000
00000000
01010000
00000000
00000000
00011000
00000000
00000000
00000000
,
00010000
00000000
00001000
00000000
00010000
00001000
00010000
00000000
00000010
00000000
00001000
00000000
00000010
00001000
00000010
00000000
,
00001000
00000001
00000000
00001000
00000001
00001000
00000001
00000000
00000010
00000000
00000001
00000000
00000010
00000001
00000010
00000000
,
00000001
00001000
00000000
00000001
00000100
00000001
00000100
00000010
00000100
00000000
00000010
00000000
00001000
00000010
00010000
00000000
,
00001000
00010000
00001000
00010000
00001000
00000000
00100000
00010000
00100000
00000000
00010000
00000000
00100000
00000000
00001000
00000000
,
00010000
00001000
00010000
00001000
00010000
00000000
00000010
00001000
00000010
00000000
00010000
00000000
00011000
00000000
00011000
00000000
,
00001000
00010000
00100000
00010000
10000000
01000000
00010000
10000000
,
01000000
00000000
00010000
00000000
00001000
00000000
00000010
00000000
00000001
00000000
00000100
00000000
00001000
00010000
00001000
00000000
,
00010000
00001000
00000010
00001000
00000001
00000100
00001000
00000001
,
00000100
00000000
00001000
00000000
00010000
00000000
01000000
00000000
10000000
00000000
00100000
00000000
00010000
00001000
00010000
00000000
,
00100000
00010000
00001000
00010000
00001000
00000000
00000100
00001000
00010000
00001000
00010000
00000000
00100000
00010000
00001000
00010000
,
00001000
00000000
00000100
00001000
00000100
00001000
00010000
00000000
00001000
00010000
00100000
00000000
10000000
00010000
10000000
00000000
,
01000000
00010000
00001000
00010000
00100000
10000000
00010000
10000000
,
01000000
00010000
00001000
00000010
00001000
00000001
00000100
00010000
,
00001000
00000000
00010000
00100000
00010000
00000000
00100000
01000000
00100000
00000000
10000000
00100000
10000000
00000000
00010000
00000000
,
10000000
00000000
01000000
10000000
01000000
00000000
00100000
01000000
00100000
01000000
00010000
01000000
00010000
00000000
00001000
00000000
,
00010000
00000000
00001000
00000010
00001000
00000000
00000010
00000100
00000010
00000000
00000001
00000010
00000001
00000000
00001000
00000000
,
00000001
00000000
00000100
00000001
00000100
00000000
00000010
00000100
00000010
00000100
00001000
00000100
00001000
00000000
00010000
00000000
,
00001000
00000000
00010000
01000000
00010000
00000000
01000000
00100000
01000000
00000000
10000000
01000000
10000000
00000000
00010000
00000000
,
10000000
00000000
00100000
10000000
00100000
00000000
01000000
00100000
01000000
00100000
00010000
00100000
00010000
00000000
00001000
00000000
,
00010000
00000000
00001000
00000100
00001000
00000000
00000100
00000010
00000100
00000000
00000001
00000100
00000001
00000000
00001000
00000100
,
00000010
00000001
00000010
00000001
00001000
00000010
00001000
00000010
00010000
00001000
00010000
00001000
01000000
00010000
10000000
00000000
,
00010000
00100000
00010000
00100000
00001000
00010000
00001000
00010000
00000100
00001000
00000100
00001000
00000001
00000100
00000001
00000000
,
00002000
00000000
00003001
00000000
00000010
00000000
00001000
00000000
00000002
00000100
00000003
00000100
00001000
00000000
00000100
00010000
,
00002000
00000000
00013000
00000000
00100000
00000000
00010000
00000000
20000000
01000000
30000000
01000000
00010000
00000000
10000000
00010000
,
20000000
00000000
31000000
00000000
00010000
00000000
00001000
00000000
00200000
00010000
00300000
00010000
00001000
00000000
00000100
00001000
,
00000002
00000000
00000103
00000000
00001000
00000000
00010000
00000000
00000020
00001000
00000030
00001000
00010000
00000000
01000000
00010000
,
20000000
00100000
00000000
00010000
,
31000000
00000000
10000000
00000000
10000000
01000000
00020000
00000000
,
00031000
00000200
00000000
00000301
00000020
00000000
00020030
00000000
,
00230000
00000000
00302000
00000000
00023000
00000000
00130000
10000000
,
20100000
00000000
00010000
00000000
32000000
00000000
03010000
00001000
,
00012000
00000000
00000010
00000000
00003002
00000000
00000103
00001000
,
00001010
00010000
00011000
01000000
01010000
10000000
10100000
00010000
,
00110000
00001000
00011000
00000100
00001100
00000001
00000011
00001000
,
00001001
00001010
00011000
01010000
01100000
10100000
10010000
00000000
,
00010000
00100000
01000000
00010000
00001000
00000000
00000000
00000000
00012000
00000000
00000000
00000000
00003020
00000000
00000000
00000000
,
00000032
00000000
00001003
00000010
00000002
00000000
00000023
00000000
,
00010030
00100000
10000000
00010000
00200000
00000000
20300000
00000000
,
30100000
00010000
10000000
00100000
00020000
00000000
00032000
00000000
,
00003010
00000000
00000001
00000000
00001000
00000000
00000010
00000000
00000100
00000001
00000100
00000001
00001000
00000010
00001000
00000010
,
00010000
00001000
00010000
00001000
01000000
00010000
10000000
00000000
01000000
10000000
01000000
10000000
00010000
00100000
00010000
00100000
,
00001000
00010000
00001000
00010000
00000100
00001000
00000100
00000000
00010000
00000100
00010000
00001000
00010000
00000010
00010000
00001000
,
00010000
00100000
10000000
00000000
00010000
10000000
01000000
00000000
10000000
01000000
00010000
00000000
00001000
00000010
00000001
00000000
,
00001000
00000001
00000100
00000010
00000100
00001000
00010000
00000000
00021000
00000000
00000000
00000000
02030000
00000000
00000000
00000000
,
23000000
00000000
30010000
01000000
20000000
00000000
32000000
00000000
,
03001000
00000100
00000001
00001000
00000200
00000000
00000302
00000000
,
00000103
00001000
00000001
00000100
00002000
00000000
00023000
00000000
,
01030000
00000000
10000000
00000000
00010000
00000000
00010000
00000000
10000000
01000000
00100000
00010000
00100000
00001000
00010000
00000100
,
00001000
00000100
00000010
00000001
00001000
00000001
00001000
00000000
00000010
00000100
00000010
00000100
00001000
00010000
00001000
00010000
,
00100000
01000000
00100000
01000000
00010000
10000000
00010000
00000000
10000000
01000000
00100000
01000000
00010000
00001000
00010000
00001000
,
00000010
00000100
00000010
00000001
00001000
00000001
00000100
00000000
00001000
00010000
00001000
00100000
00001000
00010000
00001000
01000000
,
00001000
00010000
00001000
01000000
00010000
01000000
00100000
10000000
00010000
00000000
10000000
01000000
00010000
00000000
01000000
00010000
,
00001000
00000000
00010000
00001000
00000010
00000000
00001000
00000010
00000001
00000000
00001000
00000001
00000100
00000010
00001000
00000010
,
00010000
00001000
00010000
00000010
00001000
00000010
00000100
00000001
00001000
00000000
00000001
00000100
00001000
00000000
00000100
00001000
,
00010000
00000000
00001000
00010000
00100000
00000000
00010000
00100000
10000000
00000000
00010000
10000000
01000000
00100000
00010000
00100000
,
00001000
00010000
00000100
00001000
00000100
00010000
00001000
00000010
00000002
00000000
00000000
00000000
00000000
00000000
00000000
00000000
,
00000000
00000000
00000000
00000000
,
00000000
00000000
00000000
00000000
00000000
00000003
00000000
00000000
;
