#VERSION:0.83;
#TITLE:ALBA -黎明-;
#SUBTITLE:;
#ARTIST:SOUND HOLIC feat. Nana Takahashi;
#TITLETRANSLIT:ALBA -reimei-;
#SUBTITLETRANSLIT:;
#ARTISTTRANSLIT:;
#GENRE:HYPER GOTHIC BEAT;
#CREDIT:;
#MUSIC:ALBA -reimei-.ogg;
#BANNER:ALBA -reimei-.png;
#BACKGROUND:ALBA -reimei--bg.png;
#CDTITLE:./CDTitles/bm IIDX 21 SPADA.png;
#SAMPLESTART:90.494;
#SAMPLELENGTH:15.000;
#SELECTABLE:YES;
#OFFSET:1.864;
#BPMS:0.000=165.000
,206.000=82.500
,221.000=165.000
;
#STOPS:165.000=0.545
,221.000=0.364
,235.500=0.364
;
#TIMESIGNATURES:0.000=4=4,
164.000=2=4,
166.000=4=4,
234.000=3=4,
237.000=4=4
;
#BGCHANGES:2.000=ALBA -reimei-.mp4=1.000=0=0=0=StretchNoLoop====,
99999.000=-nosongbg-=1.000=0=0=0=StretchNoLoop====
;
#FGCHANGES:;

//--------------- dance-single - forcednature ----------------
#NOTEDATA:;
#STEPSTYPE:dance-single;
#DESCRIPTION:forcednature;
#DIFFICULTY:Beginner;
#METER:3;
#RADARVALUES:0,0,0,0,0;
#CREDIT:forcednature;
#NOTES:
0000
0000
0000
0000
,
0000
0000
0000
0000
,
0000
0000
0000
0000
,
0000
0000
0000
0000
,
0000
0000
0000
0000
,
0000
0000
0000
0000
,
0001
0000
0001
0000
,
0100
0000
0000
0000
,
0010
0000
0010
0000
,
1000
0000
0000
0000
,
0001
0000
0010
0000
,
0100
0000
0000
0000
,
1000
0000
0100
0000
,
0010
0000
0000
0000
,
1001
0000
0000
0000
,
0000
0000
0000
0000
,
1000
0000
0000
0000
,
0000
0000
0000
0000
,
0020
0000
0000
0000
,
0030
0000
0000
0000
,
0200
0000
0000
0000
,
0300
0000
0000
0000
,
0001
0000
0000
0001
,
1000
0000
0000
1000
,
0001
0000
0000
0001
,
1000
0000
0010
0000
,
0100
0000
0000
0000
,
0001
0000
0000
0000
,
0010
0000
0000
0000
,
0100
0000
0100
0000
,
1000
0000
0000
0000
,
0010
0000
0000
0000
,
1000
0000
0000
0000
,
0001
0000
0001
0000
,
0100
0000
0000
0000
0000
0000
0000
0100
,
0000
0000
0000
0000
0000
0000
0000
0010
,
0000
0000
0000
0010
,
0000
0000
1000
0000
,
1000
0000
0000
0000
0000
0000
0000
0001
,
0000
0000
0000
0000
0000
0000
0000
0010
,
0000
0000
0000
0100
0000
0000
0000
1000
,
0000
0000
1001
0000
,
0000
0000
0110
0000
,
0000
0000
0001
0000
,
0001
0000
1000
0000
,
0000
0000
0100
0000
,
1000
0000
0010
0000
,
0100
0000
0001
0000
,
0001
0000
0010
0000
,
0000
0000
1001
0000
,
0000
0000
0000
0220
0000
0000
0000
0000
,
0000
0000
0330
0000
,
0000
0000
0000
0000
,
0000
0000
2000
3000
,
0002
0003
0200
0300
,
0020
0030
2002
0000
,
0000
0000
0000
0000
,
3003
0000
0200
0000
,
0000
0000
0000
0000
0000
0000
0000
0300
,
0000
1001
0000
0000
,
0000
0110
0000
0000
,
0000
0001
0000
0001
,
0000
1000
0000
0100
,
0000
1000
0000
0000
,
0000
0010
0000
0100
,
0000
0001
0000
1000
,
0000
0010
0000
0000
,
0000
0100
0000
0001
,
0000
0100
0000
0001
,
0000
0010
0000
0001
,
0000
0010
0000
0100
,
0000
1000
0000
0100
,
0000
1000
0000
0100
,
0000
1000
0000
0010
,
0000
0100
0000
0001
,
0000
2002
0000
0000
,
0000
3003
0000
0000
,
0000
1000
0000
1000
,
0000
0001
0000
0000
,
0000
0000
0000
0000
0100
0000
0000
0000
0000
0100
0000
0000
0000
0000
0000
0020
,
0000
0030
0000
0000
;

//--------------- dance-single - forcednature ----------------
#NOTEDATA:;
#STEPSTYPE:dance-single;
#DESCRIPTION:forcednature;
#DIFFICULTY:Easy;
#METER:8;
#RADARVALUES:0,0,0,0,0;
#CREDIT:forcednature;
#NOTES:
0000
0000
0000
0000
,
0000
0000
0000
0000
,
0000
0000
0000
0000
,
0000
0000
0000
0000
,
0000
0000
0000
0000
,
0000
0000
0000
0000
,
1000
0100
1000
0001
,
0100
0100
0001
0000
,
0010
0100
1000
0100
,
0010
0010
0001
0000
,
1000
0010
0100
0010
,
1000
1000
0001
0000
,
0100
0001
0010
0100
,
1000
1000
0001
0000
,
1001
0000
1000
0000
,
0100
0000
1000
0000
,
0001
0000
0100
0000
,
0001
0000
2000
0000
,
3010
0000
0100
0000
,
0010
0010
1000
0000
,
0001
0000
0100
0000
,
0010
0010
0200
0000
,
0301
0000
0000
1000
0000
0000
0001
0000
0000
1000
0000
0000
0100
0000
0000
0000
,
1000
0000
0000
0001
0000
0000
1000
0000
0000
0001
0000
0000
0100
0000
0000
0000
,
0001
0000
0000
1000
0000
0000
0001
0000
0000
1000
0000
0000
0010
0000
0000
0000
,
0100
0000
0000
0100
0000
0000
0100
0000
0002
0000
0000
0000
0000
0000
0000
0000
,
0013
0001
0010
0100
,
0010
0001
0010
0000
0100
0000
1000
0000
,
0001
0000
0100
0000
0010
0000
1000
0001
,
0000
1000
0000
0010
0000
0100
0010
0000
,
0110
0100
0001
0010
,
0001
1000
0001
0100
,
0010
1000
0010
0000
0100
0000
0001
0000
,
2000
3200
0320
0032
,
0003
1001
0110
1001
,
0000
0001
0000
0010
0000
0100
0000
0000
,
0000
1001
0000
0110
0000
1001
0000
0000
,
1000
0010
0100
0001
,
0000
0101
1010
0101
,
0000
0001
0000
1000
0000
0100
0000
0020
,
0000
0001
0000
0230
0000
1000
0000
0310
,
0000
0010
0001
0000
1001
0000
1000
0010
,
0200
0000
0300
0000
1001
0000
0001
0010
,
0200
0000
0300
0000
1000
0000
0001
1000
,
0001
0000
0100
0000
0001
0000
0010
0001
,
0010
0100
2000
0100
,
3002
0100
2003
3200
,
0320
0032
1003
0010
,
0100
0010
0100
0000
0001
0000
1000
0000
,
1001
0000
0110
0000
0001
0000
0001
1000
,
0000
0100
0000
0020
0000
0000
0000
0000
,
0000
0030
0002
0000
,
0203
0000
0320
0000
,
2030
0000
3002
0010
,
2003
0010
3002
0203
,
0310
0010
1000
0000
2002
0000
0000
0000
,
0000
3003
0002
0203
,
0320
2030
3002
0000
,
0003
0000
0010
0000
0100
0000
0100
1000
,
0000
0000
1001
0000
0001
0010
0200
0000
,
0300
0000
1001
0000
1000
0010
0200
0000
,
0300
0000
0001
0000
1000
0001
1000
0000
,
0100
0000
1000
0000
0010
1000
0010
0000
,
0100
0002
0100
2003
,
0100
3002
0203
0320
,
2030
0000
3001
0000
0010
0000
0100
0010
,
0100
1000
0001
1001
,
0110
0000
1000
0001
0100
0000
0001
1000
,
0100
0010
0001
0100
,
0010
0000
1000
0001
0100
0000
0001
1000
,
0100
0010
0001
0100
,
0010
0000
1000
0100
0010
0000
0001
0100
,
0010
1000
0001
0010
,
0100
0000
0010
0001
1000
0000
0010
1000
,
0001
0020
0130
2000
,
3002
0000
0103
0000
0010
0100
0010
0000
,
1000
0001
0010
0100
,
1000
0000
0001
0000
0100
0001
0100
0000
,
0010
1000
0002
0023
,
0030
0000
0000
0000
0001
0000
0000
0000
0000
1000
0000
0001
0000
0000
0000
2002
,
0000
3003
0000
0000
;

//--------------- dance-single - forcednature ----------------
#NOTEDATA:;
#STEPSTYPE:dance-single;
#DESCRIPTION:forcednature;
#DIFFICULTY:Medium;
#METER:12;
#RADARVALUES:0,0,0,0,0;
#CREDIT:forcednature;
#NOTES:
0000
0000
0000
0000
,
0000
0000
0000
0000
,
0000
0000
0000
0000
,
0000
0000
0000
0000
,
0000
0000
0000
0000
,
0000
0000
0000
0000
,
0001
0000
0000
1000
0000
0000
0001
0000
0100
0000
0000
0001
0000
0000
0100
0000
,
0010
0000
1000
0001
1000
0010
0100
0000
,
0001
0000
0000
1000
0000
0000
0001
0000
1000
0000
0000
0100
0000
0000
1000
0000
,
0100
0000
0010
0001
1000
0010
1000
0000
,
0001
0000
0000
0010
0000
0000
0001
0000
0010
0000
0000
0100
0000
0000
0010
0000
,
0100
0000
1000
0001
0100
0001
1000
0000
,
0100
0000
0000
0010
0000
0000
0100
0000
1000
0000
0000
0001
0000
0000
1000
0000
,
0010
0000
0100
0010
0100
0001
1000
0000
,
1002
0000
0100
0100
,
1000
0000
0010
0000
,
2003
0000
0100
0100
,
0001
0000
0020
3030
,
0210
0000
0001
0001
,
0010
0000
1000
0000
,
0320
0000
1000
1000
,
0130
0010
0100
0010
0000
1000
0001
1000
,
0100
0000
0000
1000
0000
0000
0010
0000
0000
0100
0000
0000
0101
0000
0000
0000
,
0100
0000
0000
0001
0000
0000
0010
0000
0000
0100
0000
0000
1100
0000
0000
0000
,
1000
0000
0000
0010
0000
0000
0100
0000
0000
0001
0000
0000
0011
0000
0000
0000
,
0010
0000
0000
0100
0000
0000
0010
0000
0220
0000
0000
0000
0330
0000
0000
0000
,
1001
0000
1000
0100
1000
0001
0100
0001
,
0000
1000
0010
0100
0001
0000
0010
0000
,
0110
0000
0100
1000
0000
0010
0100
1000
,
0000
0100
0001
0100
0000
0001
0010
0100
,
2000
0000
0010
0000
3001
0100
0010
1000
,
0002
0000
0010
0000
1003
0100
0010
0001
,
0100
0010
0100
0010
1000
0001
0100
0001
,
2000
0000
3100
0010
0002
0000
0003
0000
,
1001
0000
0101
0000
1010
0000
0001
1000
,
0000
1010
0000
0101
0000
1000
0001
1000
,
0000
1100
0000
0011
0000
0001
1000
0000
,
0011
0000
1100
0000
1000
0001
0100
0001
,
0010
0000
0110
0000
1001
0000
1000
0010
,
0000
0100
0010
0100
0000
0001
0001
2000
,
0000
0010
0000
3002
0000
0010
0000
1003
,
0010
0000
0100
0000
0001
0000
0000
0000
1000
0000
0100
1000
0100
0000
0010
0001
,
0020
0000
0000
0000
0030
0000
0000
0000
0001
0000
0100
0001
0100
0000
0010
1000
,
0020
0000
0030
0000
0100
0001
0100
0001
,
0010
0100
0010
0100
1000
0010
1000
0001
,
0010
0000
0110
0000
1001
0000
1000
0100
,
0001
0000
0100
1000
0010
0000
1001
0000
,
1010
0000
0101
0000
0001
0010
0100
0010
,
0001
1000
0100
0000
0110
0000
0011
0000
,
0001
0010
0100
1000
0001
0010
1000
0010
,
0000
0011
0000
0202
0000
0000
0000
0000
,
0000
0303
2000
3020
,
0230
0302
2003
3200
,
0320
0000
0000
0000
0032
0000
0000
0000
0103
0000
0010
0000
0110
0000
0000
0100
,
0001
0000
1000
0000
1001
0000
0000
0001
0010
0100
0010
0000
0001
1000
0001
0000
,
0100
0010
1000
0001
0100
0000
0000
0000
2001
0000
0000
0000
0200
0000
3000
0000
,
0020
0000
0000
0300
0002
0030
2000
0003
,
0020
3000
0200
0030
0002
0000
0000
0303
,
0000
0000
0001
0000
0010
0000
0100
0000
2000
0000
0000
0001
0000
0000
3001
0000
,
0000
0000
0000
0000
0001
0000
0100
0001
0100
0000
0010
1000
0020
0000
0000
0000
,
0030
0000
0000
0000
1000
0000
0100
1000
0100
0000
0010
0001
0020
0000
0000
0000
,
0030
0000
0100
1000
0100
1000
0010
0100
,
0010
0100
0001
0010
0001
1000
0010
0000
,
0110
0000
1001
0000
0001
0100
1000
0000
,
0100
0001
0010
0000
0011
0000
1001
0000
,
1100
0000
1000
0010
0100
0010
1000
0001
,
0100
0120
2030
0002
,
3003
0000
1000
0001
0100
0010
1000
0001
,
0010
0000
0100
0000
1000
0000
0001
0000
0010
0000
0100
0000
0010
0000
0001
0010
,
0001
0000
0100
0001
1000
0010
0100
0001
,
0010
0000
0100
0000
1000
0000
0001
0000
0100
0000
0010
0000
1000
0000
0100
1000
,
0100
0000
0010
0001
1000
0010
1000
0001
,
0010
0000
0100
0000
1000
0000
0001
0000
0100
0000
0010
0000
1000
0000
0001
1000
,
0001
0000
0010
0100
1000
0001
0100
0010
,
1000
0001
0020
0000
0100
0000
0031
1000
,
0001
0000
1000
0001
2000
0000
0000
0000
0000
0000
0000
0000
0000
0000
0000
0000
,
3000
0000
0010
0000
1000
0001
1000
0000
,
0100
0000
1000
0000
0010
0000
0000
0010
0000
0000
0100
0000
0001
0000
0000
0001
,
0000
1000
0000
0001
0000
0000
0010
0000
0100
0000
1000
0000
0010
0000
0100
0000
,
0001
0000
0000
0000
1000
0000
0001
1000
0000
0001
0000
0100
0000
0010
0000
0220
,
0000
0330
0000
0000
;

//--------------- dance-single - forcednature ----------------
#NOTEDATA:;
#STEPSTYPE:dance-single;
#DESCRIPTION:forcednature;
#DIFFICULTY:Hard;
#METER:16;
#RADARVALUES:0,0,0,0,0;
#CREDIT:forcednature;
#NOTES:
0000
0000
0000
0000
,
0000
0000
0000
0000
,
0000
0000
0000
0000
,
0000
0000
0000
0000
,
0000
0000
0000
0000
,
0000
0000
0000
0000
,
0001
0000
1000
0100
0000
0100
1000
0000
0010
0000
1000
0001
0000
0001
1000
0000
,
0100
0000
0010
0001
0000
0100
0000
0010
0000
1000
0001
1000
0100
0000
0010
0000
,
0001
0000
1000
0010
0000
0010
0100
0000
0001
0000
1000
0100
0000
0100
0010
0000
,
0001
0000
1000
0001
1000
0000
0010
0100
0001
0000
0010
0001
1000
0001
1000
0000
,
0010
0000
0100
0001
0000
0001
0100
0000
0010
0000
1000
0001
0000
0001
1000
0000
,
0100
0000
0010
0001
0000
1000
0000
0010
0000
0100
0010
0100
0001
0000
1000
0000
,
0100
0000
0010
0001
0000
0001
1000
0000
0010
0000
0100
0001
0000
0001
1000
0000
,
0100
0000
0010
0000
0000
0000
0010
0000
0001
1000
0001
1000
0020
0000
0000
0000
,
0130
0000
0001
0100
0000
1000
0100
0001
,
0000
0100
0010
1000
0010
0100
0001
0000
,
1000
0100
0010
0100
0000
0001
0100
1000
,
0000
0001
1000
0010
0200
0000
0000
0300
,
1001
0000
0001
0010
0100
0010
0000
1000
,
0010
0001
0010
0100
1000
0000
0000
0000
,
1001
0000
1000
0010
0100
0010
0000
0001
,
0010
1000
0010
0100
0001
0001
1000
0001
,
1001
0000
0000
1100
0000
0000
1001
0000
0000
0101
0000
0000
0110
0000
0000
0000
,
1001
0000
0000
1010
0000
0000
1001
0000
0000
0011
0000
0000
0110
0000
0000
0000
,
1001
0000
0000
1100
0000
0000
0011
0000
0000
1100
0000
0000
0110
0000
0000
0000
,
1001
0000
0000
0101
0000
0000
1010
0000
0220
0000
0000
0000
0330
0000
0000
0000
,
0100
0000
0001
0100
0001
0000
0010
0001
0010
0000
0100
0000
1000
0000
0001
0000
,
0100
0000
0010
0000
1000
0000
0010
0000
0100
0001
0100
0001
0100
0000
0001
0000
,
0020
0000
0130
1000
0001
0100
0010
0110
,
0000
0000
0001
0000
1000
0000
1001
0000
0000
0000
1000
0001
1000
0001
1000
0000
,
0010
0000
0100
0010
0000
0100
0001
0100
0002
0000
0023
0000
0032
0000
2003
0000
,
3100
0000
0010
0100
0000
1000
0100
1000
0200
0000
0320
0000
0032
0000
2003
0000
,
3010
0100
0010
0000
1000
0000
0001
0000
0010
0100
0010
0000
0100
0000
1000
0000
,
0001
0100
0001
0100
0010
1000
0010
1000
0002
0000
0000
0000
0000
0000
0003
0000
,
1001
0000
1100
0000
0101
0000
0010
0110
,
0000
0000
1000
0001
0100
0000
0001
1000
0100
0000
0010
0000
0001
0000
1001
0000
,
0000
0101
0000
1100
0000
0010
0110
0000
,
0001
1000
0100
0000
1000
0001
0100
0000
0010
0000
1000
0000
0100
0000
0010
0000
,
0110
0000
1100
0000
0101
0000
0010
1001
,
0000
0000
0001
0010
0100
0000
1000
0010
0100
0000
0001
1000
0001
1000
0001
0000
,
0010
0000
0100
0000
0010
0000
0001
1000
0001
1000
0010
0100
0001
0000
0010
0000
,
0100
0000
0110
0000
2002
3003
0000
0000
1000
0100
1000
0100
0010
0001
1000
0020
,
0000
0000
0130
0000
0001
0000
1000
0000
0001
0010
0001
0010
0100
1000
0001
0200
,
0000
0000
1300
0000
0100
0000
0001
0000
0010
0000
0100
1000
0000
0100
0010
0000
,
0001
0000
0100
0001
0000
0100
0010
0000
1000
0000
0001
0010
0000
0001
1000
0000
,
0010
0100
0010
0100
0001
0000
2000
0000
3200
0000
0000
0000
0320
0000
0000
0000
,
1030
0000
0010
0000
0001
0000
0100
0001
1000
0000
0100
1000
0001
0000
0010
0100
,
1000
0000
0010
0100
0002
0000
0000
0000
0103
0010
0100
0010
1000
0000
0001
0000
,
0010
0000
0100
0010
0001
0000
1000
0000
0010
0000
0100
0001
1000
0000
0100
1000
,
0001
0000
0010
0100
0010
0100
1000
0000
0001
0000
0100
0000
0010
0000
0110
0000
,
0000
0000
1001
0000
0000
0000
2200
0000
0000
3000
0000
0000
0310
0001
0010
0001
,
1000
0100
0010
0001
1000
0000
0000
0000
2002
0000
3003
0000
0001
0000
0100
0000
,
0010
1000
0100
0010
0001
0010
0100
0000
2000
0000
0001
0000
3200
0000
0010
0000
,
1300
0000
0000
0000
0001
0000
0010
0100
0020
0000
0000
0000
0000
0000
0030
0000
1001
0000
0000
0000
1000
0000
0100
0000
0002
0000
0000
0000
0103
0000
0000
0000
,
1000
1000
0001
1000
0020
0000
0130
0000
0001
0010
0001
0010
0100
1000
0001
0100
,
0010
1000
0010
1000
0010
0100
0001
1000
0010
0000
0000
0000
0000
0000
0000
0000
2001
0000
0000
0000
0000
0000
0000
0000
0100
0000
0000
0000
0000
0000
0000
0000
,
0020
0000
3000
0000
0200
0030
0002
0300
,
2000
0003
0200
3000
0020
0000
0000
0300
,
0000
0000
0002
0030
0200
0003
0020
0300
2000
0030
0000
0100
0000
0000
3002
0003
,
0000
0000
0000
0000
0001
0100
0001
0100
0010
1000
0001
0020
0000
0000
0130
0000
,
0010
0000
0001
0000
1000
0010
1000
0010
0100
0001
0010
0200
0000
0000
0301
0000
,
0100
0000
1000
0000
0010
0000
0100
0001
0000
0010
0001
0000
1000
0000
0010
0100
,
0000
0001
0100
0000
0010
0000
1000
0001
0000
0010
0001
0000
0100
0010
0100
0010
,
1000
0200
0320
0000
2030
0000
3010
0001
,
0100
0000
0010
1000
0001
0000
0010
0001
1000
0000
0010
0100
0001
0000
0010
0100
,
2000
0000
0000
0000
3001
0100
0001
0100
0010
0000
1000
0000
0100
0000
0010
0001
,
1000
0000
0010
0000
0210
0000
0000
0000
0302
0000
0000
0000
1003
0100
0010
0001
,
0100
0000
0010
0000
1001
0000
0001
0010
0000
0001
0100
0001
0100
0000
0010
1000
,
0000
0100
1000
0100
1000
0000
0010
0100
0000
0001
0010
0001
1000
0000
0100
0010
,
0001
0000
0100
0000
0110
0000
0010
1000
0000
0100
1000
0100
1000
0000
0010
0100
,
0000
0001
0010
0001
0010
0000
0100
1000
0000
0001
0100
0000
0001
0010
0001
0010
,
0100
1000
0100
0010
0001
0000
0001
0100
0000
0010
1000
0010
0100
0000
0001
1000
,
0000
0100
1000
0001
0100
0000
0010
1000
0000
0001
0010
0100
0010
0000
0001
1000
,
0010
0000
0100
0000
0110
0000
0010
1000
0000
0001
0010
0001
1000
0000
0100
1000
,
0000
0001
0100
0010
2000
0000
0000
0000
0001
0000
0000
0000
3010
0100
0010
0100
,
0001
0010
0100
1000
0020
0000
0000
0000
0000
0000
0000
0000
0000
0000
0000
0000
,
0000
0000
0000
0000
1030
0000
0000
1000
0000
0010
0000
0110
0000
0100
0001
1000
,
0001
0000
0010
0000
0100
0000
1000
0010
0000
0010
1000
0000
0001
0000
0001
0010
,
0000
0100
0000
2000
0000
0000
0000
0000
3010
0100
0010
0100
0001
1000
0010
0100
,
0002
0000
0003
0000
1000
0001
1000
0001
0000
0011
0000
1100
0000
0110
0000
2002
,
0000
3003
0000
0000
;

//--------------- dance-single - forcednature ----------------
#NOTEDATA:;
#STEPSTYPE:dance-single;
#DESCRIPTION:forcednature;
#DIFFICULTY:Challenge;
#METER:17;
#RADARVALUES:0,0,0,0,0;
#CREDIT:forcednature;
#NOTES:
0000
0000
0000
0000
,
0000
0000
0000
0000
,
0000
0000
0000
0000
,
0000
0000
0000
0000
,
0000
0000
0000
0000
,
0000
0000
0000
0000
,
1000
0000
0100
1000
0001
0000
0100
0001
1000
0000
0010
0100
0000
0001
0010
0000
,
0100
0000
1000
0100
0010
0001
0100
0010
0000
1000
0010
1000
0001
0000
0100
0000
,
0010
0000
1000
0100
0010
0000
0001
0100
0010
0000
1000
0100
0000
0001
0000
0100
,
0000
1000
0001
0010
0001
0010
0100
1000
0100
1000
0010
0100
0001
1000
0010
0000
,
0100
0000
0001
0100
0010
0000
1000
0100
0010
0000
0100
1000
0000
0001
0100
0000
,
0010
0000
0100
0010
1000
0001
0010
0100
0000
0010
0001
0010
0001
0000
1000
0000
,
0010
0000
0100
0010
1000
0000
0100
0010
0001
0000
0100
0001
0000
0100
0000
1000
,
0000
0100
0010
1000
0010
0100
0001
1000
0100
0010
0001
0100
0020
0000
0000
0000
,
1030
0000
0100
0001
0000
0100
1000
0010
,
0000
0100
0001
0010
0100
1000
0010
0000
,
1000
0001
0100
1000
0000
0100
0001
1000
,
0000
0010
0100
0001
0020
0000
0000
0030
,
1001
0000
1000
0010
0110
0100
0000
0001
,
0010
0100
0010
0001
1001
0000
0000
0000
,
0101
0000
0100
0010
1010
1000
0000
0100
,
0010
0001
0100
0010
2000
3002
2003
3020
,
0031
0000
0001
0010
0000
0010
1000
0000
1000
0100
0000
0100
0002
0000
0003
0000
,
1000
0000
1000
0010
0000
0010
0001
0000
0001
0100
0000
0100
2000
0000
3000
0000
,
0001
0000
0001
1000
0000
1000
0100
0000
0100
0001
0000
0001
0020
0000
0030
0000
,
1000
0000
0010
0001
0000
1000
0001
0000
0100
0010
0100
0010
1000
0001
0100
0010
,
1000
0000
1000
0100
0010
0000
0010
0001
1000
0000
0010
0000
0100
0000
1000
0000
,
0001
0000
0010
0000
0100
0000
0001
0000
1000
0010
0100
0001
0010
0000
0100
0000
,
0002
0000
0000
0000
0103
0000
0010
0100
1000
0000
0010
0100
0001
0000
1001
0000
,
0000
0000
0011
0000
0110
0000
1100
0000
0000
0000
0100
0010
0100
1000
0100
0000
,
0010
0000
0001
1000
0000
1000
0010
0100
2000
0000
3200
0000
0302
0000
0203
0000
,
0310
0000
1000
0001
0000
0001
0010
0100
0002
0000
0203
0000
2300
0000
3200
0000
,
0310
0001
0100
0000
0110
0000
1000
0000
0010
1000
0100
0000
0110
0000
0001
0000
,
0100
0010
1000
0001
0010
0100
1000
0001
0100
0010
0100
0010
0100
0010
1000
0000
,
1001
0000
0011
0010
0110
0100
1100
1010
,
0000
0000
1000
0010
0100
0000
0001
0010
0100
0000
1000
0000
0001
0000
0101
0000
,
0000
0011
0010
1100
1000
1010
0110
0000
,
0100
0001
0010
0000
0100
1000
0010
0000
0100
0000
0001
0000
0010
0000
1000
0000
,
1010
0000
0110
0100
1100
1000
1010
0101
,
0000
0000
0001
0100
1000
0000
0100
0001
1000
0000
0010
0100
0001
1000
0020
0000
,
0100
0000
1030
0000
0010
0100
0001
0010
0001
0010
0100
1000
0001
1000
0010
0000
,
1010
0000
0101
0000
2002
3003
0000
0000
1000
0100
0010
0001
1000
0010
0100
2000
,
0000
0000
3100
0010
1000
0000
1010
0000
0001
0100
0010
1000
0001
0010
0100
0002
,
0000
0000
0103
0000
0010
0000
0011
0000
1000
0010
0100
0001
0000
0010
0100
0000
,
0010
0001
0100
0010
0000
1000
0100
0000
0010
0001
0100
0001
0000
1000
0100
1000
,
0010
0100
0001
0100
0010
0000
1000
0000
1001
0000
0000
0001
2000
0000
0100
0000
,
3002
0000
0100
0000
1003
0000
0100
0010
0001
0000
0100
0010
1000
0000
0001
0100
,
1000
0000
0100
0001
1000
0000
0000
0000
0010
0100
0010
0100
0001
1000
0001
0100
,
0010
0000
1000
0010
1000
0000
0100
0000
1001
0000
1000
0100
0001
0000
0100
1000
,
0001
0000
0010
0100
1000
0010
0100
0000
0001
0000
0101
0000
1010
0000
0110
0000
,
0000
0000
1001
0000
0000
0000
2200
0000
0000
0300
0000
0000
3001
0010
0100
1000
,
0001
0100
0010
0100
1000
0000
0000
0000
1001
0000
0000
0000
1000
0100
0010
0001
,
0100
0000
0000
0000
0010
0000
0100
0010
0100
0000
0010
0000
1000
0000
0001
0000
0010
0000
0000
0000
0001
0000
1000
0001
1000
0000
0100
0000
0001
0000
0100
0000
,
0010
0000
0000
0000
0001
0000
1000
0001
0200
0000
0000
0000
0010
0000
0300
0000
1001
0000
0000
1000
0100
0000
0010
0000
0110
0000
0000
0001
1000
0000
0010
0000
,
0100
0000
0000
0001
1000
0000
0010
0000
1001
0000
0000
1000
0100
0000
0010
0000
0001
0100
0001
0100
0010
1000
0010
0000
1000
0001
1000
0001
0100
0010
0100
0000
,
0001
1000
0100
0010
0001
1000
0001
0100
0010
0000
0000
0000
0000
0000
0000
0000
1002
0000
0000
0000
0000
0000
0000
0000
0010
0000
0000
0000
0000
0000
0000
0000
,
2000
0000
0003
0000
0200
3000
0002
0300
,
0200
0003
2000
0300
0020
0000
0000
3000
,
0000
0000
0000
0000
0200
0000
0030
0000
0002
0000
0300
0000
2000
0000
0003
0000
0200
0000
3000
0000
0000
0000
0010
0000
0000
0300
0000
0000
2002
0000
3003
0000
,
0000
0000
0000
0000
1000
0100
0010
0001
0100
1000
0100
0002
0000
0000
0013
0100
,
0010
0000
0110
0000
0001
0100
0010
1000
0100
0001
0100
2000
0000
0000
3010
0100
,
0010
0000
0110
0000
0100
0001
0100
0001
0000
0010
0100
0000
1000
0100
1000
0001
,
0000
0100
0010
0000
1000
0100
0010
0001
0000
0100
0001
0000
0010
0100
0010
0100
,
1000
0000
0010
0100
0002
0000
0000
0000
0023
0000
0000
0000
1030
0000
0010
0000
,
0001
0000
0100
0001
1000
0000
0100
1000
0010
0000
1000
0100
0001
0000
0100
0010
,
0002
0000
0000
0000
1003
0010
1000
0010
0100
0001
0100
0010
1000
0001
0010
0100
,
1000
0000
0010
0000
0110
0000
0100
0001
0010
0000
0010
0100
1000
0010
1000
0010
,
0100
0001
1000
0010
0100
0000
0001
0010
0001
0010
0100
1000
0010
0000
0100
0001
,
0100
0001
1000
0100
0010
0000
0100
1000
0001
0100
0001
1000
0100
0000
0010
0001
,
0100
0000
0110
0000
1001
0000
1000
0100
1000
0001
0100
0001
1000
0000
0010
0100
,
0001
0100
0010
1000
0001
0000
0010
0100
1000
0100
0010
0001
2000
3020
0230
0302
,
0023
0230
2300
3020
0130
0000
0001
1000
0100
1000
0010
0100
0001
0000
0010
0001
,
1000
0001
0100
1000
0100
0000
0010
1000
0100
1000
0001
0010
0100
0000
1000
0010
,
0100
0000
0110
0000
1001
0000
0001
0010
0100
1000
0010
0100
0001
0000
0010
0001
,
0100
0010
1000
0100
0020
0000
0000
0000
0001
0000
0000
0000
0130
1000
0010
0100
,
0001
0010
0100
1000
0020
0000
0000
0000
0000
0000
0000
0000
1030
0000
0001
0100
,
0000
1000
0100
0000
0010
0000
1000
0001
0000
0101
0000
0011
0000
0010
0100
1000
,
0100
0000
0110
0000
0010
0001
0010
0001
0000
0100
0010
0000
1000
0100
0010
0100
,
0000
1100
0000
0011
0000
0001
0100
0001
1000
0100
1000
0010
0100
0001
1000
0100
,
0020
0000
0000
0000
0031
0100
1000
0100
0000
0101
0000
0011
0000
1100
0000
2020
,
0000
3030
0000
0000
;

//--------------- dance-double - forcednature ----------------
#NOTEDATA:;
#STEPSTYPE:dance-double;
#DESCRIPTION:forcednature;
#DIFFICULTY:Easy;
#METER:8;
#RADARVALUES:0,0,0,0,0;
#CREDIT:forcednature;
#NOTES:
00000000
00000000
00000000
00000000
,
00000000
00000000
00000000
00000000
,
00000000
00000000
00000000
00000000
,
00000000
00000000
00000000
00000000
,
00000000
00000000
00000000
00000000
,
00000000
00000000
00000000
00000000
,
00001000
00010000
00000100
00001000
,
00000100
00000100
00000010
00000000
,
00000001
00000100
00000001
00001000
,
00000010
00000010
00010000
00000000
,
00001000
00100000
00010000
00100000
,
01000000
01000000
10000000
00000000
,
00100000
01000000
00010000
01000000
,
00001000
00001000
00010000
00000000
,
00011000
00000000
00001000
00000000
,
00000010
00000000
00000001
00000000
,
00000010
00000000
00000100
00000000
,
00001000
00000000
00000020
00000000
,
00000130
00000000
00000010
00000000
,
00010000
00010000
00001000
00000000
,
01000000
00000000
00010000
00000000
,
00100000
00100000
00020000
00000000
,
10030000
00000000
00000000
00010000
00000000
00000000
10000000
00000000
00000000
00010000
00000000
00000000
01000000
00000000
00000000
00000000
,
00001000
00000000
00000000
00010000
00000000
00000000
00001000
00000000
00000000
00010000
00000000
00000000
00000100
00000000
00000000
00000000
,
00001000
00000000
00000000
00000001
00000000
00000000
00001000
00000000
00000000
00000001
00000000
00000000
00000010
00000000
00000000
00000000
,
00000100
00000000
00000000
00000100
00000000
00000000
00000100
00000000
00002000
00000000
00000000
00000000
00000000
00000000
00000000
00000000
,
00003010
00001000
00000010
00000100
,
00000001
00000100
00000001
00000000
00000010
00000000
00000100
00000000
,
00010000
00000000
00001000
00000000
00100000
00000000
00001000
00010000
,
00000000
00010000
00000000
00001000
00000000
00001000
00000000
00000000
,
00011000
00010000
00100000
10000000
,
01000000
10000000
00010000
01000000
,
00001000
00010000
00001000
00000000
00010000
00000000
00000100
00000000
,
00002000
00003020
00000230
00000302
,
00000003
00001001
00000110
00001001
,
00000000
00000001
00000000
00000100
00000000
00001000
00000000
00000000
,
00000000
00011000
00000000
00010100
00000000
00011000
00000000
00000000
,
00010000
00100000
10000000
01000000
,
00000000
10010000
01100000
10010000
,
00000000
10000000
00000000
01000000
00000000
00010000
00000000
00002000
,
00000000
00000000
00000000
00023000
00000000
00000000
00000000
00031000
,
00000000
00010000
00000100
00000000
00001001
00000000
00001000
00000100
,
00000020
00000000
00000030
00000000
00000110
00000000
00000100
00000010
,
00000002
00000000
00000003
00000000
00000100
00000000
00000010
00000100
,
00000010
00000000
00001000
00000000
00000100
00000000
00010000
00001000
,
00010000
00001000
00200000
00010000
,
02300000
10000000
03200000
00302000
,
00023000
00030200
00001300
00000010
,
00000100
00000010
00000100
00000000
00000001
00000000
00000010
00000000
,
00000110
00000000
00001001
00000000
00001000
00000000
00001000
00000100
,
00000000
00010000
00000000
00022000
00000000
00000000
00000000
00000000
,
00000000
00033000
00200000
00000000
,
00320000
00000000
20030000
00000000
,
30200000
00000000
02300000
00010000
,
03002000
00010000
00023000
00030200
,
00001300
00001000
00000001
00000000
00002002
00000000
00000000
00000000
,
00000000
00003003
00000002
00000203
,
00002300
00023000
00230000
00000000
,
00300000
00000000
10000000
00000000
00100000
00000000
00100000
01000000
,
00000000
00000000
10010000
00000000
00010000
00100000
02000000
00000000
,
03000000
00000000
01100000
00000000
00100000
01000000
20000000
00000000
,
30000000
00000000
00010000
00000000
01000000
00010000
01000000
00000000
,
00001000
00000000
00010000
00000000
00000100
00010000
00000100
00000000
,
00001000
00000002
00000010
00002003
,
00000010
00003200
00020300
00032000
,
00203000
00000000
00310000
00000000
01000000
00000000
00100000
01000000
,
00100000
10000000
01000000
01100000
,
10010000
00000000
00010000
01000000
00001000
00000000
00010000
00001000
,
00010000
00000000
00000100
00001000
00000100
00000000
00000010
00000000
,
00000001
00000000
00000100
00000001
00001000
00000000
00000100
00001000
,
00000100
00000000
00010000
00001000
00010000
00000000
00100000
00000000
,
01000000
00000000
00100000
10000000
00010000
00000000
00100000
00010000
,
00100000
00000000
00001000
00010000
00001000
00000000
00010000
00000000
,
00000010
00000000
00001000
00000010
00000100
00000000
00000001
00000100
,
00000001
00000020
00000130
00002000
,
00003020
00000000
00010030
00000000
00001000
00010000
00001000
00000000
,
01000000
00010000
00100000
01000000
,
10000000
00000000
00100000
00000000
01000000
00100000
01000000
00000000
,
00010000
00100000
00002000
00023000
,
00030000
00000000
00000000
00000000
00000100
00000000
00000000
00000000
00000000
00001000
00000000
00000001
00000000
00000000
00000000
00002002
,
00000000
00003003
00000000
00000000
;

//--------------- dance-double - forcednature ----------------
#NOTEDATA:;
#STEPSTYPE:dance-double;
#DESCRIPTION:forcednature;
#DIFFICULTY:Medium;
#METER:12;
#RADARVALUES:0,0,0,0,0;
#CREDIT:forcednature;
#NOTES:
00000000
00000000
00000000
00000000
,
00000000
00000000
00000000
00000000
,
00000000
00000000
00000000
00000000
,
00000000
00000000
00000000
00000000
,
00000000
00000000
00000000
00000000
,
00000000
00000000
00000000
00000000
,
00001000
00000000
00000000
00010000
00000000
00000000
00001000
00000000
01000000
00000000
00000000
00010000
00000000
00000000
01000000
00000000
,
00100000
00000000
10000000
00010000
10000000
01000000
00100000
00000000
,
00010000
00000000
00000000
01000000
00000000
00000000
00010000
00000000
01000000
00000000
00000000
00001000
00000000
00000000
01000000
00000000
,
00001000
00000000
00010000
00001000
00010000
00000100
00001000
00000000
,
00000010
00000000
00000000
00001000
00000000
00000000
00000010
00000000
00000100
00000000
00000000
00000010
00000000
00000000
00000100
00000000
,
00000001
00000000
00000010
00000001
00001000
00000010
00001000
00000000
,
00000100
00000000
00000000
00010000
00000000
00000000
00000100
00000000
00010000
00000000
00000000
00001000
00000000
00000000
00010000
00000000
,
00001000
00000000
00100000
00010000
00100000
01000000
10000000
00000000
,
10020000
00000000
01000000
01000000
,
10000000
00000000
00100000
00000000
,
02030000
00000000
00100000
00100000
,
00010000
00000000
00002000
03003000
,
00021000
00000000
00000100
00000100
,
00001000
00000000
00000010
00000000
,
00030200
00000000
00001000
00001000
,
00000310
00000100
00000010
00000100
00000000
00001000
00000001
00001000
,
00000010
00000000
00000000
00000100
00000000
00000000
00001000
00000000
00000000
00010000
00000000
00000000
01000000
00000000
00000000
00000000
,
00100000
00000000
00000000
01000000
00000000
00000000
00010000
00000000
00000000
00001000
00000000
00000000
00000100
00000000
00000000
00000000
,
00000010
00000000
00000000
00000100
00000000
00000000
00001000
00000000
00000000
00010000
00000000
00000000
01000000
00000000
00000000
00000000
,
00100000
00000000
00000000
01000000
00000000
00000000
10000000
00000000
22000000
00000000
00000000
00000000
33000000
00000000
00000000
00000000
,
10010000
00000000
00010000
01000000
00010000
10000000
01000000
10000000
,
00000000
00010000
00100000
00001000
00010000
00000000
00000100
00000000
,
00000110
00000000
00000010
00000001
00000000
00000001
00000100
00001000
,
00000000
00010000
00100000
10000000
00000000
01000000
00100000
00010000
,
02000000
00000000
00100000
00000000
03010000
01000000
00001000
00010000
,
00000020
00000000
00001000
00000000
00000130
00000001
00001000
00000100
,
00010000
00001000
00100000
00001000
00010000
00000100
00010000
00001000
,
02000000
00000000
03100000
10000000
00020000
00000000
00030000
00000000
,
10010000
00000000
01010000
00000000
10100000
00000000
10000000
00010000
,
00000000
00110000
00000000
00101000
00000000
00001000
00010000
00001000
,
00000000
00011000
00000000
00010100
00000000
00000100
00001000
00000000
,
00001010
00000000
00000110
00000000
00000100
00000001
00001000
00000010
,
00000100
00000000
00000110
00000000
00001010
00000000
00001000
00000100
,
00000000
00010000
00001000
00010000
00000000
00001000
00001000
00200000
,
00000000
00010000
00000000
02300000
00000000
10000000
00000000
03100000
,
00001000
00000000
00010000
00000000
00000100
00000000
00000000
00000000
00001000
00000000
00000100
00000000
00001000
00000000
00000010
00001000
,
00000020
00000000
00000000
00000000
00000030
00000000
00000000
00000000
00000100
00000000
00000001
00000000
00000010
00000000
00000100
00001000
,
00000200
00000000
00000300
00000000
00010000
00001000
00010000
00001000
,
00100000
00010000
00100000
00010000
01000000
00100000
10000000
01000000
,
00100000
00000000
00101000
00000000
00010100
00000000
00000100
00001000
,
00000001
00000000
00000100
00001000
00010000
00000000
00011000
00000000
,
00101000
00000000
01010000
00000000
01000000
00100000
10000000
01000000
,
00100000
00001000
00010000
00000000
00011000
00000000
00010100
00000000
,
00000100
00001000
00000001
00000100
00000001
00000010
00000100
00001000
,
00000000
00010100
00000000
00202000
00000000
00000000
00000000
00000000
,
00000000
00303000
00020000
20030000
,
30200000
02300000
03002000
00023000
,
00030020
00000000
00000000
00000000
00000230
00000000
00000000
00000000
00000301
00000000
00001000
00000000
00001001
00000000
00000000
00000001
,
00000010
00000000
00000100
00000000
00000110
00000000
00000000
00000100
00001000
00000100
00010000
00000000
00001000
00010000
00001000
00000000
,
01000000
00010000
10000000
00100000
01000000
00000000
00000000
00000000
20010000
00000000
00000000
00000000
02000000
00000000
30000000
00000000
,
00200000
00000000
00000000
03000000
00002000
00300000
00020000
00003000
,
00000200
00030000
00002000
00000300
00000002
00000000
00000000
00003003
,
00000000
00000000
00000001
00000000
00000100
00000000
00001000
00000000
00020000
00000000
00000000
00001000
00000000
00000000
00031000
00000000
,
00000000
00000000
00000000
00000000
01000000
00000000
00010000
00000000
00100000
00000000
01000000
00100000
02000000
00000000
00000000
00000000
,
03000000
00000000
00000000
00000000
10000000
00000000
01000000
00000000
10000000
00000000
00100000
10000000
00200000
00000000
00000000
00000000
,
00300000
00000000
01000000
00001000
01000000
00001000
00010000
00000010
,
00010000
00000010
00001000
00000100
00000010
00000001
00000100
00000000
,
00000110
00000000
00001001
00000000
00000001
00000100
00001000
00000000
,
00010000
00001000
00010000
00000000
00011000
00000000
00101000
00000000
,
01010000
00000000
01000000
00100000
10000000
01000000
00100000
00010000
,
01000000
02010000
03002000
00020000
,
00033000
00000000
00000100
00001000
00000010
00010000
00000100
00010000
,
00000010
00000000
00001000
00000000
00000100
00000000
00000010
00000000
00000001
00000000
00000100
00000000
00001000
00000000
00010000
00001000
,
00010000
00000000
00100000
01000000
00010000
00100000
01000000
10000000
,
00100000
00000000
10000000
00000000
01000000
00000000
00010000
00000000
00001000
00000000
00100000
00000000
00001000
00000000
00010000
00001000
,
00010000
00000000
00000010
00001000
00000001
00000010
00001000
00000010
,
00000001
00000000
00001000
00000000
00000010
00000000
00000100
00000000
00001000
00000000
00010000
00000000
00000100
00000000
00010000
00001000
,
00010000
00000000
00001000
00100000
01000000
10000000
00100000
01000000
,
10000000
01000000
00020000
00000000
01000000
00000000
00130000
00001000
,
00010000
00000000
00001000
00010000
00002000
00000000
00000000
00000000
00000000
00000000
00000000
00000000
00000000
00000000
00000000
00000000
,
00000000
00000000
00013000
00000000
00001000
00010000
00001000
00000000
,
00000010
00000000
00000000
00000000
00000001
00000000
00000000
00000001
00000000
00000000
00000100
00000000
00001000
00000000
00000000
00010000
,
00000000
00001000
00000000
00010000
00000000
00000000
00001000
00000000
00100000
00000000
00010000
00000000
01000000
00000000
00100000
00000000
,
10000000
00000000
00000000
00000000
01000000
00000000
10000000
01000000
00000000
00100000
00000000
00010000
00000000
01000000
00000000
02200000
,
00000000
03300000
00000000
00000000
;

//--------------- dance-double - forcednature ----------------
#NOTEDATA:;
#STEPSTYPE:dance-double;
#DESCRIPTION:forcednature;
#DIFFICULTY:Hard;
#METER:16;
#RADARVALUES:0,0,0,0,0;
#CREDIT:forcednature;
#NOTES:
00000000
00000000
00000000
00000000
,
00000000
00000000
00000000
00000000
,
00000000
00000000
00000000
00000000
,
00000000
00000000
00000000
00000000
,
00000000
00000000
00000000
00000000
,
00000000
00000000
00000000
00000000
,
00010000
00000000
00000100
00001000
00000000
00001000
00000100
00000000
00010000
00000000
00000010
00001000
00000000
00001000
00000010
00000000
,
00010000
00000000
00001000
00100000
00000000
00100000
00000000
00010000
00000000
10000000
00100000
10000000
00010000
00000000
00100000
00000000
,
00001000
00000000
01000000
00010000
00000000
00010000
01000000
00000000
00001000
00000000
00100000
00010000
00000000
00010000
00100000
00000000
,
00001000
00000000
00010000
00000100
00001000
00000000
00000010
00001000
00000001
00000000
00000010
00000100
00001000
00000100
00000010
00000000
,
00001000
00000000
00010000
00000100
00000000
00000100
00010000
00000000
00001000
00000000
00010000
00000010
00000000
00000010
00010000
00000000
,
00001000
00000000
00000100
00000010
00000000
00000100
00000000
00000001
00000000
00001000
00000010
00001000
00000100
00000000
00010000
00000000
,
00001000
00000000
00100000
00010000
00000000
00010000
00100000
00000000
00001000
00000000
01000000
00010000
00000000
00010000
01000000
00000000
,
00100000
00000000
10000000
00000000
00100000
00000000
10000000
00000000
01000000
00100000
01000000
00100000
00020000
00000000
00000000
00000000
,
01030000
00000000
00010000
01000000
00000000
10000000
01000000
00010000
,
00000000
00100000
00001000
00010000
00000010
00010000
00001000
00000000
,
00000100
00000001
00000100
00001000
00000000
00010000
00001000
00010000
,
00000000
00100000
10000000
00010000
02000000
00000000
00000000
03000000
,
10010000
00000000
10000000
01000000
00100000
01000000
00000000
10000000
,
01000000
00010000
00001000
00010000
01000000
00000000
00000000
00000000
,
01100000
00000000
00100000
00001000
00010000
00000100
00000000
00010000
,
00001000
00000010
00000001
00000010
00001000
00001000
00010000
00001000
,
00011000
00000000
00000000
00101000
00000000
00000000
00010100
00000000
00000000
00101000
00000000
00000000
01010000
00000000
00000000
00000000
,
00011000
00000000
00000000
00010010
00000000
00000000
01001000
00000000
00000000
00010010
00000000
00000000
00001100
00000000
00000000
00000000
,
00011000
00000000
00000000
00101000
00000000
00000000
00010010
00000000
00000000
00101000
00000000
00000000
00011000
00000000
00000000
00000000
,
01001000
00000000
00000000
01010000
00000000
00000000
01100000
00000000
20200000
00000000
00000000
00000000
30300000
00000000
00000000
00000000
,
10000000
00000000
01000000
10000000
01000000
00000000
00100000
00010000
00100000
00000000
00001000
00000000
00010000
00000000
00000010
00000000
,
00010000
00000000
00001000
00000000
00000010
00000000
00000100
00000000
00000010
00000001
00000010
00000001
00000010
00000000
00000100
00000000
,
00020000
00000000
00031000
00100000
01000000
00100000
00001000
00011000
,
00000000
00000000
00010000
00000000
00100000
00000000
10000000
00000000
00000000
00000000
00010000
10000000
00010000
10000000
00010000
00000000
,
00100000
00000000
01000000
10000000
00000000
01000000
00010000
01000000
00020000
00000000
00032000
00000000
00203000
00000000
00302000
00000000
,
00013000
00000000
00000100
00001000
00000000
00000100
00000010
00000100
00000020
00000000
00000032
00000000
00000203
00000000
00000302
00000000
,
00000013
00000100
00000010
00000000
00000100
00000000
00010000
00000000
00001000
00010000
00001000
00000000
00100000
00000000
01000000
00000000
,
10000000
01000000
10000000
01000000
00100000
00010000
00100000
00001000
00020000
00000000
00000000
00000000
00000000
00000000
00030000
00000000
,
00011000
00000000
00010100
00000000
01001000
00000000
00010000
00011000
,
00000000
00000000
00001000
00010000
00000010
00000000
00001000
00000010
00010000
00000000
00011000
00000000
00010000
00000000
00010100
00000000
,
00000000
00101000
00000000
00010010
00000000
00001000
00011000
00000000
,
00010000
00001000
00100000
00000000
00010000
00100000
00001000
00000000
00011000
00000000
00010000
00000000
00000100
00000000
00001000
00000000
,
00001001
00000000
00000110
00000000
00011000
00000000
00100000
01100000
,
00000000
00000000
10000000
00010000
00100000
00000000
00010000
10000000
00100000
00000000
01000000
00100000
01000000
00100000
01000000
00000000
,
00010000
00000000
00100000
00000000
01000000
00000000
00100000
00010000
00100000
00001000
00010000
00001000
00010000
00000000
00000100
00000000
,
00001000
00000000
00000001
00000000
00002002
00003003
00000000
00000000
00001000
00000100
00001000
00000100
00010000
00001000
00100000
00020000
,
00000000
00000000
10030000
00000000
01000000
00000000
10000000
00000000
00010000
01000000
00001000
00010000
00001000
00100000
00010000
02000000
,
00000000
00000000
03100000
00000000
10000000
00000000
01000000
00000000
00100000
00000000
00010000
00100000
00000000
01000000
00100000
00000000
,
00010000
00000000
01000000
00010000
00000000
01000000
00001000
00000000
00010000
00000000
00000100
00001000
00000000
00000100
00000010
00000000
,
00000001
00001000
00000001
00001000
00000010
00000000
00000200
00000000
00002300
00000000
00000000
00000000
00023000
00000000
00000000
00000000
,
00130000
00000000
01000000
00000000
00100000
00000000
10000000
01000000
00100000
00000000
00010000
01000000
00001000
00000000
00010000
00000100
,
00001000
00000000
00000010
00000100
00000002
00000000
00000000
00000000
00001003
00000100
00001000
00000100
00000010
00000000
00000001
00000000
,
00000100
00000000
00000010
00001000
00000100
00000000
00010000
00000000
00001000
00000000
01000000
00010000
10000000
00000000
01000000
10000000
,
00010000
00000000
00100000
00001000
00100000
00001000
00010000
00000000
00000100
00000000
00000010
00000000
00000001
00000000
00000011
00000000
,
00000000
00000000
00001100
00000000
00000000
00000000
00020020
00000000
00000000
00000030
00000000
00000000
00031000
00010000
00001000
00010000
,
00000100
00001000
00000100
00000010
00000001
00000000
00000000
00000000
00002002
00000000
00003003
00000000
00001000
00000000
00000010
00000000
,
00000100
00000001
00000100
00000010
00001000
00000010
00010000
00000000
00002000
00000000
00100000
00000000
00203000
00000000
00010000
00000000
,
01300000
00000000
00000000
00000000
10000000
00000000
01000000
00100000
00020000
00000000
00000000
00000000
00000000
00000000
00030000
00000000
10010000
00000000
00000000
00000000
10000000
00000000
01000000
00000000
00020000
00000000
00000000
00000000
00031000
00000000
00000000
00000000
,
00010000
00010000
00001000
00000010
00000002
00000000
00001003
00000000
00000001
00000100
00000001
00000100
00000010
00010000
00001000
01000000
,
00010000
10000000
00010000
10000000
00010000
00100000
01000000
10000000
00010000
00000000
00000000
00000000
00000000
00000000
00000000
00000000
20010000
00000000
00000000
00000000
00000000
00000000
00000000
00000000
01000000
00000000
00000000
00000000
00000000
00000000
00000000
00000000
,
00020000
00000000
30000000
00000000
00200000
00030000
00002000
00300000
,
00020000
00003000
00000200
00030000
00000020
00000000
00000000
00000300
,
00000000
00000000
00000002
00000030
00002000
00000003
00000200
00003000
00020000
00000300
00000000
00001000
00000000
00000000
00030020
00000030
,
00000000
00000000
00000000
00000000
00001000
00000100
00001000
00000100
00010000
00001000
00100000
00020000
00000000
00000000
10030000
00000000
,
01000000
00000000
10000000
00000000
00010000
01000000
00001000
00010000
00001000
00100000
00010000
02000000
00000000
00000000
03100000
00000000
,
10000000
00000000
01000000
00000000
00100000
00000000
00010000
01000000
00000000
00001000
00010000
00000000
00000010
00000000
00001000
00000100
,
00000000
00000010
00000100
00000000
00010000
00000000
00000010
00001000
00000000
00000001
00000100
00000000
00001000
00010000
00001000
00010000
,
00001000
02000000
03200000
00000000
20300000
00000000
31000000
00010000
,
00001000
00000000
00100000
00001000
00010000
00000000
00000010
00010000
00001000
00000000
01000000
00001000
00010000
00000000
00000100
00010000
,
00002000
00000000
00000000
00000000
00103000
00010000
00100000
00010000
10000000
00000000
01000000
00000000
00010000
00000000
00001000
00010000
,
00001000
00000000
00000010
00000000
00000002
00000000
00000000
00000000
00002003
00000000
00000000
00000000
00003010
00000100
00000001
00001000
,
00000010
00000000
00000100
00000000
00001001
00000000
00001000
00000100
00000000
00010000
00001000
00010000
00001000
00000000
00100000
00010000
,
00000000
01000000
00100000
10000000
00100000
00000000
01000000
00010000
00000000
00100000
00001000
00010000
00001000
00000000
00010000
00000100
,
00001000
00000000
00000010
00000000
00000110
00000000
00000100
00000001
00000000
00000010
00000001
00000010
00000001
00000000
00001000
00000010
,
00000000
00010000
00001000
00100000
00001000
00000000
00010000
00001000
00000000
01000000
00010000
00000000
00100000
01000000
00100000
01000000
,
10000000
01000000
00100000
00010000
01000000
00000000
00010000
01000000
00000000
00001000
00010000
00000100
00010000
00000000
00000010
00001000
,
00000000
00000010
00000100
00000001
00001000
00000000
00000100
00010000
00000000
00001000
00100000
00010000
00100000
00000000
01000000
10000000
,
00100000
00000000
01000000
00000000
01100000
00000000
00100000
10000000
00000000
00010000
00100000
00001000
00100000
00000000
00010000
01000000
,
00000000
00001000
00010000
00000100
00002000
00000000
00000000
00000000
00000001
00000000
00000000
00000000
00003010
00000100
00000010
00000100
,
00001000
00010000
00001000
00010000
00002000
00000000
00000000
00000000
00000000
00000000
00000000
00000000
00000000
00000000
00000000
00000000
,
00000000
00000000
00000000
00000000
00103000
00000000
00000000
00010000
00000000
01000000
00000000
00100000
00000000
10000000
00100000
10000000
,
00010000
00000000
00100000
00000000
01000000
00000000
10000000
01000000
00000000
00100000
01000000
00000000
00010000
00000000
00010000
00001000
,
00000000
00010000
00000000
00000020
00000000
00000000
00000000
00000000
00001030
00000001
00001000
00000001
00000100
00000010
00001000
00000001
,
00000200
00000000
00000300
00000000
00001000
00010000
00001000
00010000
00000000
00100000
00000000
10000000
00000000
01000000
00000000
02200000
,
00000000
03300000
00000000
00000000
;

//--------------- dance-double - forcednature ----------------
#NOTEDATA:;
#STEPSTYPE:dance-double;
#DESCRIPTION:forcednature;
#DIFFICULTY:Challenge;
#METER:18;
#RADARVALUES:0,0,0,0,0;
#CREDIT:forcednature;
#NOTES:
00000000
00000000
00000000
00000000
,
00000000
00000000
00000000
00000000
,
00000000
00000000
00000000
00000000
,
00000000
00000000
00000000
00000000
,
00000000
00000000
00000000
00000000
,
00000000
00000000
00000000
00000000
,
00001000
00000000
00010000
00001000
00100000
00000000
00001000
00010000
00000010
00000000
00000100
00000010
00000000
00001000
00000001
00000000
,
00000010
00000000
00000100
00001000
00000100
00010000
00001000
00010000
00000000
00100000
01000000
00100000
10000000
00000000
00010000
00000000
,
00100000
00000000
00001000
00010000
00000100
00000000
00010000
00001000
01000000
00000000
00010000
00100000
00000000
01000000
00000000
00010000
,
00000000
00001000
00010000
00001000
00010000
00000100
00001000
00000100
00000010
00000001
00001000
00000010
00000100
00000001
00001000
00000001
,
00000010
00000000
00000100
00001000
00000100
00000000
00010000
00001000
00100000
00000000
00001000
00010000
00000000
00000100
00010000
00000000
,
00001000
00000000
01000000
00010000
01000000
00100000
10000000
01000000
00000000
00100000
00010000
10000000
00010000
00000000
01000000
00000000
,
00001000
00000000
00010000
00001000
00100000
00000000
00001000
00010000
00000010
00000000
00001000
00000010
00000000
00000100
00000000
00001000
,
00000000
00000100
00000001
00000100
00000001
00001000
00000010
00001000
00000100
00010000
00001000
00100000
00002000
00000000
00000000
00000000
,
00013000
00000000
00010000
01000000
00000000
11000000
00000000
10100000
,
00000000
00100000
01000000
00001000
00010000
00000010
00000100
00000000
,
00000001
00000010
00001000
00000010
00000000
00000011
00000000
00000101
,
00000000
00000100
00001000
00010000
00200000
00000000
00000000
00300000
,
01010000
00000000
10000000
01000000
01100000
00100000
00000000
00001000
,
01000000
00001000
00100000
00010000
00110000
00000000
00000000
00000000
,
00001100
00000000
00001000
00000010
00000110
00000100
00000000
00000001
,
00000010
00000100
00000010
00000100
00020000
00032000
00023000
00230000
,
10300000
00000000
01000000
10000000
00000000
01000000
00010000
00000000
00001000
00010000
00000000
00001000
00000020
00000000
00000030
00000000
,
00000001
00000000
00000100
00000001
00000000
00000100
00001000
00000000
00010000
00001000
00000000
00010000
02000000
00000000
03000000
00000000
,
10000000
00000000
01000000
10000000
00000000
01000000
00010000
00000000
00001000
00010000
00000000
00001000
00000020
00000000
00000030
00000000
,
00000001
00000000
00000100
00000001
00000000
00000010
00000100
00000000
00010000
00001000
00010000
00001000
00100000
00010000
01000000
00100000
,
10000000
00000000
10000000
01000000
00100000
00000000
00100000
00010000
01000000
00000000
00100000
00000000
00010000
00000000
00001000
00000000
,
00100000
00000000
01000000
00000000
00010000
00000000
00001000
00000000
00000010
00000100
00001000
00000100
00000010
00000000
00000001
00000000
,
00000201
00000000
00000000
00000000
00000310
00000000
00001000
00000100
00000010
00000000
00000001
00000100
00001000
00000000
00010000
00000000
,
00000000
00000000
00010100
00000000
00011000
00000000
00101000
00000000
00000000
00000000
00100000
00010000
01000000
00100000
10000000
00000000
,
01000000
00000000
00100000
01000000
00000000
00100000
00001000
00010000
00002000
00000000
02003000
00000000
03020000
00000000
00230000
00000000
,
00301000
00000000
00010000
00001000
00000000
00010000
00000100
00001000
00000020
00000000
00000230
00000000
00002300
00000000
00023000
00000000
,
00130000
01000000
00100000
00000000
01100000
00000000
10000000
00000000
01000000
00100000
01000000
00000000
01100000
00000000
00010000
00000000
,
01000000
00010000
01000000
00001000
00010000
00001000
00000100
00000010
00001000
00000001
00001000
00000001
00001000
00000001
00000010
00000000
,
00000110
00000000
00001100
00010000
00011000
00100000
00110000
01010000
,
00000000
00000000
01000000
00100000
10000000
00000000
01000000
00100000
00001000
00000000
00010000
00000000
00000100
00000000
00001100
00000000
,
00000000
00001010
00000010
00000110
00000100
00001001
00001010
00000000
,
00001000
00000100
00000010
00000000
00000001
00000100
00000010
00000000
00000100
00000000
00001000
00000000
00011000
00000000
00010000
00000000
,
00101000
00000000
01010000
00010000
10100000
10000000
01100000
10010000
,
00000000
00000000
10000000
01000000
00100000
00000000
01000000
10000000
00010000
00000000
01000000
00010000
01000000
00001000
00020000
00000000
,
00000000
00000000
00031000
00000000
00010000
00000100
00001000
00000010
00001000
00000010
00000100
00000001
00000010
00000100
00001000
00000000
,
00001100
00000000
00011000
00000000
00202000
00303000
00000000
00000000
00100000
00001000
00010000
00001000
01000000
00010000
00100000
02000000
,
00000000
00000000
13000000
01000000
00100000
00000000
01100000
00000000
01000000
00010000
00001000
00010000
00000100
00001000
00000100
00000020
,
00000000
00000000
00000031
00000000
00000100
00000000
00000110
00000000
00000010
00001000
00000100
00001000
00000000
00000100
00010000
00000000
,
00001000
01000000
00010000
01000000
00000000
00100000
01000000
00000000
00100000
10000000
01000000
10000000
00000000
01000000
00100000
00010000
,
00100000
00001000
00010000
00001000
01000000
00000000
00010000
00000000
00110000
00000000
00000000
00100000
00002000
00000000
01000000
00000000
,
00023000
00000000
00000100
00000000
00031000
00000000
00010000
00001000
00000010
00000000
00000100
00001000
00000001
00000000
00000100
00000010
,
00010000
00000000
00001000
00100000
00010000
00000000
00000000
00000000
01000000
00100000
10000000
00100000
01000000
00010000
00100000
01000000
,
10000000
00000000
01000000
00010000
00001000
00000000
00010000
00000000
00011000
00000000
00001000
00000010
00000100
00000000
00000100
00001000
,
00000001
00000000
00000100
00000001
00001000
00000010
00010000
00000000
00001000
00000000
00011000
00000000
00101000
00000000
00110000
00000000
,
00000000
00000000
01100000
00000000
00000000
00000000
22000000
00000000
00000000
03000000
00000000
00000000
30010000
00100000
00001000
00010000
,
00000100
00001000
00000001
00000100
00001000
00000000
00000000
00000000
00011000
00000000
00000000
00000000
00010000
00100000
01000000
00100000
,
10000000
00000000
00000000
00000000
01000000
00000000
00100000
01000000
00100000
00000000
00001000
00000000
00010000
00000000
00000100
00000000
00000010
00000000
00000000
00000000
00000001
00000000
00000100
00000001
00001000
00000000
00000100
00000000
00000010
00000000
00001000
00000000
,
00010000
00000000
00000000
00000000
01000000
00000000
00100000
01000000
20000000
00000000
00000000
00000000
00100000
00000000
30000000
00000000
10010000
00000000
00000000
00010000
00100000
00000000
00001000
00000000
00011000
00000000
00000000
00000100
00001000
00000000
00000010
00000000
,
00000100
00000000
00000000
00000001
00000010
00000000
00000100
00000000
00000110
00000000
00000000
00001000
00000010
00000000
00010000
00000000
00001000
00010000
00001000
00000000
00100000
00010000
00100000
00000000
01000000
10000000
01000000
00000000
00100000
00010000
01000000
00000000
,
00010000
00100000
00001000
00010000
00000100
00010000
00001000
00010000
00000010
00000000
00000000
00000000
00000000
00000000
00000000
00000000
00002001
00000000
00000000
00000000
00000000
00000000
00000000
00000000
00000100
00000000
00000000
00000000
00000000
00000000
00000000
00000000
,
00000002
00000000
00003000
00000000
00000200
00000003
00020000
00000300
,
02000000
00030000
00200000
03000000
20000000
00000000
00000000
00000000
,
00300000
00000000
00000000
00000000
02000000
00000000
30000000
00000000
00020000
00000000
03000000
00000000
00002000
00000000
00030000
00000000
00000020
00000000
00003000
00000000
00000000
00000000
00000100
00000000
00000000
00000030
00000000
00000000
00002002
00000000
00003003
00000000
,
00000000
00000000
00000000
00000000
00000001
00000100
00000010
00001000
00000001
00000100
00001000
00020000
00000000
00000000
00130000
01000000
,
00100000
00000000
01100000
00000000
10000000
01000000
00100000
00010000
10000000
01000000
00010000
00002000
00000000
00000000
00003010
00000100
,
00000010
00000000
00000110
00000000
00000001
00000100
00000001
00001000
00000000
00000010
00001000
00000000
00000100
00000010
00000100
00010000
,
00000000
00001000
00010000
00000000
00001000
00100000
00010000
00100000
00000000
01000000
10000000
00000000
00100000
01000000
00100000
01000000
,
00010000
00000000
00100000
00001000
00020000
00000000
00000000
00000000
00030020
00000000
00000000
00000000
00000130
00000000
00000001
00000000
,
00000010
00000000
00000100
00001000
00000100
00000000
00010000
00001000
00000010
00000000
00001000
00010000
00000010
00000000
00010000
00001000
,
00200000
00000000
00000000
00000000
00310000
01000000
00010000
10000000
01000000
10000000
00010000
00100000
00010000
01000000
00001000
00010000
,
00001000
00000000
00010000
00000000
00011000
00000000
00001000
00010000
00000010
00000000
00000010
00001000
00000001
00000010
00000100
00001000
,
00000002
00000000
00001003
00000000
00001001
00000000
00000001
00000010
00000100
00000010
00000001
00001000
00000100
00000000
00010000
00001000
,
00010000
00001000
01000000
00010000
00100000
00000000
01000000
10000000
00010000
01000000
00010000
10000000
01000000
00000000
00100000
00001000
,
00010000
00000000
00011000
00000000
00010100
00000000
00000100
00001000
00000001
00000100
00000001
00001000
00000100
00000000
00010000
00001000
,
00100000
00010000
01000000
00100000
10000000
00000000
00100000
01000000
00010000
01000000
00100000
10000000
02000000
03200000
02300000
03200000
,
00302000
00023000
00032000
00023000
00030100
00000000
00001000
00000010
00000100
00000001
00000010
00000100
00001000
00000000
00000010
00010000
,
00001000
01000000
00010000
00100000
01000000
00000000
10000000
00100000
10000000
01000000
00100000
00001000
00010000
00000000
00000100
00001000
,
00000010
00000000
00000110
00000000
00001001
00000000
00001000
00000010
00010000
00001000
00000010
00000100
00000010
00000000
00001000
00010000
,
00001000
01000000
00010000
10000000
00200000
00000000
00000000
00000000
01000000
00000000
00000000
00000000
10300000
01000000
00100000
00001000
,
00010000
00000100
00000010
00000001
00002000
00000000
00000000
00000000
00000000
00000000
00000000
00000000
00000010
00000000
00000000
00000010
,
00000000
00000000
00000001
00000000
00003100
00000000
00010000
00001000
00000000
00101000
00000000
00010100
00000000
00000100
00001000
00000010
,
00001000
00000000
00000001
00000000
00000100
00000010
00001000
00000010
00000000
00000100
00000001
00000000
00000100
00001000
00010000
00001000
,
00000000
00010000
00000000
00011000
00000000
00001000
00100000
00001000
00010000
00000010
00010000
00001000
01000000
00010000
10000000
01000000
,
00200000
00000000
00000000
00000000
01300000
10000000
01000000
00010000
00000000
00011000
00000000
00101000
00000000
00011000
00000000
00020020
,
00000000
00030030
00000000
00000000
;
