#VERSION:0.83;
#TITLE:3!dolon Forc3;
#SUBTITLE:;
#ARTIST:青龍×Eagle;
#TITLETRANSLIT:;
#SUBTITLETRANSLIT:;
#ARTISTTRANSLIT:Seiryu x Eagle;
#GENRE:THE 4TH;
#CREDIT:;
#MUSIC:3!dolon Forc3.ogg;
#BANNER:3!dolon Forc3.png;
#BACKGROUND:3!dolon Forc3-bg.png;
#CDTITLE:./CDTitles/bm IIDX 28 BISTROVER.png;
#SAMPLESTART:21.092;
#SAMPLELENGTH:15.000;
#SELECTABLE:YES;
#OFFSET:0.263;
#BPMS:0.000=191.000
,167.000=180.000
,171.000=170.000
,175.000=160.000
,179.000=150.000
,183.000=130.000
,192.958=95.500
,228.000=191.000
;
#STOPS:;
#TIMESIGNATURES:0.000=4=4;
#DISPLAYBPM:96.000:191.000;
#BGCHANGES:0.000=../BGAs/19cy.mp4=1.000=0=0=0=StretchNoLoop====,
99999.000=-nosongbg-=1.000=0=0=0=StretchNoLoop====
;
#FGCHANGES:;

//--------------- dance-single - forcednature ----------------
#NOTEDATA:;
#STEPSTYPE:dance-single;
#DESCRIPTION:forcednature;
#DIFFICULTY:Beginner;
#METER:4;
#RADARVALUES:0,0,0,0,0;
#CREDIT:forcednature;
#NOTES:
0000
0000
0000
0000
,
0000
0000
0000
0000
,
0000
0000
0000
0000
,
0000
0000
0000
0000
,
0000
0000
0000
0000
,
0000
0000
0000
0000
,
0000
0000
0000
0000
,
0000
0000
0000
0000
,
0000
0000
0000
0000
,
0001
0000
0000
0000
,
0100
0000
0000
0000
,
0010
0000
0000
0000
,
1000
0000
0000
0000
,
0001
0000
0000
0000
,
0010
0000
0000
0000
,
0100
0000
0000
0000
,
2000
0000
3000
0000
,
1001
0000
0000
0000
,
0001
0000
0100
0000
,
0010
0000
0000
0000
,
1000
0000
0001
0000
,
0010
0000
0000
0000
,
0100
0000
1000
0000
,
0001
0000
0000
0000
,
0100
0000
0010
0000
,
1001
0000
0000
0000
,
0001
0000
0010
0000
,
0100
0000
0000
0000
,
1000
0000
0001
0000
,
0100
0000
0000
0000
,
0010
0000
1000
0000
,
0001
0000
0001
0000
,
0010
0000
0000
0000
,
1001
0000
0000
0000
,
1000
0000
1000
0000
,
0001
0000
0000
0000
,
1000
0000
1000
0000
,
0010
0000
0000
0000
,
1000
0000
1000
0000
,
0001
0000
1000
0000
,
0001
0000
0000
0000
,
2002
0000
0000
0000
,
0000
0000
0000
0000
,
0000
0000
0000
0000
,
0000
0000
0000
0000
,
0000
0000
0000
0000
,
0000
0000
0000
0000
,
0000
0000
0000
0000
,
0000
0000
3003
0000
,
0001
0010
0000
0010
,
0001
0100
0000
0100
,
0010
1000
0000
1000
,
0010
0100
0000
0100
,
0002
0003
1000
1000
,
0001
0000
0010
0010
,
0100
0000
1000
1000
,
0001
0000
0110
0000
,
2002
0000
0000
0000
,
0000
0000
0000
0000
,
0000
0000
0000
0000
,
0000
0000
3003
0000
,
1000
0000
1000
0000
,
0001
0000
0001
0000
,
0100
0010
0100
0000
,
0020
0000
0030
0000
,
1001
0000
0000
0000
,
1000
0000
0010
0000
,
0100
0000
0001
0000
,
0010
0000
0100
0000
,
1000
0000
0000
0000
,
0001
0000
0100
0000
,
0010
0000
1000
0000
,
0100
0000
0010
0000
,
1001
0000
0000
0000
,
1000
0000
0001
0000
,
0100
0000
0001
0000
,
0010
0000
0100
0000
,
1001
0000
0000
0000
,
0001
0000
1000
0000
,
0100
0000
1000
0000
,
0010
0000
0100
0000
,
2002
0000
0000
0000
,
0000
0000
0000
0000
,
3003
0000
0000
0000
;

//--------------- dance-single - forcednature ----------------
#NOTEDATA:;
#STEPSTYPE:dance-single;
#DESCRIPTION:forcednature;
#DIFFICULTY:Easy;
#METER:8;
#RADARVALUES:0,0,0,0,0;
#CREDIT:forcednature;
#NOTES:
0000
0000
0000
0000
,
0000
0000
0000
0000
,
0000
0000
0000
0000
,
0000
0000
0000
0000
,
0000
0000
0000
0000
,
0000
0000
0000
0000
,
0000
0000
0000
0000
,
0000
0000
0000
0000
,
0000
0000
0000
0000
,
1000
0100
1000
0100
,
0010
0001
1000
0010
,
0100
0001
0100
0001
,
0010
0100
1000
0001
,
0100
0100
0010
1000
,
0100
0100
0010
0001
,
1000
0001
1000
0000
0010
0000
0100
0000
,
0002
0023
0230
2300
,
3010
0000
0010
0100
,
0001
1000
0010
0100
,
1001
0000
1000
0100
,
1001
0000
0001
0100
,
0110
0000
0010
1000
,
0001
0010
0100
1000
,
1001
0000
1000
0010
,
1001
0000
0001
0100
,
0110
0000
1000
0100
,
0010
0001
1000
0010
,
1001
0000
0001
0010
,
1001
0000
1000
0100
,
0110
0000
0010
0001
,
0100
0010
1000
0100
,
1001
0000
0001
0100
,
0110
0000
0000
0000
,
0010
0000
1000
0001
2000
0000
3000
0000
,
0100
0010
0001
0010
,
0000
0000
0001
1000
0002
0000
0003
0000
,
0100
0010
1000
0010
,
0000
0000
1000
0001
2000
0000
3000
0000
,
0100
0010
0001
0010
,
0000
0001
0000
1000
0000
0001
0000
0001
,
1000
0000
1000
0001
1000
0000
0001
0000
,
2002
0000
0000
0000
,
0000
0000
0000
0000
,
0000
0000
0000
0000
,
0000
0000
0000
0000
,
0000
0000
0000
0000
,
0000
0000
0000
0000
,
0000
0000
0000
0000
,
0000
0000
3003
0000
,
1000
0000
0010
0100
0100
0000
0010
0000
,
1000
0000
0001
0010
0010
0000
0001
0000
,
0100
0000
0010
1000
1000
0000
0100
0000
,
0010
0000
0001
0100
0100
0000
0010
0000
,
1001
0000
1000
0100
0100
0000
1000
0000
,
0010
0000
0100
0001
0001
0000
0010
0000
,
0110
0000
0100
1000
1000
0000
0001
0000
,
0100
0000
0010
1000
0010
0000
0100
0000
,
2002
0000
0000
0000
,
0000
0000
3003
0000
,
0001
0000
0001
0010
,
0100
0010
0001
0000
,
1000
0010
1000
0010
,
0100
0001
0100
0001
,
0010
0100
1000
0001
,
2000
3200
0320
0032
,
1003
0000
0010
0000
1000
0010
1000
0000
,
0010
0100
0001
0000
,
0010
0000
0001
0000
0010
0001
0010
0000
,
0100
1000
0001
0000
,
0100
0000
0010
0000
0100
0010
0100
0000
,
0001
1000
0100
0000
,
0010
0000
0001
0000
0010
0001
0010
0000
,
0100
1000
0001
0000
,
0100
0000
0001
0000
0100
0001
0100
0000
,
0010
1000
0100
0000
,
1000
0000
0010
0000
1000
0010
1000
0000
,
0001
0010
0100
0000
,
1000
0000
0001
0000
1000
0001
1000
0000
,
0010
0100
0001
0000
,
0010
0000
0010
0000
0001
0010
0001
0000
,
1000
0010
0100
0001
,
2002
0000
0000
0000
,
0000
0000
0000
0000
,
3003
0000
0000
0000
;

//--------------- dance-single - forcednature ----------------
#NOTEDATA:;
#STEPSTYPE:dance-single;
#DESCRIPTION:forcednature;
#DIFFICULTY:Medium;
#METER:12;
#RADARVALUES:0,0,0,0,0;
#CREDIT:forcednature;
#NOTES:
0000
0000
0000
0000
,
0000
0000
0000
0000
,
0000
0000
0000
0000
,
0000
0000
0000
0000
,
0000
0000
0000
0000
,
0000
0000
0000
0000
,
0000
0000
0000
0000
,
0000
0000
0000
0000
,
0000
0000
0000
0000
,
0001
0000
0100
0001
1000
0000
0010
0000
,
1000
0000
0100
0010
0001
0000
1000
0000
,
0001
0000
0100
0001
1000
0000
0010
0000
,
1000
0000
0100
0010
0001
0000
1000
0000
,
0010
0100
0010
0000
1000
0001
1000
0000
,
0100
0010
0100
0000
1000
0001
1000
0000
,
0010
0100
0010
0100
0001
1000
0001
0010
,
0200
2300
3002
0013
,
1001
0000
1000
0010
0100
0000
0001
0010
,
0000
0100
1000
0001
0000
0100
0010
0000
,
1000
0000
0100
0010
0001
0000
1000
0010
,
0000
0100
0001
1000
0000
0100
0010
0000
,
0001
0000
1000
0010
0100
0000
0001
1000
,
0000
0100
0010
0001
0000
1000
0010
0000
,
0100
0000
0001
0010
0100
0000
1000
0001
,
0000
0100
0010
1000
0000
0100
0010
0001
,
1000
0000
0010
0100
0001
0000
0010
0100
,
0000
1000
0001
0100
0000
0010
1000
0000
,
0001
0000
0010
0100
0010
0000
0001
1000
,
0000
0010
0100
0001
0000
1000
0100
0000
,
1000
0000
0010
0100
0001
0000
1000
0100
,
0000
0010
0001
0010
0000
0100
1000
0000
,
0001
0101
1010
0110
,
2002
0000
0000
3003
,
1000
0100
0010
0100
2000
0000
0000
3000
,
0010
0100
0001
0100
0010
0100
0001
0100
,
0000
0010
0100
0001
0020
0000
0000
0030
,
0100
1000
0001
1000
0100
1000
0001
1000
,
0000
0100
0010
0001
0200
0000
0000
0300
,
0010
1000
0001
1000
0010
1000
0001
1000
,
0000
0100
0010
0001
0000
0100
0010
1000
,
0100
1000
0001
1000
0100
0010
0001
0000
,
2002
0000
0000
0000
,
0000
0000
0000
0000
,
0000
0000
0000
0000
,
0000
0000
0000
0000
,
0000
0000
0000
0000
,
0000
0000
0000
0000
,
0000
0000
0000
0000
,
0000
0000
3003
0000
,
2000
0000
0000
0000
3010
0000
0001
0000
0010
0000
1000
0010
1000
0000
0001
0000
,
0000
0000
0010
0000
0100
0010
0100
0000
1000
0000
0001
0000
0100
0000
0010
0000
,
2000
0000
0000
0000
3001
0000
0010
0000
1000
0000
0010
0001
0010
0000
0100
0000
,
1000
0000
0001
0000
0200
0000
0000
0000
0310
1000
0010
1000
0001
0100
0001
0000
,
0000
0000
1001
0000
0000
0000
1000
0000
0100
0000
0001
0000
0100
1000
0100
0000
,
1000
0000
0010
0000
0100
0010
0100
0000
0001
0000
0010
0000
0100
0000
1000
0000
,
0020
0000
0130
0001
0010
0100
1000
0010
,
0100
0001
0100
0001
0010
0000
0001
0000
1001
0000
0000
0000
1000
0000
0010
0000
,
0220
0000
0000
0000
,
0000
0000
0330
0000
,
0100
0000
0001
0000
0010
0001
0000
0010
,
0000
0100
0000
1000
0000
0010
0100
0000
,
0001
1000
0100
1000
0001
1000
0100
0000
,
0010
0001
1000
0001
0010
0001
1000
0000
,
0010
0100
0001
0010
0100
1000
0010
0000
,
2000
3200
0320
0031
,
0101
0000
1100
0000
1000
0010
0100
0001
,
0000
0010
0100
1000
0000
0001
0100
0000
,
1010
0000
1100
0000
0001
0010
0100
0010
,
0000
0001
1000
0010
0000
0100
0001
0000
,
0011
0000
0110
0000
1000
0010
0100
0001
,
0000
1000
0100
0010
0000
0001
1000
0000
,
1010
0000
1100
0000
0001
0100
0010
1000
,
0000
0001
0010
0100
0000
0010
0001
1000
,
0010
0000
0110
0000
0100
0001
1000
0100
,
0000
0010
0100
1000
0000
0001
0100
0000
,
0110
0000
1010
0000
1000
0001
0010
0100
,
0000
0010
0001
1000
0000
0010
0100
0000
,
0101
0000
0011
0000
0010
0100
1000
0001
,
0000
0100
0010
1000
0000
0100
0010
0000
,
0001
0100
0001
0100
0010
1000
0010
1000
,
0001
0010
0100
1000
0010
0100
0001
0000
,
2002
0000
0000
0000
,
0000
0000
0000
0000
,
3003
0000
0000
0000
;

//--------------- dance-single - forcednature ----------------
#NOTEDATA:;
#STEPSTYPE:dance-single;
#DESCRIPTION:forcednature;
#DIFFICULTY:Hard;
#METER:16;
#RADARVALUES:0,0,0,0,0;
#CREDIT:forcednature;
#NOTES:
0000
0000
0000
0000
,
0000
0000
0000
0000
,
0000
0000
0000
0000
,
0000
0000
0000
0000
,
0000
0000
0000
0000
,
0000
0000
0000
0000
,
0000
0000
0000
0000
,
0000
0000
0000
0000
,
0000
0000
0000
0000
,
1100
1100
1010
1010
,
0011
0011
0101
0101
,
0011
0011
1010
1010
,
1100
1100
0101
0101
,
0001
0010
0001
0010
0100
1000
0100
1000
,
0010
0100
0010
0100
0001
1000
0001
1000
,
0100
0010
0100
0010
0001
0000
1000
0000
0001
0100
0010
0000
1000
0100
0010
0000
,
0001
0000
1000
0000
0010
0000
0100
0000
0001
0000
0010
0000
0100
1000
0000
0000
,
0001
0100
1000
0100
0001
0010
0100
1000
,
0000
0000
0010
0100
0001
0000
0010
0100
1000
0000
0001
0000
0100
0000
0010
0000
,
1000
0100
0001
0100
1000
0010
0100
0001
,
0000
0000
0010
0100
1000
0000
0010
0100
0001
0000
1000
0000
0100
0000
0010
0000
,
0001
1000
0010
0001
0010
1000
0001
0010
,
0000
0000
0100
0010
0001
0000
0100
0010
1000
0000
0001
0000
0010
0000
0100
0000
,
1000
0001
0010
1000
0010
0001
1000
0010
,
0000
0000
0100
0010
1000
0000
0100
0010
0001
0000
1000
0010
1000
0000
0001
0000
,
0010
0100
1000
0010
0001
0010
1000
0100
,
0000
0000
0010
0001
1000
0000
0010
0100
0001
0000
0010
0100
1000
0000
0001
0000
,
0100
1000
0100
0001
0010
0100
1000
0001
,
0000
0000
0100
0010
1000
0000
0001
0010
0100
0000
1000
0001
0100
0000
0010
0000
,
1000
0001
0010
0100
0001
0100
1000
0001
,
0000
0000
0100
0010
1000
0000
0100
0010
0001
0000
1000
0001
0100
0000
0010
0000
,
1010
1100
0011
0101
,
1000
0000
0001
0000
0010
0001
0010
0001
0010
0000
0100
1000
0001
0000
0000
0000
,
0100
0010
1000
0100
0002
0000
0000
0003
,
0100
1000
0010
0001
0010
1000
0100
0001
,
0000
0100
1000
0010
0200
0000
0000
0300
,
1000
0100
0001
0010
1000
0010
0001
0100
,
0000
0010
1000
0001
0020
0000
0000
0030
,
0100
1000
0010
0001
0010
1000
0100
0001
,
0000
0000
0100
1000
0100
0000
0010
0000
0000
0000
0100
1000
0100
0000
0010
0000
,
0010
0000
0010
0000
0001
1000
0001
1000
0010
0000
0100
0000
0001
0000
0000
0000
,
2002
0000
0000
0000
,
0000
0000
0000
0000
,
0000
0000
0000
0000
,
0000
0000
0000
0000
0000
0000
0000
0000
0000
0000
0000
0000
0000
0000
0000
0000
0000
0000
0000
0000
0000
0000
0000
3003
0000
0000
0000
0000
0000
0000
0000
0220
,
0000
0000
0000
0000
,
0000
0000
0000
0000
,
0000
0000
0000
0000
,
0000
0000
0330
0000
,
2002
0000
0003
0000
3100
0000
1100
0000
1100
0000
1000
0010
0100
0000
0001
0000
,
0010
0000
0001
0010
0001
0000
0000
0000
0011
0000
0000
0000
0010
0000
0001
1000
0001
0000
0100
0000
0010
0000
1000
0000
0100
0000
0100
0000
0100
0000
0000
0000
,
0022
0033
0022
0033
1000
0000
1010
0000
1010
0000
0010
0100
0001
1000
0200
0000
,
0310
0000
0001
0010
0001
0000
0000
0000
2000
0000
0000
0000
3010
0000
0100
0000
0001
0000
0001
0000
1000
0000
1000
0000
0001
0000
0001
0000
0020
0000
0000
0000
,
0030
0001
0200
2300
3000
0000
0101
0000
0101
0000
0001
0010
0100
0000
1010
0000
,
0001
0000
1000
0001
2000
0000
0000
0000
3020
0000
0000
0000
0130
0000
0001
0000
0010
0000
0100
0000
1000
0000
0010
0000
0001
0000
0010
0000
1000
0000
0000
0000
,
2200
3300
2200
3300
0001
0000
0101
0000
0101
0000
1000
0010
0100
0000
0002
0000
,
0013
0000
0100
0000
1000
0000
0010
0000
0001
0000
0010
0000
1000
0000
0100
0000
0020
0000
0000
0000
0000
0000
0000
0000
0031
0000
0010
0000
0001
0000
1000
0001
,
2000
0010
0010
0010
,
3002
0010
0010
0010
,
2003
0100
0100
0100
,
3002
0100
0100
0100
,
1003
0100
0010
0100
1000
0001
0010
0100
,
1000
0010
0100
0010
1000
0001
0100
0010
,
1000
0001
1000
0001
0100
0000
0010
0000
1000
0100
0010
0000
0001
0100
0010
0000
,
1000
0000
0001
0000
0010
0000
0100
0000
1000
0000
0001
0000
0100
0010
0000
0000
,
1000
0001
1001
1000
0010
0100
0110
0010
,
1000
0000
0001
0010
0100
0000
1000
0001
0100
0000
0010
1000
0001
0000
0010
0000
,
0100
1000
1001
0001
0100
0010
1010
1000
,
0100
0000
0010
0001
1000
0000
0010
0100
0001
0000
0010
0100
1000
0000
0001
0000
,
0100
0010
1010
1000
0100
0010
0011
0001
,
1000
0000
0010
0100
0001
0000
0010
0100
1000
0000
0001
0100
0010
0000
1000
0000
,
0001
0010
0110
0100
1000
0001
0101
0100
,
0010
0000
1000
0001
0010
0000
0100
1000
0001
0000
0100
0010
1000
0010
0100
0000
,
0001
1000
1100
0001
0010
0100
0110
1000
,
0010
0000
0100
0001
0010
0000
0100
1000
0010
0000
0100
0001
1000
0001
0100
0000
,
0010
1000
1100
0001
0010
0100
0110
0001
,
1000
0000
0010
0100
0001
0000
0010
0100
1000
0000
0001
0100
0010
0100
0001
0000
,
1000
0001
0011
1000
0010
0100
0110
0001
,
1000
0000
0100
0010
0001
0000
0100
0010
1000
0000
0001
1000
0100
1000
0001
0000
,
0010
0100
1000
0010
0100
0001
0010
0100
,
1000
0001
0100
0001
1000
0100
1000
0001
0100
0010
1000
0001
0100
0000
0010
0000
,
2002
0000
0000
0000
,
0000
0000
0000
0000
,
3003
0000
0000
0000
;

//--------------- dance-single - forcednature ----------------
#NOTEDATA:;
#STEPSTYPE:dance-single;
#DESCRIPTION:forcednature;
#DIFFICULTY:Challenge;
#METER:18;
#RADARVALUES:0,0,0,0,0;
#CREDIT:forcednature;
#NOTES:
0000
0000
0000
0000
,
0000
0000
0000
0000
,
0000
0000
0000
0000
,
0000
0000
0000
0000
,
0000
0000
0000
0000
,
0000
0000
0000
0000
,
0000
0000
0000
0000
,
0000
0000
0000
0000
,
0000
0000
0000
0000
,
1000
0000
0100
0000
1000
0000
0010
1000
0010
0000
0100
0010
0000
0100
0001
0000
,
0010
0000
0001
0000
0010
0000
0100
0010
0100
0000
1000
0001
0100
0000
0010
0000
,
1000
0000
0001
0000
0010
0000
0001
0010
0001
0000
0100
0001
0000
0100
0010
0000
,
1000
0000
0100
0000
0010
0000
0100
1000
0001
0000
0100
0001
1000
0000
0010
0000
,
0100
0000
0001
0000
0010
0001
0010
0000
0100
0000
1000
0000
0010
1000
0010
0000
,
0100
0000
0001
0000
0010
0100
1000
0000
0010
0000
1000
0000
0100
0010
0001
0000
,
1000
0010
1000
0010
0100
0001
0100
0001
0010
0100
0010
0100
1000
0001
1000
0001
,
1000
0000
0100
0000
0010
0000
0001
0000
0011
0000
1100
0000
1000
0001
0000
0000
,
1000
0000
0010
0100
0001
0000
0010
0100
1000
0000
0001
0000
0100
0000
1000
0000
,
0100
0000
0001
0000
0010
0001
0010
0001
0010
0100
1000
0001
0010
0000
0000
0000
,
0100
0000
1000
0001
0100
0000
0001
1000
0100
0000
0010
0000
1000
0000
0010
0000
,
0001
0000
0100
0000
0010
1000
0010
1000
0001
0100
0010
1000
0001
0000
0100
0000
,
0001
0000
0010
0100
1000
0000
0010
0100
0001
0000
1000
0000
0100
0000
0001
0000
,
0100
0000
1000
0000
0010
1000
0010
1000
0010
0100
0001
1000
0010
0000
0000
0000
,
0100
0000
0001
1000
0100
0000
1000
0001
0100
0000
0010
0000
0001
0000
0010
0000
,
1000
0000
0100
0000
0010
0001
0010
0001
1000
0100
0010
0100
1000
0000
0001
0000
,
0100
0000
0010
1000
0100
0000
0010
0001
0100
0000
0010
0000
1000
0000
0100
0000
,
0001
0000
0100
0000
1000
0010
1000
0001
0010
0001
1000
0010
0100
0000
0000
0000
,
0001
0000
0010
0100
1000
0000
0010
0100
0001
0000
0010
0000
1000
0000
0010
0000
,
0001
0000
0100
0000
0010
1000
0001
1000
0010
0100
0001
0100
0010
0000
1000
0000
,
0100
0000
0010
0001
0100
0000
0010
1000
0100
0000
0010
0000
0001
0000
0100
0000
,
1000
0000
0100
0000
0001
0010
0001
1000
0010
1000
0001
0010
0100
0000
0000
0000
,
1000
0000
0010
1000
0100
0000
0010
0000
0001
0000
0100
0001
0010
0000
0100
0000
,
1001
0000
0000
0000
0001
0010
0001
0010
0100
1000
0100
1000
0010
0000
0000
0000
,
0001
0020
2030
3200
0302
0000
0000
0003
,
0100
1000
0010
0000
0110
0000
0100
0000
0001
0010
0100
0000
0110
0000
0010
0000
,
1000
0020
0032
0203
2300
0000
0000
3000
,
0100
0001
0010
0000
0110
0000
0100
0000
1000
0010
0100
0000
0110
0000
0010
0000
,
0001
0020
2030
3200
0302
0000
0000
0003
,
0100
1000
0010
0000
0110
0000
0100
0000
0001
0010
0100
0000
0110
0000
0010
0000
,
1000
0020
0032
0203
0300
0020
2030
3200
,
0302
0000
0203
0000
1300
0100
0010
0001
1000
0010
0100
0001
0010
0000
0100
0000
,
1001
0000
0001
0010
0100
1000
0001
0100
,
0010
1000
0001
0010
0100
1000
0100
0010
,
0001
0100
1000
0100
0001
0010
0100
1000
,
0010
0001
0010
1000
0100
0010
0001
0100
,
2002
0000
0000
0000
0003
0000
0000
0000
0020
0000
0000
0030
0000
0000
0200
0000
0000
0000
0000
0000
0000
0000
0000
0000
0300
0000
0000
0000
0000
0000
0200
0000
,
0000
0000
0000
0000
0300
0000
0000
0200
0000
0000
0000
0000
0300
0000
0000
0200
,
0000
0000
0000
0000
0000
0000
0000
0000
0300
0000
0000
0000
0000
0000
0000
0200
0000
0000
0000
0000
0000
0000
0000
0000
0000
0300
0000
0000
0000
0000
0000
0000
,
0200
0000
0000
0000
0000
0300
0000
0000
0200
0000
0000
0000
0000
0300
0000
0000
,
0020
3030
1010
0101
0011
0101
0011
1100
,
0001
0010
0100
1000
0001
0000
0000
0000
1100
0000
0000
0000
1000
0000
0010
0100
0001
0000
0010
0000
0010
0000
0010
0000
0002
0000
0203
0000
2300
0000
3000
0000
,
0100
0001
0100
0000
0010
1000
0010
0000
0100
0000
0000
0000
1010
0000
0000
0000
1100
0000
0000
0000
1010
0000
0000
0000
1100
0000
0000
0000
0011
0000
0000
0000
,
0001
1000
0010
0100
0001
0000
0000
0000
1001
0000
0000
0000
1000
0000
0010
0000
0001
0000
1000
0000
0100
0000
0001
0000
0010
0000
0100
0000
2002
0000
0000
0000
,
3003
0000
0000
0000
1000
0010
0001
0000
0010
0000
0000
0000
0101
0000
0000
0000
1100
0000
0000
0000
0101
0000
0000
0000
1100
0000
0000
0000
1010
0000
0000
0000
,
0001
1000
0100
0010
0001
0000
0000
0000
0101
0000
0000
0000
1000
0000
0010
0000
0100
0000
1000
0000
0001
0000
0010
0000
0100
0000
0110
0000
1010
0000
0000
0000
,
1000
0100
1000
0000
0001
0010
0001
0000
1000
0000
0000
0000
1010
0000
0000
0000
0011
0000
0000
0000
1010
0000
0000
0000
0011
0000
0000
0000
1100
0000
0000
0000
,
0001
0000
0100
0010
1000
0000
0001
0000
0010
0000
0100
1000
0100
0000
0100
0000
1001
0000
0001
0010
0100
0000
1000
0000
0010
0100
0010
0100
0001
1000
0001
1000
,
0020
0000
0100
0000
0130
0001
0010
0011
,
0000
0000
0011
0000
0000
0000
0101
0000
0000
0000
0100
0010
1000
0000
0100
0000
,
0020
0000
0100
0000
0130
1000
0010
1010
,
0000
0000
1010
0000
0000
0000
1100
0000
0000
0000
0100
0010
0001
0000
0100
0000
,
0010
0000
1000
0000
0100
1000
0100
0000
0010
0000
0001
0000
0100
0001
0100
0000
,
0010
0000
1000
0000
0100
0010
0001
0000
0100
0000
0001
0000
0010
0100
1000
0000
,
0001
0100
0001
0100
0010
1000
0010
1000
0001
0010
0100
1000
0001
0100
0010
1000
,
0001
0000
0010
0000
0100
0000
1000
0000
1100
0000
0011
0000
0001
1000
0000
0000
,
0010
0000
0100
0001
0010
0000
0100
1000
0001
0000
1000
0010
0001
0000
0010
0000
,
1000
0100
0010
0001
1000
0010
1000
0001
0010
0100
1000
0001
0100
0000
0010
0000
,
1000
0000
0100
0010
0001
0000
0100
0010
1000
0000
0001
0100
1000
0000
0100
0000
,
0001
0010
0100
1000
0001
0100
0001
1000
0100
0010
0001
1000
0010
0000
0100
0000
,
1001
0000
0001
0010
0100
0000
1000
0010
0100
0000
1000
0100
0001
0000
0010
0000
,
0100
1000
0001
0100
0010
1000
0001
0010
0100
0010
0001
1000
0010
0000
0100
0000
,
0001
0000
1000
0010
0100
0000
0001
0010
0100
0000
0001
0100
1000
0000
0010
0000
,
0100
0001
1000
0100
0010
0001
1000
0010
0100
0010
1000
0001
0010
0000
0100
0000
,
1001
0000
1000
0010
0100
0000
1000
0100
0001
0000
1000
0010
0001
0000
0010
0000
,
0100
0001
1000
0100
0010
0001
1000
0010
0100
0001
0010
0100
1000
0000
0001
0000
,
0100
0000
0001
0010
0100
0000
0001
0100
1000
0000
0001
0010
1000
0000
0010
0000
,
0100
1000
0001
0100
0010
1000
0001
0010
0100
1000
0010
0100
0001
0000
0010
0000
,
1001
0000
0001
0010
0100
0000
1000
0010
0001
0000
0010
1000
0001
0000
0100
0000
,
0010
1000
0100
1000
0001
0010
0100
1000
0001
0100
0010
1000
0001
0000
0010
0000
,
0100
1000
0100
1000
0001
0010
0001
0010
0100
1000
0001
1000
0010
0100
0010
0100
,
0010
1000
0001
0010
0100
1000
0001
0100
0010
1000
0100
0010
0001
0000
1000
0000
,
2002
0000
0000
0000
,
0000
0000
0000
0000
,
3003
0000
0000
0000
;

//--------------- dance-double - forcednature ----------------
#NOTEDATA:;
#STEPSTYPE:dance-double;
#DESCRIPTION:forcednature;
#DIFFICULTY:Easy;
#METER:8;
#RADARVALUES:0,0,0,0,0;
#CREDIT:forcednature;
#NOTES:
00000000
00000000
00000000
00000000
,
00000000
00000000
00000000
00000000
,
00000000
00000000
00000000
00000000
,
00000000
00000000
00000000
00000000
,
00000000
00000000
00000000
00000000
,
00000000
00000000
00000000
00000000
,
00000000
00000000
00000000
00000000
,
00000000
00000000
00000000
00000000
,
00000000
00000000
00000000
00000000
,
00011000
00000000
00001000
00010000
,
00100000
00000000
10000000
00100000
,
10000000
00000000
01000000
00010000
,
00001000
00000000
00010000
00001000
,
00010000
00010000
00000010
00001000
,
00000100
00000100
00010000
00001000
,
00100000
00010000
10000000
01000000
,
00200000
00000000
00000000
00300000
,
10010000
00000000
00010000
01000000
,
00001000
00010000
00000010
00001000
,
00000010
00000000
00000100
00000001
,
00000010
00000100
00001000
00000010
,
00000100
00000000
00000001
00001000
,
00000100
00010000
00001000
00100000
,
00010000
00000000
01000000
00100000
,
10000000
01000000
00100000
00010000
,
10010000
00000000
10000000
00100000
,
01000000
00010000
00100000
00001000
,
00010000
00000000
00000010
00001000
,
00000001
00000010
00000100
00001000
,
00001001
00000000
00000001
00000100
,
00000001
00001000
00000100
00010000
,
00001000
00001000
00100000
00000000
,
20020000
00000000
30030000
00000000
,
10000000
00100000
02000000
03000000
,
00010000
00100000
00010000
00100000
,
00000000
00001000
00020000
00030000
,
00000100
00001000
00000100
00001000
,
00000000
00000001
00000200
00000300
,
00000010
00001000
00000010
00001000
,
00000000
00000001
00000000
00000001
,
00000010
00000001
00000200
00000300
,
00002002
00000000
00000000
00000000
,
00000000
00000000
00000000
00000000
,
00000000
00000000
00000000
00000000
,
00000000
00000000
00000000
00000000
,
00000000
00000000
00000000
00000000
,
00000000
00000000
00000000
00000000
,
00000000
00000000
00000000
00000000
,
00000000
00000000
00003003
00000000
,
00001000
00000000
00000010
00000000
00001000
00001000
00000010
00000000
,
00010000
00000000
00001000
00000000
01000000
00010000
01000000
00000000
,
00200000
00000000
10300000
00000000
01000000
01000000
10000000
00000000
,
00010000
00000000
00100000
00000000
00001000
00010000
00001000
00000000
,
00022000
00000000
00033000
00000000
00010000
00001000
00010000
00000000
,
00000100
00000000
00001000
00000000
00000010
00001000
00000010
00000000
,
00000200
00000000
00000301
00000000
00000010
00000001
00000010
00000000
,
00000100
00010000
00002000
00003000
,
00022000
00000000
00000000
00000000
,
00000000
00000000
00000000
00000000
,
00000000
00000000
00000000
00000000
,
00000000
00000000
00033000
00000000
,
00010000
00001000
00010000
00001000
,
00100000
00010000
10000000
00100000
,
01000000
01000000
00001000
00010000
,
00022000
00000000
00033000
00000000
,
00000010
00000000
00001000
00000000
00000100
00001000
00000100
00000000
,
00000010
00000001
00001000
00000000
,
00000010
00000000
00010000
00000000
00001000
00010000
00001000
00000000
,
01000000
00010000
10000000
00000000
,
01000000
00000000
00100000
00000000
00010000
00100000
00010000
00000000
,
01000000
00001000
00010000
00000000
,
00000100
00000000
00001000
00000000
00000010
00001000
00000010
00000000
,
00000100
00000001
00000010
00000000
,
00000100
00000000
00010000
00000000
00001000
00010000
00001000
00000000
,
00100000
00010000
10000000
00000000
,
01000000
00000000
00100000
00000000
00010000
01000000
00010000
00000000
,
01000000
00001000
00010000
00000000
,
00000010
00000000
00001000
00000000
00000001
00001000
00000001
00000000
,
00000010
00000100
00001000
00000000
,
00000010
00000000
00010000
00000000
00001000
00010000
00001000
00000000
,
01000000
00010000
00100000
00000000
,
20020000
00000000
00000000
00000000
,
00000000
00000000
00000000
00000000
,
30030000
00000000
00000000
00000000
;

//--------------- dance-double - forcednature ----------------
#NOTEDATA:;
#STEPSTYPE:dance-double;
#DESCRIPTION:forcednature;
#DIFFICULTY:Medium;
#METER:12;
#RADARVALUES:0,0,0,0,0;
#CREDIT:forcednature;
#NOTES:
00000000
00000000
00000000
00000000
,
00000000
00000000
00000000
00000000
,
00000000
00000000
00000000
00000000
,
00000000
00000000
00000000
00000000
,
00000000
00000000
00000000
00000000
,
00000000
00000000
00000000
00000000
,
00000000
00000000
00000000
00000000
,
00000000
00000000
00000000
00000000
,
00000000
00000000
00000000
00000000
,
00001000
00000000
00010000
00001000
00010000
00000000
00000010
00000000
,
00001000
00000000
00000100
00000010
00000001
00000000
00001000
00000000
,
00000010
00000000
00010000
00001000
00010000
00000000
00001000
00000000
,
00100000
00000000
00010000
01000000
00100000
00000000
10000000
00000000
,
01000000
10000000
01000000
00000000
00100000
00010000
00100000
00000000
,
00001000
00010000
00001000
00000000
00000010
00000100
00000010
00000000
,
00000001
00001000
00000001
00001000
00000010
00000100
00000010
00000000
,
00000200
00002300
00023000
00130000
,
01100000
00000000
10000000
00000000
00010000
01000000
00010000
10000000
,
00000000
01000000
00100000
00010000
00000000
01000000
00010000
00000000
,
00110000
00000000
00100000
00000000
00001000
00010000
00000100
00010000
,
00000000
00001000
00000010
00001000
00000000
00000010
00000001
00000000
,
00000011
00000000
00001000
00000000
00000010
00000100
00000001
00000100
,
00000000
00000010
00001000
00000100
00000000
00010000
00001000
00000000
,
00011000
00000000
00100000
00000000
00010000
01000000
00010000
10000000
,
00000000
01000000
00100000
00010000
00000000
01000000
00001000
00000000
,
00011000
00000000
00000010
00000000
00001000
00000100
00000010
00000100
,
00000000
00001000
00000001
00000100
00000000
00000010
00001000
00000000
,
00001100
00000000
00010000
00000000
00001000
01000000
00010000
01000000
,
00000000
00100000
10000000
01000000
00000000
00100000
00001000
00000000
,
00011000
00000000
00000100
00000000
00001000
00000010
00000100
00000001
,
00000000
00000010
00000100
00001000
00000000
00000010
00010000
00000000
,
00011000
00101000
00011000
00010010
,
00000220
00000000
00000000
00000330
,
00000100
00000001
00000010
00000100
00002000
00000000
00000000
00003000
,
00000010
00010000
00000010
00001000
00000010
00010000
00000010
00001000
,
00000000
00000100
00010000
00001000
00020000
00000000
00000000
00030000
,
00100000
01000000
00010000
01000000
00100000
01000000
00010000
01000000
,
00000000
00100000
10000000
01000000
00200000
00000000
00000000
00300000
,
00010000
01000000
00001000
01000000
00010000
01000000
00001000
01000000
,
00000000
00010000
00100000
00001000
00000000
00010000
00000010
00001000
,
00001000
00000010
00000001
00000010
00001000
00000100
00010000
00000000
,
00022000
00000000
00000000
00000000
,
00000000
00000000
00000000
00000000
,
00000000
00000000
00000000
00000000
,
00000000
00000000
00000000
00000000
,
00000000
00000000
00000000
00000000
,
00000000
00000000
00000000
00000000
,
00000000
00000000
00000000
00000000
,
00000000
00000000
00033000
00000000
,
02010000
00000000
03100000
10000000
10000000
01000000
00010000
00001000
,
00000010
00000100
00000010
00000000
00000001
00000000
00000100
00000010
00000100
00000000
00000001
00000000
00000010
00000000
00001000
00000000
,
00020000
00000000
00031000
00010000
01000000
10000000
00010000
01000000
,
00100000
01000000
00100000
00000000
10000000
00000000
01000000
00100000
01000000
00000000
00010000
00000000
00001000
00000000
00000100
00000000
,
00000000
00000000
00000010
00000100
00000110
00000000
00001000
00000000
00000001
00000000
00000010
00000000
00001000
00000000
00010000
00000000
,
00000100
00001000
00000100
00000000
00000010
00000000
00000100
00001000
00000100
00000000
00010000
00000000
00001000
00000000
00100000
00000000
,
00020000
00000000
01030000
10000000
01000000
00010000
00100000
00001000
,
01000000
00010000
01000000
00000000
00100000
00000000
10000000
00000000
10010000
00000000
00000000
00000000
00001000
00000000
00010000
00000000
,
00022000
00000000
00000000
00000000
,
00000000
00000000
00033000
00000000
,
00010000
00000000
00001000
00000000
00000010
00000100
00000000
00000010
,
00000000
00000001
00000000
00000100
00000000
00000010
00000100
00000000
,
00001000
00010000
00001000
00000000
00010000
00000000
00100000
00000000
,
10000000
00010000
10000000
00000000
01000000
00000000
00010000
00000000
,
00001000
00010000
00000010
00001000
00000001
00000100
00000010
00000000
,
00000200
00002300
00023000
00130000
,
01100000
00000000
10010000
00000000
10000000
01000000
10000000
00010000
,
00000000
01000000
00010000
01000000
00000000
00001000
00010000
00000000
,
00011000
00000000
00010100
00000000
00000100
00001000
00000010
00001000
,
00000000
00000100
00000010
00000001
00000000
00001000
00000010
00000000
,
00000110
00000000
00000101
00000000
00000010
00001000
00000001
00000010
,
00000000
00000100
00001000
00000100
00000000
00010000
00001000
00000000
,
00011000
00000000
00101000
00000000
00100000
00010000
01000000
00010000
,
00000000
10000000
00100000
10000000
00000000
00010000
00100000
00001000
,
00010000
00000000
00011000
00000000
00000010
00001000
00000010
00000100
,
00000000
00000001
00000100
00000010
00000000
00001000
00000100
00000000
,
00011000
00000000
00101000
00000000
00100000
00010000
01000000
00010000
,
00000000
10000000
01000000
00100000
00000000
01000000
10000000
00000000
,
10100000
00000000
01100000
00000000
01000000
00010000
00100000
00001000
,
00000000
00010000
00001000
00010000
00000000
00000010
00001000
00000000
,
00000001
00000010
00000001
00000010
00000100
00001000
00000100
00001000
,
00000010
00000100
00000010
00000100
00001000
00000000
00010000
00000000
,
00022000
00000000
00000000
00000000
,
00000000
00000000
00000000
00000000
,
00033000
00000000
00000000
00000000
;

//--------------- dance-double - forcednature ----------------
#NOTEDATA:;
#STEPSTYPE:dance-double;
#DESCRIPTION:forcednature;
#DIFFICULTY:Hard;
#METER:16;
#RADARVALUES:0,0,0,0,0;
#CREDIT:forcednature;
#NOTES:
00000000
00000000
00000000
00000000
,
00000000
00000000
00000000
00000000
,
00000000
00000000
00000000
00000000
,
00000000
00000000
00000000
00000000
,
00000000
00000000
00000000
00000000
,
00000000
00000000
00000000
00000000
,
00000000
00000000
00000000
00000000
,
00000000
00000000
00000000
00000000
,
00000000
00000000
00000000
00000000
,
00011000
00000000
00001000
00010000
00100000
00000000
10000000
00000000
,
01000000
00000000
00100000
01000000
00010000
00001000
00010000
00000000
,
00001000
00000000
00000010
00000001
00000100
00000000
00001000
00000000
,
00000100
00000000
00000001
00000010
00000100
00010000
00001000
00000000
,
00100000
00010000
00100000
00010000
10000000
00100000
01000000
00001000
,
00010000
00100000
00010000
00001000
00000010
00001000
00010000
00000100
,
00001000
00000100
00001000
00000000
00000001
00000000
00000100
00000000
00001000
00000000
00010000
00100000
00000000
10000000
00100000
00000000
,
01000000
00000000
00010000
00000000
00100000
00000000
00001000
00000000
00010000
00000000
00000100
00000000
00001000
00000010
00000000
00000000
,
00000110
00000001
00001000
00000010
00000100
00001000
00010000
00001000
,
00000000
00000000
00010000
00000000
00100000
00000000
10000000
00000000
01000000
00000000
00100000
00010000
10000000
00000000
00100000
00000000
,
01000000
00010000
00100000
01000000
10000000
01000000
00010000
00001000
,
00000000
00000000
00100000
00000000
00010000
00000000
01000000
00000000
00001000
00000000
00010000
00001000
00010000
00000000
00000010
00000000
,
00001000
00000100
00000010
00000001
00000100
00001000
00010000
00001000
,
00000000
00000000
00010000
00000000
00100000
00000000
10000000
00000000
01000000
00000000
00100000
00010000
10000000
00000000
00100000
00000000
,
01000000
10000000
01000000
00010000
00100000
01000000
00010000
00001000
,
00000000
00000000
00000010
00000000
00000100
00000000
00001000
00000000
00000010
00000000
00000100
00000001
00000100
00000000
00000010
00001000
,
00000010
00000100
00000001
00000010
00001000
00010000
00000100
00010000
,
00000000
00000000
00001000
00000000
00000010
00000000
00001000
00000000
00010000
00000000
00001000
00100000
00010000
00000000
01000000
00000000
,
00100000
10000000
01000000
00010000
01000000
10000000
00100000
01000000
,
00000000
00000000
00010000
00000000
00100000
00000000
00001000
00000000
00010000
00000000
00000010
00001000
00000010
00000000
00010000
00000000
,
00001000
00000100
00000001
00000100
00000010
00001000
00000100
00000010
,
00000000
00000000
00001000
00000000
00010000
00000000
01000000
00000000
00100000
00000000
01000000
10000000
00010000
00000000
01000000
00000000
,
00100000
10100000
11000000
10010000
,
00010000
00000000
00100000
00010000
00100000
00000000
00001000
00010000
00001000
00000000
00000010
00000000
00000100
00000000
00000000
00000000
,
00001000
00000001
00000100
00001000
00020000
00000000
00000000
00030000
,
00100000
10000000
01000000
00010000
00001000
00010000
01000000
10000000
,
00010000
10000000
00100000
00010000
00002000
00000000
00000000
00003000
,
00000010
00000001
00000100
00001000
00010000
00001000
00000100
00000001
,
00001000
00000001
00000010
00001000
00020000
00000000
00000000
00030000
,
01000000
10000000
00100000
00010000
00001000
00010000
00100000
10000000
,
00000000
00000000
01000000
00100000
00010000
00000000
01000000
00000000
00000000
00000000
00001000
00010000
00001000
00000000
00010000
00000000
,
00001000
00000000
00010000
00000000
00000100
00001000
00000100
00001000
00000001
00000000
00000100
00000000
00000010
00000000
00000000
00000000
,
00002002
00000000
00000000
00000000
,
00000000
00000000
00000000
00000000
,
00000000
00000000
00000000
00000000
,
00000000
00000000
00000000
00000000
00000000
00000000
00000000
00000000
00000000
00000000
00000000
00000000
00000000
00000000
00000000
00000000
00000000
00000000
00000000
00000000
00000000
00000000
00000000
00003003
00000000
00000000
00000000
00000000
00000000
00000000
00000000
00000220
,
00000000
00000000
00000000
00000000
,
00000000
00000000
00000000
00000000
,
00000000
00000000
00000000
00000000
,
00000000
00000000
00000330
00000000
,
00022000
00000000
00030000
00000000
00103000
00000000
00110000
00000000
00110000
00000000
00010000
01000000
00100000
00000000
10000000
00000000
,
01000000
00000000
00100000
01000000
00100000
00000000
00000000
00000000
00001000
00000000
00000000
00000000
00000010
00000000
00000100
00000010
00000100
00000000
00001000
00000000
00000001
00000000
00000100
00000000
00001000
00000000
00001000
00000000
00001000
00000000
00000000
00000000
,
00022000
00033000
00022000
00033000
00100000
00000000
00110000
00000000
00110000
00000000
10000000
01000000
00100000
00010000
02000000
00000000
,
03001000
00000000
00010000
00001000
00010000
00000000
00000000
00000000
00000020
00000000
00000000
00000000
00000130
00000000
00001000
00000000
00000100
00000000
00000100
00000000
00000001
00000000
00000001
00000000
00000010
00000000
00000100
00000000
00002000
00000000
00000000
00000000
,
00003000
00000001
00000200
00002300
00003000
00000000
00011000
00000000
00011000
00000000
00000010
00001000
00000100
00000000
00000012
00000000
,
00000103
00000000
00000010
00000100
00000010
00000000
00000000
00000000
00010000
00000000
00000000
00000000
00100000
00000000
01000000
00100000
01000000
00000000
00010000
00000000
10000000
00000000
01000000
00000000
00010000
00000000
00010000
00000000
00010000
00000000
00000000
00000000
,
00022000
00033000
00022000
00033000
00000010
00000000
00001010
00000000
00001100
00000000
00010000
00001000
00000010
00000000
00000210
00000000
,
00001300
00000000
00000001
00000000
00000100
00000000
00001000
00000000
00010000
00000000
00100000
00000000
10000000
00000000
01000000
00000000
00200000
00000000
00000000
00000000
00000000
00000000
00000000
00000000
00310000
00000000
00100000
00000000
00001000
00000000
00010000
00001000
,
00020000
00000100
00000100
00000100
,
00030020
00000100
00001000
00000100
,
00002030
00000100
00000001
00000010
,
00023000
01000000
10000000
00100000
,
00031000
00000100
00001000
00000100
00000010
00000001
00000100
00001000
,
00010000
00001000
00010000
00100000
10000000
00010000
01000000
00100000
,
10000000
00010000
10000000
00000000
01000000
00000000
00100000
00000000
00010000
01000000
00010000
00000000
01000000
00000000
00001000
00000000
,
00010000
00000000
00000010
00000000
00000100
00000000
00001000
00000000
00010000
00000000
00000010
00000000
00001000
00000100
00000000
00000000
,
00000110
00001000
00000001
00000100
00000010
00010000
00001000
00100000
,
00010000
01000000
00010000
00000000
10000000
01000000
10000000
00000000
00100000
01000000
00100000
01000000
00100000
00000000
10000000
00000000
,
01000000
00100000
00010000
01000000
00001000
00010000
00000010
00001000
,
00000100
00000010
00000100
00000000
00001000
00000100
00001000
00000000
00000001
00000100
00000001
00000100
00000001
00000000
00000010
00000000
,
00001000
00010000
00000100
00010000
00001000
00100000
00001000
00010000
,
01000000
10000000
01000000
00000000
10000000
00100000
10000000
00000000
00100000
01000000
00100000
01000000
00010000
00000000
00100000
00000000
,
01000000
00010000
00001000
00010000
00000010
00000100
00001000
00000100
,
00000001
00000100
00000001
00000000
00000010
00000001
00000010
00000000
00000100
00001000
00000001
00001000
00000100
00000000
00000010
00000000
,
00001000
00010000
00000010
00001000
00010000
00001000
00000010
00010000
,
00001000
01000000
00001000
00000000
01000000
00010000
01000000
00000000
00100000
10000000
00100000
10000000
00010000
00000000
00100000
00000000
,
01000000
00010000
00001000
00000100
00001000
00010000
00001000
00100000
,
00010000
01000000
00010000
00000000
00100000
00001000
00100000
00000000
00001000
00010000
00000010
00010000
00001000
00000000
00000010
00000000
,
00000001
00000100
00000010
00001000
00010000
01000000
00100000
10000000
,
01000000
00100000
00010000
00000000
01000000
00001000
00010000
00000000
00000010
00001000
00000010
00001000
00000001
00000000
00000010
00000000
,
00000100
00000001
00000100
00010000
00001000
01000000
10000000
01000000
,
00010000
10000000
00010000
10000000
01000000
00100000
00010000
00100000
00001000
00010000
00001000
00010000
00000010
00000000
00000100
00000000
,
00002002
00000000
00000000
00000000
,
00000000
00000000
00000000
00000000
,
00003003
00000000
00000000
00000000
;

//--------------- dance-double - forcednature ----------------
#NOTEDATA:;
#STEPSTYPE:dance-double;
#DESCRIPTION:forcednature;
#DIFFICULTY:Challenge;
#METER:18;
#RADARVALUES:0,0,0,0,0;
#CREDIT:forcednature;
#NOTES:
00000000
00000000
00000000
00000000
,
00000000
00000000
00000000
00000000
,
00000000
00000000
00000000
00000000
,
00000000
00000000
00000000
00000000
,
00000000
00000000
00000000
00000000
,
00000000
00000000
00000000
00000000
,
00000000
00000000
00000000
00000000
,
00000000
00000000
00000000
00000000
,
00000000
00000000
00000000
00000000
,
00001000
00000000
00010000
00000000
00000000
00000100
00001000
00000000
00000010
00000000
00000100
00000010
00000000
00000100
00000001
00000000
,
00000010
00000000
00000100
00000000
00000000
00001000
00000010
00000000
00010000
00000000
00001000
00100000
00010000
00100000
00001000
00000000
,
00010000
00000000
00100000
00000000
00000000
10000000
00100000
00000000
01000000
00000000
00010000
01000000
00000000
00010000
00100000
00000000
,
00001000
00000000
00010000
00000000
00000000
00001000
00000010
00000000
00000001
00000000
00000010
00000100
00001000
00000100
00000010
00000000
,
00000001
00000000
00000100
00000000
00000010
00000100
00000010
00000000
00000100
00000000
00001000
00000000
00010000
00000000
01000000
00000000
,
10000000
00000000
00100000
00000000
01000000
00100000
01000000
00000000
00100000
00000000
00010000
00000000
00001000
00000000
00000010
00000000
,
00000001
00000100
00000001
00000100
00000010
00001000
00000010
00001000
00000100
00010000
00001000
00010000
00001000
00100000
00010000
01000000
,
00100000
00000000
10000000
00000000
01000000
00000000
00010000
00000000
00000100
00000000
00000010
00000000
00000001
00000100
00000000
00000000
,
00000110
00000000
00000010
00001000
00000100
00000000
00000010
00000100
00010000
00000000
00001000
00000000
00100000
00000000
00010000
00000000
,
01000000
00000000
00100000
00000000
10000000
01000000
10000000
01000000
00100000
00010000
01000000
00000000
00100000
00000000
00010000
00000000
,
00001000
00000000
00000100
00001000
00010000
00000000
00000010
00001000
00000100
00000000
00000010
00000000
00000001
00000000
00000100
00000000
,
00001000
00000000
00010000
00000000
00000010
00001000
00000010
00001000
00000001
00000010
00000100
00001000
00000010
00000000
00000100
00000000
,
00001000
00000000
00010000
00001000
00100000
00000000
01000000
00100000
00001000
00000000
00010000
00000000
00100000
00000000
10000000
00000000
,
01000000
00000000
00100000
00000000
00001000
00010000
00001000
00010000
00000010
00000100
00001000
00000000
00010000
00000000
00000010
00000000
,
00001000
00000000
00000001
00000010
00000100
00000000
00001000
00000010
00010000
00000000
00001000
00000000
00100000
00000000
00001000
00000000
,
00010000
00000000
01000000
00000000
10000000
00100000
10000000
00100000
01000000
00010000
00100000
01000000
00100000
00000000
00001000
00000000
,
00000010
00000000
00000100
00001000
00000001
00000000
00000100
00000010
00001000
00000000
00010000
00000000
01000000
00000000
00010000
00000000
,
00100000
00000000
01000000
00000000
00010000
00001000
00100000
00001000
00010000
00000100
00010000
00000000
00001000
00000000
00000010
00000000
,
00000001
00000000
00000100
00000010
00001000
00000000
00000100
00000010
00000001
00000000
00000100
00000000
00001000
00000000
00010000
00000000
,
01000000
00000000
10000000
00000000
00100000
01000000
00010000
01000000
00100000
10000000
01000000
00100000
00010000
00000000
01000000
00000000
,
00001000
00000000
00010000
00001000
00000010
00000000
00001000
00010000
00000010
00000000
00001000
00000000
00000100
00000000
00000001
00000000
,
00000100
00000000
00010000
00000000
00001000
00100000
00010000
01000000
00010000
10000000
01000000
00000000
00010000
00000000
00001000
00000000
,
00000010
00000000
00001000
00010000
00100000
00000000
00010000
00001000
00000010
00000000
00000100
00000000
00001000
00000000
00000001
00000000
,
00001001
00000000
00000000
00000000
00000001
00000100
00000001
00000100
00001000
00010000
00001000
00010000
00001000
00000000
00000000
00000000
,
00010000
00200000
20300000
32000000
03020000
00000000
00000000
00030000
,
01000000
10000000
00100000
00000000
01100000
00000000
01000000
00000000
00010000
00100000
01000000
00000000
01100000
00000000
00100000
00000000
,
00001000
00000020
00000032
00000203
00002300
00000000
00000000
00003000
,
00000100
00000001
00000010
00000000
00000110
00000000
00000100
00000000
00001000
00000010
00000100
00000000
00000110
00000000
00000010
00000000
,
00010000
00200000
20300000
32000000
03020000
00000000
00000000
00030000
,
01000000
10000000
00100000
00000000
01100000
00000000
01000000
00000000
00010000
00100000
01000000
00000000
01100000
00000000
00100000
00000000
,
00001000
00000020
00000032
00000203
00001300
00000200
00000302
00000023
,
00002030
00000000
00023000
00000000
01030000
00100000
01000000
10000000
00100000
01000000
00010000
00000000
00100000
00000000
00001000
00000000
,
00022000
00000000
00033000
00000000
,
00010000
00100000
00010000
00100000
10000000
01000000
10000000
01000000
,
00010000
00001000
00010000
00001000
00000010
00000100
00001000
00000100
,
00000010
00000001
00001000
00000001
00000100
00001000
00010000
00100000
,
20000000
00000000
00000000
00000000
32000000
00000000
00000000
03020000
00000000
00000000
00000000
00030000
00000000
00000000
00000000
00002000
,
00000000
00000000
00000000
00000000
00003000
00000000
00000000
00020000
00000000
00000000
00000000
00000000
00030000
00000000
00000000
00002000
,
00000000
00000000
00000000
00000000
00000000
00000000
00000000
00000000
00003000
00000000
00000000
00000000
00000000
00000000
00000000
00020000
00000000
00000000
00000000
00000000
00000000
00000000
00000000
00000000
00000000
00030000
00000000
00000000
00000000
00000000
00000000
00000000
,
00002000
00000000
00000000
00000000
00000000
00003000
00000000
00000000
00020000
00000000
00000000
00000000
00000000
00030000
00000000
00000000
,
00002020
00000000
00003030
00000000
00000100
00000001
00000010
00000100
00001000
00000000
00010100
00000000
00101000
00000000
01010000
00000000
,
01000000
00100000
10000000
00100000
01000000
00000000
00000000
00000000
01010000
00000000
00000000
00000000
00010000
00000000
00100000
00001000
00010000
00000000
00000100
00000000
00000100
00000000
00000100
00000000
00000002
00000000
00000203
00000000
00002300
00000000
00003000
00000000
,
00000010
00001000
00000000
00000000
00010000
01000000
00000000
00000000
00100000
00000000
00000000
00000000
01010000
00000000
00000000
00000000
00101000
00000000
00000000
00000000
00010100
00000000
00000000
00000000
00001010
00000000
00000000
00000000
00010100
00000000
00000000
00000000
,
00010000
00001000
00100000
00001000
00010000
00000000
00000000
00000000
02000000
00000000
00000000
00000000
13000000
00000000
00100000
00000000
10000000
00000000
01000000
00000000
00010000
00000000
00001000
00000000
00000100
00000000
00000001
00000000
00000020
00000000
00000000
00000000
,
00000030
00000000
00000000
00000000
00000001
00000100
00001000
00000000
00010000
00000000
00000000
00000000
00101000
00000000
00000000
00000000
01010000
00000000
00000000
00000000
00101000
00000000
00000000
00000000
00010100
00000000
00000000
00000000
00001010
00000000
00000000
00000000
,
00000010
00000100
00000001
00001000
00000010
00000000
00000000
00000000
00001001
00000000
00000000
00000000
00001000
00000000
00000001
00000000
00000010
00000000
00001000
00000000
00010000
00000000
01000000
00000000
10000000
00000000
00100000
00000000
01100000
00000000
00000000
00000000
,
01000000
10000000
00000000
00000000
01000000
00001000
00000000
00000000
00100000
00000000
00000000
00000000
01010000
00000000
00000000
00000000
00101000
00000000
00000000
00000000
00010100
00000000
00000000
00000000
00001010
00000000
00000000
00000000
00010100
00000000
00000000
00000000
,
00010000
00000000
00001000
00010000
00001000
00000000
00100000
00000000
00010000
00000000
01000000
00010000
01000000
00000000
00100000
00000000
10000000
00000000
01000000
00100000
00010000
00000000
01000000
00000000
00001000
00010000
00001000
00010000
00001000
00010000
00001000
00010000
,
00002000
00000000
00100000
00000000
00103000
00001000
00010000
00010100
,
00000000
00000000
00001100
00000000
00000000
00000000
00010010
00000000
00000000
00000000
00000010
00000100
00000001
00000000
00000010
00000000
,
00000200
00000000
00001000
00000000
00010300
00001000
01000000
01010000
,
00000000
00000000
00110000
00000000
00000000
00000000
01001000
00000000
00000000
00000000
01000000
00100000
10000000
00000000
01000000
00000000
,
00100000
00000000
00001000
00000000
00010000
00001000
00010000
00000000
00000100
00000000
00001000
00000000
00000010
00001000
00000010
00000000
,
00000100
00000000
00000001
00000000
00000010
00000100
00001000
00000000
00000010
00000000
00010000
00000000
00001000
00100000
00010000
00000000
,
10000000
01000000
10000000
01000000
00100000
00010000
00100000
00010000
01000000
00001000
00010000
00001000
00010000
00000010
00001000
00000100
,
00000010
00000000
00000001
00000000
00000100
00000000
00001000
00000000
01000000
00000000
00100000
00000000
10000000
01000000
00000000
00000000
,
00100000
00000000
01000000
10000000
00100000
00000000
01000000
00010000
00100000
00000000
01000000
00010000
00001000
00000000
00000100
00000000
,
00000010
00001000
00000010
00001000
00000001
00000010
00000100
00001000
00000010
00010000
00001000
00010000
00001000
00000000
00100000
00000000
,
00010000
00000000
01000000
00100000
10000000
00000000
01000000
00100000
00001000
00000000
00010000
00001000
01000000
00000000
00100000
00000000
,
10000000
01000000
00100000
00010000
01000000
00010000
01000000
00001000
00010000
00000010
00001000
00000010
00000100
00000000
00000001
00000000
,
00001000
00000000
00000100
00000010
00000001
00000000
00000100
00001000
00010000
00000000
00000010
00001000
00000100
00000000
00000010
00000000
,
00000001
00001000
00000010
00010000
00001000
00010000
00000100
00001000
00000010
00000100
00001000
00010000
00001000
00000000
01000000
00000000
,
00010000
00000000
00100000
01000000
10000000
00000000
01000000
00010000
00001000
00000000
00100000
00010000
10000000
00000000
01000000
00000000
,
10000000
00100000
10000000
00010000
00100000
00001000
00010000
00001000
01000000
00100000
00010000
00001000
00010000
00000000
00011000
00000000
,
00001000
00000000
00000010
00000100
00000010
00000000
00000001
00001000
00000010
00000000
00010000
00001000
00000100
00000000
00000010
00000000
,
00001000
00000001
00000010
00000001
00001000
00000100
00010000
00001000
00100000
00010000
10000000
01000000
00100000
00000000
00010000
00000000
,
01000000
00000000
00100000
10000000
01000000
00000000
00010000
00001000
00010000
00000000
00001000
00100000
00010000
00000000
01000000
00000000
,
00010000
00100000
01000000
10000000
00100000
10000000
00010000
01000000
00001000
00010000
00000010
00001000
00000001
00000000
00000100
00000000
,
00000110
00000000
00000010
00000100
00001000
00000000
00010000
00001000
00010000
00000000
00100000
10000000
00010000
00000000
00100000
00000000
,
01000000
10000000
00010000
10000000
01000000
00100000
00001000
00010000
00001000
00010000
00000010
00000100
00000001
00000000
00000010
00000000
,
00000100
00001000
00000100
00001000
00000010
00010000
00000010
00010000
00001000
00010000
00001000
00100000
00010000
00000000
01000000
00000000
,
00100000
10000000
00100000
10000000
01000000
00100000
00010000
01000000
00001000
00010000
00000010
00001000
00000100
00000000
00000010
00000000
,
00002002
00000000
00000000
00000000
,
00000000
00000000
00000000
00000000
,
00003003
00000000
00000000
00000000
;
