#TITLE:You Know I'll Go Get;
#ARTIST:DJ Haning & Rizky Ayuba;
#JACKET:You Know I'll Go Get-jacket.jpg;
#MUSIC:You Know I'll Go Get.ogg;
#OFFSET:0.221;
#SAMPLESTART:60.36;
#SAMPLELENGTH:15;
#BPMS:0=132;

//---------------dance-single - ----------------
#NOTES:
     dance-single:
     :
     Hard:
     12:
     :
0000
0000
0000
0000
,
2002
0000
0000
0000
0000
0000
0000
3003
,
0000
0000
0000
0000
,
2000
0000
0000
0000
0000
0000
0000
3000
,
0002
0000
0000
0000
0000
0000
0000
0003
,
0020
0000
0000
0000
0000
0000
0000
0030
,
0200
0000
0000
0000
0000
0000
0000
0300
,
2002
0000
0000
0000
0000
0000
0000
3003
,
0000
0000
0000
0000
,
1000
0001
1000
0010
,
0100
0001
0100
0000
1000
0100
1000
0000
,
0010
1000
0001
0010
,
0001
0010
0001
0000
1000
0010
1000
0000
,
0010
0100
0001
1000
,
0100
0010
0100
0000
0100
0010
0100
0000
,
1000
0001
0100
0010
,
1010
0101
0011
1100
,
1000
0100
0010
0001
0100
0010
0100
0001
,
1000
0100
0010
0100
0000
0100
0010
0100
,
1000
0001
0100
0010
0000
0010
0100
0001
,
1000
0100
1000
0001
0000
0001
1000
0000
,
1000
1100
0010
0011
,
0100
0110
1000
1010
,
0001
0010
0001
0000
1000
0100
1000
0000
,
0010
0001
0010
0000
1000
0010
1000
0000
,
1000
0100
1000
0001
0100
0001
0010
0001
,
1000
0010
1000
0010
0000
0010
1000
0010
,
0100
0001
0010
0001
0000
0001
0010
0100
,
1000
0100
1000
0001
0000
0001
0010
0001
,
0100
0010
0100
0010
1000
0001
0010
0000
,
0010
0001
1000
0100
0000
0100
1000
0010
,
0100
0001
0010
0000
0010
0001
0100
0010
,
1000
0000
1000
0100
0010
0001
0100
0000
,
0001
0001
1000
1000
,
1000
0100
0010
0001
1000
0100
0010
0001
,
1000
0100
0010
0001
1000
0100
0010
0001
,
1000
0100
0010
0001
1000
0100
0010
0001
,
1000
0100
0010
0001
1000
0100
0010
0001
,
0100
0010
1000
0001
0100
0010
1000
0001
,
0100
0010
1000
0001
0100
0010
1000
0001
,
0100
0010
1000
0001
0100
0010
1000
0001
,
0100
0010
1000
0001
0100
0010
1000
0001
,
1000
0001
1000
0001
1000
0001
1000
0001
,
1000
0100
0010
0100
0010
0100
0010
0100
,
0010
0100
1000
0001
1000
0001
1000
0001
,
0100
0010
0100
0010
0100
0010
0100
0010
,
1000
0010
1000
0010
1000
0010
1000
0010
,
1000
0001
0100
0001
0100
0001
0100
0001
,
1000
0100
1000
0100
1000
0100
1000
0100
,
1000
0001
0010
0001
0010
0001
0010
0001
,
1000
1000
0001
0001
,
1000
0000
1000
0100
0010
0000
0010
0001
,
0100
0000
0100
0000
0010
0100
0010
0100
,
0010
0000
0010
1000
0100
0000
0100
1000
,
0100
0000
0100
0010
0001
0000
0001
0100
,
0010
0000
0010
1000
0100
0000
0100
1000
,
0100
0000
0100
0010
0001
0000
0001
0010
,
0001
0000
0001
0100
0010
0000
0010
0100
,
0010
1000
0100
0010
0001
0100
0010
0000
,
1001
0110
1001
1001
,
1000
0100
0010
0001
1000
0100
0010
0001
,
0100
0010
1000
0001
0100
0010
1000
0001
,
0100
0001
1000
0100
0010
0100
1000
0001
,
0100
0010
1000
0001
0010
0001
0100
0010
,
1000
0100
0010
0001
0100
0010
1000
0100
,
0001
0100
1000
0010
0001
0010
1000
0010
,
1000
0010
0100
0010
1000
0001
0010
0100
,
1000
0001
0100
0010
1000
0100
0010
0001
,
0100
0010
1000
0010
0100
0010
0001
0010
,
0100
0010
1000
0100
0010
0100
0001
0100
,
0010
0100
1000
0010
0100
0010
0001
0010
,
0100
0010
1000
0100
0010
0001
0100
0010
,
1000
0100
0010
0001
0100
0001
0010
0001
,
0010
0100
0010
0001
0100
0010
1000
0100
,
0001
0100
0001
0100
0001
0100
0001
0010
,
0001
0100
0001
0010
0001
0100
0001
0010
,
0100
0001
1000
0001
,
2002
0000
0000
3003
;

//---------------dance-single - ----------------
#NOTES:
     dance-single:
     :
     Challenge:
     16:
     :
0000
0000
0000
0000
,
0000
0000
0000
0000
,
0000
0000
0000
0000
,
0000
0000
0000
0000
,
0000
0000
0000
0000
,
0000
0000
0000
0000
,
0000
0000
0000
0000
,
0000
0000
0000
0000
,
0000
0000
0000
0000
,
1000
1000
0001
0001
,
0100
0100
0010
0010
,
1000
0100
0010
0000
0010
0001
0100
0000
,
0100
0010
1000
0001
0100
0010
1000
0000
,
1000
0001
0010
0000
0010
0001
0010
0000
,
0010
0100
1000
0000
1000
0001
0100
0000
,
0100
0001
1000
0100
0010
0001
1000
0010
,
0100
1001
1100
0101
,
1000
0100
0010
0001
0100
0010
0100
0001
,
1000
0100
0010
0100
0000
0100
0010
0100
,
1000
0001
0100
0010
0000
0010
0100
0001
,
1000
0100
0001
0100
0000
0100
1000
0010
,
0001
0010
1000
0100
0000
0100
0010
0001
,
0100
0010
1000
0100
0000
0100
1000
0001
,
0100
0010
0100
0001
0000
0001
1000
0100
,
0010
0100
1000
0001
0000
0001
0001
0000
,
1000
0100
0010
0100
1000
0001
1000
0010
,
1000
0001
1000
1010
0000
1000
0001
0100
,
0010
0100
0001
0101
0000
0001
0010
0100
,
1000
0001
0010
0011
0000
0001
1000
0000
,
1000
0100
0010
0100
0000
0100
0010
0100
,
1000
0001
0100
0010
0000
0010
1000
0010
,
1000
0001
0100
0001
0000
0001
0100
0001
,
0010
0001
1000
0100
0000
0100
1000
0001
,
1000
1100
0001
0101
,
1000
0100
0010
0001
1000
0100
0010
0001
1000
0100
0010
0001
1000
0100
0010
0001
,
0100
0010
1000
0001
0100
0010
1000
0001
0100
0010
1000
0001
0100
0010
1000
0001
,
1000
0100
0010
0001
1000
0100
0010
0001
1000
0100
0010
0001
1000
0100
0010
0001
,
1000
0001
0100
0010
1000
0001
0100
0010
1000
0001
0100
0010
1000
0001
0100
0010
,
1000
0001
1000
0001
1000
0001
1000
0001
1000
0100
0010
0100
0010
0100
0010
0100
,
0001
1000
0001
1000
0001
1000
0001
1000
0001
0010
0001
1000
0001
0010
0001
1000
,
0001
0010
0001
1000
0010
1000
0001
1000
0010
1000
0001
1000
0010
1000
0001
1000
,
0010
1000
0001
0100
0010
1000
0001
0100
0010
1000
0001
0100
0010
1000
0001
0100
,
0001
1000
0100
0010
0001
1000
0100
0010
0001
0100
0010
1000
0001
0100
0010
1000
,
0001
1000
0100
1000
0100
1000
0100
1000
0001
0100
0001
0100
0001
0100
0001
0100
,
0001
1000
0010
1000
0010
1000
0010
1000
0001
0010
0001
0010
0001
0010
0001
0010
,
0001
1000
0001
1000
0001
1000
0001
1000
0001
0100
0010
0100
0010
0100
0010
0100
,
0001
1000
0100
0010
0001
0100
0010
1000
0001
1000
0100
0001
0100
1000
0010
0001
,
0010
1000
0100
0001
0100
1000
0010
0001
1000
0100
0010
0001
0010
0100
1000
0001
,
0100
0010
1000
0001
0100
0010
1000
0001
0100
0010
1000
0001
1000
0100
0010
0001
,
0100
0010
1000
0100
0001
0100
1000
0100
0001
0100
1000
0010
0001
0010
1000
0010
,
0001
1000
0001
1000
,
1000
0000
0000
1000
0100
0000
0000
0100
0010
0000
0000
0010
0001
0000
0000
0001
,
0100
0000
0000
0100
0010
0000
0000
0010
1000
0000
0000
1000
0001
0000
0000
0001
,
1000
0000
0000
1000
0100
0000
0000
0100
0010
0000
0000
0010
0001
0000
0000
0001
,
1000
0000
0000
1000
0001
0000
0000
0001
0100
0000
0000
0100
0010
0000
0000
0010
,
1000
0000
0000
1000
0100
0000
0000
0100
0001
0000
0000
0001
0010
0000
0000
0010
,
1000
0000
0000
1000
0100
0000
0000
0100
1000
0000
0000
1000
0010
0000
0000
0010
,
0001
0000
0000
0001
0100
0000
0000
0100
0001
0000
0000
0001
1000
0000
0000
1000
,
0100
0011
1100
1010
,
0202
0000
0000
0303
1000
0000
0001
0000
,
1000
0100
0010
0001
1000
0100
0010
0001
1000
0100
0010
0001
1000
0100
0010
0001
,
0100
0010
1000
0001
0100
0010
1000
0001
0100
0010
1000
0001
0100
0010
1000
0001
,
1000
0100
0010
0001
1000
0100
0010
0001
1000
0100
0010
0001
1000
0100
0010
0001
,
1000
0001
0100
0010
1000
0001
0100
0010
1000
0001
0100
0010
1000
0001
0100
0010
,
1000
0001
1000
0001
1000
0001
1000
0001
1000
0100
0010
0100
0010
0100
0010
0100
,
0001
1000
0001
1000
0001
1000
0001
1000
0001
0010
0001
1000
0001
0010
0001
1000
,
0001
0010
0001
1000
0010
1000
0001
1000
0010
1000
0001
1000
0010
1000
0001
1000
,
0010
1000
0001
0100
0010
1000
0001
0100
0010
1000
0001
0100
0010
1000
0001
0100
,
0001
1000
0100
0010
0001
1000
0100
0010
0001
0100
0010
1000
0001
0100
0010
1000
,
0001
1000
0100
1000
0100
1000
0100
1000
0001
0100
0001
0100
0001
0100
0001
0100
,
0001
1000
0010
1000
0010
1000
0010
1000
0001
0010
0001
0010
0001
0010
0001
0010
,
0001
1000
0001
1000
0001
1000
0001
1000
0001
0100
0010
0100
0010
0100
0010
0100
,
0001
1000
0100
0010
0001
0100
0010
1000
0001
1000
0100
0001
0100
1000
0010
0001
,
0010
1000
0100
0001
0100
1000
0010
0001
1000
0100
0010
0001
0010
0100
1000
0001
,
0100
0010
1000
0001
0100
0010
1000
0001
0100
0010
1000
0001
1000
0100
0010
0001
,
0100
0010
1000
0100
0001
0100
1000
0100
0001
0100
1000
0010
0001
0010
1000
0010
,
0001
1000
0100
0010
0001
0010
0100
1000
,
2002
0000
0000
0000
,
3003
0000
0000
0000
;
