#TITLE:Summertime (Arrange ver.);
#ARTIST:麦吉_Maggie x 盖盖Nyan;
#MUSIC:Summertime (Arrange ver.).mp3;
#OFFSET:1.077;
#SAMPLESTART:93.125;
#SAMPLELENGTH:15;
#BPMS:0=125;

//---------------dance-single - ----------------
#NOTES:
     dance-single:
     :
     Hard:
     12:
     :
0000
0000
0000
0000
,
0000
0000
0000
0000
,
0010
0000
0010
0001
0100
0000
0100
0010
,
1000
0000
1000
0100
0010
0000
0010
0001
,
0100
0000
0100
0010
1000
0100
0001
0100
,
1000
0010
0000
0010
0000
0010
1000
0010
,
0100
0000
0100
0001
0010
0000
0010
0100
,
1000
0000
1000
0001
0100
0000
0100
0010
,
0200
0000
0000
0000
0000
0000
0000
0300
,
0000
0001
1000
0001
1000
0010
0100
0010
,
0100
0000
0010
1000
0100
0000
0010
0001
,
0100
0000
0001
1000
0100
0000
1000
0001
,
0100
0000
0001
0010
1000
0100
0001
0010
,
1000
0100
0001
1000
0000
0010
1000
0010
,
0000
1000
0100
1000
0000
0001
0100
0001
,
0000
0001
0010
0001
0000
0010
0100
2002
,
0000
0000
0000
0000
0000
0000
0000
3003
,
0000
0000
1000
0000
1000
0000
1000
0000
1000
0000
1000
0000
1000
0001
1000
0000
,
1000
0100
0010
0001
0010
0100
1000
0002
,
0000
2003
0000
3010
1000
0001
0100
0010
,
1000
0000
0100
0010
0001
1000
0010
0200
,
0000
0320
0000
2030
0000
3100
0100
0010
,
0002
0000
1003
0010
0100
0001
1000
0020
,
0000
2030
0000
3002
0000
1003
0000
0010
,
0220
0000
0000
0000
0000
0330
1000
0001
,
0000
2002
0000
0000
0000
0000
3003
0000
,
1100
0000
0011
0000
0010
0000
0001
0010
,
0001
0100
0010
0200
0000
0000
0000
0000
,
0310
0000
0101
0000
1010
0000
0010
0100
,
0010
1000
0100
0001
0000
0000
1000
0100
,
0001
0100
1000
0010
0001
0010
1000
0010
,
1000
0100
0010
0001
0000
0000
0001
0010
,
0100
1000
2002
0000
0000
0000
0000
3003
,
0001
1000
0200
0020
0000
0000
0330
0000
,
0010
0010
0100
0100
,
1000
0100
1000
0100
0000
0000
0000
0010
,
0001
1000
0100
1000
0001
0000
1000
0010
,
1000
0010
1000
0100
0000
0000
0100
0100
,
0010
0100
1000
0001
0200
0000
0310
1000
,
0001
0100
0002
1003
0000
0000
1000
0001
,
0010
0100
0220
0000
0000
0000
0000
0000
,
0000
0330
1000
0001
,
1000
0000
1000
0001
0010
0000
0010
0000
,
0001
0000
0001
0010
0001
0100
0001
1000
,
0001
0000
0001
0000
1000
0000
1000
0100
,
0010
0001
0010
0001
0100
0010
1000
0000
,
1000
0001
0001
0000
1000
1000
1000
0000
,
0100
0010
0001
0100
0010
0000
1000
0001
,
2000
0000
0000
0000
0000
0000
0000
3001
,
0000
1000
0100
0010
0100
0010
0001
0100
,
0010
0000
0010
1000
0100
0000
0100
0010
,
0000
0001
0000
0100
0001
0010
0100
0010
,
0001
0100
0010
1000
0100
0010
0100
1000
,
0000
0001
0000
2002
0000
3003
1001
0000
,
0010
0100
1000
0010
0100
0001
0100
0020
,
0000
2030
0000
3200
0000
0320
0000
0032
,
1003
0000
0000
0000
1000
0001
0010
0001
,
0000
0001
0100
0001
0010
0100
0010
0001
,
0100
0000
0100
0001
0100
0010
1000
0100
,
0000
0100
0000
1000
0010
0100
0001
0100
,
0001
0010
0100
1000
0001
0000
0001
1000
,
0000
0010
0100
0000
0000
0100
0010
1000
,
0000
1000
0100
0001
0000
0001
0100
1000
,
0000
0010
0000
0001
0000
0010
0000
2000
,
0000
0000
0000
0000
0000
0000
0000
3001
,
0000
1000
0100
0010
0001
0010
0100
1000
,
0010
0000
0010
0100
0010
1000
0100
0010
,
0000
0010
0000
0001
0100
0010
0100
0010
,
1000
0000
1000
0001
0010
0100
0010
0001
,
0000
0011
0000
1100
0000
1000
0010
0100
,
0001
0000
0001
0100
0010
1000
0010
0100
,
0000
0001
0000
1000
0000
0100
0000
0010
,
0001
0000
1000
0000
0010
0100
0010
1000
,
0000
0002
0000
0000
0000
0000
2003
0000
,
0000
0000
0000
0000
0000
0000
0000
0000
0000
0000
0000
0000
0000
0000
0000
0000
0000
0000
0000
0000
0000
0000
0000
0000
0000
0000
0000
0000
0000
0000
0000
0000
0000
0000
0000
0000
0000
0000
0000
0000
0000
0000
0000
0000
0000
0000
0000
0000
0000
0000
0000
0000
0000
0000
0000
0000
0000
0000
0000
0000
0000
0000
0000
0000
0000
0000
0000
0000
3100
0000
0000
0000
0000
0000
0000
0000
0000
0000
0000
0000
0000
0000
0000
0000
0000
0000
0000
0000
0000
0000
0000
0000
0000
0000
0000
0000
0000
0000
0000
0000
0000
0000
0000
0000
0000
0000
0000
0000
0010
0000
0000
0000
0000
0000
0000
0000
0000
0000
0000
0000
0000
0000
0000
0000
0000
0000
0000
0000
0000
0000
0000
0000
0000
0000
0000
0000
0000
0000
0000
0001
0000
0000
0000
0000
0000
0000
0000
0000
0000
0000
0000
0000
0000
0000
0000
0000
0000
0000
0000
0000
0000
0000
0000
0000
0000
0000
0000
0000
0000
0000
0000
0000
0000
0000
1000
0000
0000
0000
0000
0000
0000
0000
0000
0000
0000
0000
0000
0000
0000
0000
0000
0000
,
0000
0000
0000
0000
0000
0000
0010
0000
0000
0000
0000
0000
0000
0000
0000
0000
0000
0000
0000
0000
0000
0000
0000
0000
0000
0000
1000
0000
0000
0000
0000
0000
0000
0000
0000
0000
0000
0000
0000
0000
0000
0000
0000
0000
0000
0000
0000
0000
0000
0000
0000
0000
0000
0000
0000
0000
0000
0000
0100
0000
0000
0000
0000
0000
0000
0000
0000
0000
0000
0000
0000
0000
0000
0000
0000
0000
0000
0000
0000
0000
0000
0000
0000
0000
0000
0000
0000
0000
0000
0000
0000
0000
0000
0000
0000
0000
0000
0000
0000
0000
0000
0000
0000
0000
0000
0010
0000
0000
0000
0000
0000
0000
0000
0000
0000
0000
0000
0000
0000
0000
0000
0000
0000
0000
0000
0000
0000
0000
0000
0000
0000
0000
0000
0000
0000
0000
0000
0000
0000
0000
0000
0000
0000
0000
0000
0000
0000
0000
0000
0000
0000
0000
0000
0000
0000
0000
0000
0000
0000
0000
0000
0000
0000
0000
0000
0000
0000
0000
0000
0000
0000
0000
0000
0000
0000
0000
0000
0000
0000
0000
0000
0000
0000
0000
0000
0000
0000
0000
0000
0000
0000
0000
,
0000
0000
0000
0000
0000
0000
0000
0000
0000
0000
0000
0000
0000
0000
0000
0000
0000
0000
0000
0000
0000
0001
0000
0000
0000
0000
0000
0000
0000
0000
0000
0000
0000
0000
0000
0000
0000
0000
0000
0000
0000
0000
0000
0000
0000
0000
0000
0000
0000
0000
0000
0000
0000
0000
0000
0000
0000
0000
0000
0000
0000
0000
0000
0000
0000
0001
0000
0000
0000
0000
0000
0000
0000
0000
0000
0000
0000
0000
0000
0000
0000
0000
0000
0000
0000
0000
0000
0000
0000
0000
0000
0000
0000
0000
0000
0000
0000
0000
0000
1000
0000
0000
0000
0000
0000
0000
0000
0000
0000
0000
0000
0000
0000
0000
0000
0000
0000
0000
0000
0000
0000
0000
0000
0000
0000
0000
0000
0000
0000
0000
0000
0100
0000
0000
0000
0000
0000
0000
0000
0000
0000
0000
0000
0000
0000
0000
0000
0000
0000
0000
0000
0000
0000
0000
0000
0000
0000
0001
0000
0000
0000
0000
0000
0000
0000
0000
0000
0000
0000
0000
0000
0000
0000
0000
0000
0000
0000
0000
0000
0000
0000
0000
0000
0000
0000
0000
0000
0000
0000
0000
0000
0000
,
0200
0000
0000
0000
0000
0000
0000
0300
;
