#TITLE:Party Legends (DJ Lambomclaren English x Japanese Mix);
#ARTIST:Mobile Legends Bang Bang presents 515 eParty;
#JACKET:Party Legends (DJ Lambomclaren English x Japanese Mix)-jacket.png;
#MUSIC:Party Legends (DJ Lambomclaren English x Japanese Mix).ogg;
#OFFSET:-0.066;
#SAMPLESTART:49.85;
#SAMPLELENGTH:15;
#BPMS:0=106;

//---------------dance-single - ----------------
#NOTES:
     dance-single:
     :
     Hard:
     12:
     :
0000
0000
0000
0000
,
0000
0000
0000
0000
,
0001
1000
0000
0100
0000
0100
0010
0001
0010
0000
0001
0100
0010
0000
0000
1000
,
0000
0000
1000
0000
0010
0000
0100
0000
0001
0000
0010
0000
0100
1000
0100
0000
,
1000
1000
0010
0100
0001
0010
0100
0010
,
0000
0000
0010
0000
0100
0000
0001
0000
1000
0000
0010
0000
0100
0000
0000
0011
,
0000
0000
1000
0000
0100
0000
0010
0000
0001
0010
0001
0000
0010
0000
1100
0000
,
0000
0000
1000
0010
0100
0000
0001
0000
1000
0000
0010
0000
0100
0000
1001
0000
,
0000
0000
1000
0100
1000
0000
0100
0000
0010
0100
0010
0000
0001
0000
1001
0000
,
0000
0000
0100
0010
1000
0000
0100
0000
0010
0000
0001
0000
0100
0000
0010
0000
,
1000
0000
1000
0100
0010
0000
0001
0000
0001
0010
0100
0000
1000
0000
0000
0000
,
0000
0010
0100
0010
1000
0001
1001
0000
,
0000
0000
1000
0100
0010
0000
0001
0000
0001
0010
0100
0000
1000
0000
0000
0000
,
0010
0100
0001
1000
0010
0100
0010
1000
,
0020
0000
1030
0100
0010
0000
0010
0001
,
0010
0100
1000
0010
0200
0001
0001
0301
,
1000
0000
0100
0010
0001
0000
0001
0010
,
0100
1000
0010
0100
2002
0000
0000
3003
,
0001
0000
0000
0001
0010
0000
0100
0000
1000
0000
0000
1000
0100
0000
0010
0000
,
0001
0000
0000
0001
0010
0000
0010
0000
0100
0000
0000
0100
0010
0000
1000
0000
,
0100
0000
0000
0100
0010
0000
0001
0000
0100
0000
0000
0100
0010
0000
1000
0000
,
0100
0000
0000
0100
0010
0000
0001
0000
0100
0000
0010
0000
1000
0000
0100
0000
,
0010
0000
0000
0010
0001
0000
0100
0000
0010
0000
0000
0010
1000
0000
0100
0000
,
0100
0000
0000
0100
0010
0000
0001
0000
0100
0000
0000
0100
0010
0000
1000
0000
,
0100
0000
0000
0100
0010
0000
0001
0000
0100
0000
0000
0100
0010
0000
1000
0000
,
0100
0000
0000
0100
0010
0000
0001
0000
0100
0000
0000
0100
0010
0000
1000
0000
,
0100
0010
0001
1000
0001
0000
2002
0000
,
3003
0000
1000
0100
0010
0000
0100
0010
0000
0001
0000
0000
0001
0000
0100
0020
,
0000
0000
0000
0030
,
0000
0000
1000
0000
0100
0000
0100
0010
0000
0100
0000
0000
1000
0000
0010
0100
,
0002
0000
0000
0003
,
0000
0000
1000
0000
0100
0000
1000
0010
0000
0010
0000
0000
0100
0000
0001
0010
,
0000
0000
0010
0100
0000
1000
0001
1001
,
0000
0000
1000
0000
0100
0000
0100
0010
0000
0001
0000
0000
1000
0000
0010
0100
,
0010
0000
1000
0001
0000
1001
1000
0100
,
0000
0000
0100
0000
0010
0000
0001
0100
0000
0000
0100
0000
0001
0000
1000
0000
,
0000
0000
0000
0000
1000
0000
0100
0010
0000
0000
0010
0000
0100
0000
1000
0000
,
0000
0000
0000
0000
1000
0000
0001
1000
0000
0000
0001
0000
0100
0000
0010
0000
,
1000
0000
1000
0001
0000
0001
1000
0010
,
0100
0000
0000
0000
0001
0000
0010
0001
0000
0000
0010
0000
0100
0000
1000
0000
,
0000
0000
0000
0000
1000
0100
0000
0010
0000
0000
0001
0000
0010
0000
0100
0000
,
1000
0000
0010
0000
1000
0020
0000
0000
0130
0000
0010
0000
0100
0000
0001
0000
,
0100
0010
1000
0001
0100
0010
1000
0100
,
0001
0000
0000
0001
0100
0000
0010
0000
1000
0000
0000
1000
0010
0000
0100
0000
,
0010
0000
0000
0010
0001
0000
0100
0000
0010
0000
0000
0010
1000
0000
0100
0000
,
0010
0000
0000
0010
0001
0000
0100
0000
0010
0000
0000
0010
1000
0000
0100
0000
,
0010
0000
0000
0010
0001
0000
0100
0000
0010
0000
1000
0000
0100
0000
0010
0000
,
0001
0000
0000
0001
0010
0000
0100
0000
1000
0000
0000
1000
0010
0000
0100
0000
,
0001
0000
0000
0001
0010
0000
0100
0000
1000
0000
0000
1000
0010
0000
0100
0000
,
0001
0000
0000
0001
0010
0000
0100
0000
1000
0000
0000
1000
0010
0000
0100
0000
,
0001
0000
0000
0001
0010
0000
0100
0000
1000
0000
0000
1000
0000
0000
0010
0000
,
0100
0000
0000
0001
0010
0000
0100
0000
1000
0000
0010
0000
0100
0000
0001
0000
,
0010
0000
0000
0010
0100
0000
1000
0000
0010
0000
0100
0000
0001
0000
0010
0000
,
0100
0000
0000
0100
1000
0000
0010
0000
0100
0000
0001
0000
1000
0000
0100
0000
,
0010
0000
0000
0010
0001
0000
0010
0000
0100
0000
1000
0000
0001
0000
0100
0000
,
0010
1000
0100
0010
0001
1000
0100
0000
,
1000
0010
0100
0001
0010
0100
1000
0001
,
2000
0000
3002
0000
1003
0010
0100
0000
,
0100
0001
1000
0100
0010
0001
1000
2002
,
0000
0000
0000
0000
,
0000
3003
0000
0000
;
