#TITLE:Boogie Back;
#ARTIST:井上実優;
#ARTISTTRANSLIT:Miyu Inoue;
#BACKGROUND:Boogie Back Jacket.jpg;
#MUSIC:Boogie Back.ogg;
#OFFSET:1.238;
#SAMPLESTART:42;
#SAMPLELENGTH:15;
#BPMS:0=128;
#BGCHANGES:269=Boogie Back Jacket.jpg=1=0=0=1;

//---------------dance-single - ----------------
#NOTES:
     dance-single:
     :
     Hard:
     11:
     :
0000
0000
0000
0000
,
0000
0000
0000
0000
,
0000
0000
0000
0000
,
1000
0001
1000
0001
1000
0001
1000
0001
,
1000
0100
1000
0100
1000
0100
1000
0100
,
1000
0001
0100
0001
0100
0001
0100
0001
,
0100
0010
0100
0010
0100
0010
0100
0010
,
0100
1000
0100
1000
0100
1000
0100
1000
,
0100
0001
0100
0001
0100
0001
0100
0001
,
1000
0010
1000
0010
1000
0010
1000
0010
,
1000
0001
1000
0100
1000
0010
1000
0001
,
1000
0000
0010
1000
,
0001
0100
0010
0100
,
0001
1000
0100
0010
,
0100
1000
0001
0100
,
0010
0000
0010
0100
,
0001
1000
0001
1000
,
0100
0020
0130
0002
,
1003
2000
3001
0000
,
0000
0000
0000
0000
1000
0100
1000
0000
,
0001
0100
0001
0000
1000
0010
1000
0000
,
0001
0010
0001
0000
1000
0001
1000
0000
,
0100
0010
0100
0000
1100
0000
0101
0000
,
1010
0000
0011
0000
0010
1000
0010
1000
,
0010
0001
0010
0001
0010
0001
0010
0001
,
0010
1000
0100
0010
0001
1000
0100
0010
,
0001
0100
0010
1000
0001
0100
0010
1000
,
0001
0100
0001
1000
0000
0000
0001
1000
,
0100
1000
0001
0100
0001
1000
0100
1000
,
0001
0100
0010
1000
0100
0000
0010
0001
,
0100
0000
1000
0001
0100
0000
0001
1000
,
0100
0000
1001
0000
0000
0010
1000
0100
,
0000
0000
0000
0000
0000
0010
0001
0100
,
0000
1000
1000
0001
,
0001
0010
0010
0100
,
0100
0000
0110
0000
0000
0001
0100
1000
,
0000
0000
0000
0000
0000
1000
0100
0001
,
0000
0020
0032
2003
,
3200
0320
0032
0203
,
0310
0000
1000
0001
,
0100
0010
0100
0001
,
1000
0100
0010
0001
,
0100
1000
0100
0001
,
1000
0100
0001
0100
,
1000
0001
0010
0100
,
0010
0100
0001
1000
,
0100
0010
0001
0100
,
0010
0000
0110
0000
0001
0100
0001
0000
,
0010
1000
0010
0000
0001
0010
0001
0000
,
1000
0001
1000
0000
0100
0010
0100
0000
,
1000
0001
1000
0000
0110
0000
0110
0000
,
1001
0000
1001
0000
0010
1000
0010
0100
,
0010
0001
0010
0100
0010
1000
0010
0100
,
0010
0001
0010
1000
0100
0010
0100
0001
,
0100
0010
0100
1000
0100
0010
0100
0001
,
0100
1000
0001
0100
0010
1000
0001
0100
,
0010
1000
0001
0100
0010
1000
0001
0100
,
0010
1000
0100
0010
1001
0100
0010
0001
,
1000
0100
0010
0001
2000
0000
3200
0000
,
0320
0000
0032
0000
0003
1000
0001
0100
,
0000
0001
1000
0100
0000
0010
0001
1000
,
0000
1100
0101
1010
,
0011
0110
1001
1001
,
1001
0000
0110
0000
0000
1000
0001
0100
,
0000
0001
1000
0100
0000
0010
0001
1000
,
0000
1100
0101
1010
,
0011
0110
1001
1001
,
1001
0110
0000
0000
;
