#TITLE:Boogie Back (Extended Mix);
#ARTIST:J-Mi & Midi-D presents Megami33;
#JACKET:Boogie Back (Extended Mix)-jacket.jpg;
#MUSIC:Boogie Back (Extended Mix).ogg;
#OFFSET:0.647;
#SAMPLESTART:107.341;
#SAMPLELENGTH:15;
#BPMS:0=128;
#BGCHANGES:2=Boogie Back (Extended Mix).mp4=1=0=0=1=====;

//---------------dance-single - ----------------
#NOTES:
     dance-single:
     :
     Hard:
     11:
     :
0000
0000
0000
0000
,
0010
1000
0100
0001
0010
0000
0010
0000
,
0010
0001
0100
1000
0010
0000
0010
0000
,
0010
1000
0100
0001
0010
0000
0010
0000
,
0010
0001
0100
1000
0010
0000
0010
0000
,
0010
1000
0100
0001
0010
0000
0010
0000
,
0010
0001
0100
1000
0010
0000
0010
0000
,
0010
1000
0100
0001
0010
0000
0010
0000
,
0010
0001
0100
1000
0010
1000
1001
0000
,
0001
1000
0001
1000
0001
1000
0001
1000
,
0001
0010
0001
0010
0001
0010
0001
0010
,
0001
1000
0010
1000
0010
1000
0010
1000
,
0010
0100
0010
0100
0010
0100
0010
0100
,
0010
0001
0010
0001
0010
0001
0010
0001
,
0010
1000
0010
1000
0010
1000
0010
1000
,
0001
0100
0001
0100
0001
0100
0001
0100
,
0001
1000
0001
0010
0001
0100
0001
1000
,
0001
0000
0100
0001
,
1000
0010
0100
0010
,
1000
0001
0010
0100
,
0010
0001
1000
0010
,
0100
0000
0100
0010
,
1000
0001
1000
0001
,
0010
0200
0310
2000
,
3001
0002
1003
0000
,
0000
0000
0000
0000
0001
0010
0001
0000
,
1000
0010
1000
0000
0001
0100
0001
0000
,
1000
0100
1000
0000
0001
1000
0001
0000
,
0010
0100
0010
0000
0011
0000
1010
0000
,
0101
0000
1100
0000
0100
0001
0100
0001
,
0100
1000
0100
1000
0100
1000
0100
1000
,
0100
0001
0010
0100
1000
0001
0010
0100
,
1000
0010
0100
0001
1000
0010
0100
0001
,
1000
0010
1000
0001
0000
0000
1000
0001
,
0010
0001
1000
0010
1000
0001
0010
0001
,
1000
0010
0100
0001
0010
0000
0100
1000
,
0010
0000
0001
1000
0010
0000
1000
0001
,
0010
0000
1001
0000
0000
0100
0001
0010
,
0000
0000
0000
0000
0000
0100
1000
0010
,
0000
0001
0001
1000
,
1000
0100
0100
0010
,
0010
0000
0110
0000
0000
1000
0010
0001
,
0000
0000
0000
0000
0000
0001
0010
1000
,
0000
0200
2300
3002
,
0023
0230
2300
3020
,
0130
0000
0001
1000
,
0010
0100
0010
1000
,
0001
0010
0100
1000
,
0010
0001
0010
1000
,
0001
0010
1000
0010
,
0001
1000
0100
0010
,
0100
0010
1000
0001
,
0010
0100
1000
0010
,
0100
0000
0110
0000
1000
0010
1000
0000
,
0100
0001
0100
0000
1000
0100
1000
0000
,
0001
1000
0001
0000
0010
0100
0010
0000
,
0001
1000
0001
0000
0110
0000
0110
0000
,
1001
0000
1001
0000
0100
0001
0100
0010
,
0100
1000
0100
0010
0100
0001
0100
0010
,
0100
1000
0100
0001
0010
0100
0010
1000
,
0010
0100
0010
0001
0010
0100
0010
1000
,
0010
0001
1000
0010
0100
0001
1000
0010
,
0100
0001
1000
0010
0100
0001
1000
0010
,
0100
0001
0010
0100
1001
0010
0100
1000
,
0001
0010
0100
1000
0002
0000
0023
0000
,
0230
0000
2300
0000
3000
0001
1000
0010
,
0000
1000
0001
0010
0000
0100
1000
0001
,
0000
0011
1010
0101
,
1100
0110
1001
1001
,
1001
0000
0110
0000
0000
0001
1000
0010
,
0000
1000
0001
0010
0000
0100
1000
0001
,
0000
0011
1010
0101
,
1100
0110
1001
1001
,
1001
0000
0110
0000
1000
0100
0001
0010
,
1000
0000
1000
0000
1000
0010
0001
0100
,
1000
0000
1000
0000
1000
0010
0001
0100
,
1000
0000
1000
0000
1000
0010
0001
0100
,
1000
1000
1100
0000
;
