#TITLE:Bagaikan Langit (DJ Terbaru and Karin Reggae Remix);
#ARTIST:Potret;
#MUSIC:Bagaikan Langit (Reggae Remix).ogg;
#OFFSET:2.96;
#SAMPLESTART:14.815;
#SAMPLELENGTH:20;
#BPMS:0=77.5;
#STOPS:40=0.194,40.25=0.194,40.5=0.194,40.75=0.194,41=0.194,56.75=0.194,57=0.194,57.75=0.194;

//---------------dance-single - ----------------
#NOTES:
     dance-single:
     :
     Hard:
     12:
     :
0000
0000
0000
0000
,
0000
0000
0000
0000
,
0000
0000
0000
0000
,
0000
0000
0000
0000
,
0000
0000
0000
0000
,
0110
0000
0000
0000
1001
0000
0000
0000
0110
0000
1001
0000
1000
0100
1000
0100
,
1100
0000
0000
0000
0001
0100
0001
0100
0101
0000
0000
0000
0010
1000
0010
1000
,
1010
0000
0000
0000
0001
0010
0001
0010
0011
0000
0000
0000
1000
0100
0010
0001
,
0011
0000
0000
0000
0001
0010
0100
1000
1100
0000
0000
0000
0001
1000
0010
0100
,
0101
0000
0000
0000
0001
1000
0100
0010
0022
0000
0000
0000
0000
0000
0033
0000
,
1100
0101
0110
1001
1001
1000
0001
1000
0100
0010
0001
0011
0000
0000
0000
0001
,
0010
0100
1000
1100
0000
0000
0000
0010
1000
0001
0100
0202
0000
0000
0303
0001
,
0100
0010
1000
1010
0000
0000
0000
1000
0001
1000
0100
0011
0000
0000
0000
1000
,
0100
1000
0001
0101
0000
0000
0010
0100
0010
0100
0010
0220
0000
0000
0000
0000
,
0330
0000
0000
1100
0101
0000
0110
1001
2002
0000
0000
0000
3003
0000
0001
1000
,
0200
0000
0000
0000
0310
0001
1000
0100
0020
0000
0000
0000
0031
1000
0001
0100
,
0020
0000
0000
0000
0000
0000
1030
0100
0002
0000
0000
0000
0103
1000
0001
1000
,
0020
0000
0000
0000
0130
0010
0100
0010
2000
0000
0000
3100
0010
0100
0010
0001
,
0200
0000
0000
0000
0000
0000
0310
1000
2020
0000
3030
0000
0022
0000
0033
0000
,
1100
0000
0101
0000
1001
0000
1000
0001
1000
0000
0000
1000
0100
0010
0001
0010
,
0100
0000
0000
0000
1000
0010
0100
0001
0010
0000
0000
0010
0001
0010
0100
1000
,
0010
0000
0000
0100
0010
1000
0100
0001
0100
0000
0000
1000
0010
0001
0010
0100
,
0010
0000
0000
0010
1000
0010
0010
0100
0010
0000
0011
0000
1100
0000
1010
0000
,
0101
0000
0010
0100
1000
0000
1000
0001
0100
0000
0000
0100
0010
1000
0001
0010
,
0001
0000
0000
0001
0010
0100
1000
0010
0100
0000
0000
0100
0010
0100
0001
1000
,
0001
0000
0000
1000
0100
0010
0100
0010
0001
0000
0000
0001
0010
0100
1000
0010
,
0100
0000
0000
0100
0010
1000
0010
0100
0010
0001
0010
0100
0010
1000
0100
0010
,
0100
0001
0100
0010
0100
1000
0001
0100
0010
0000
1000
0000
0001
0000
1000
0000
,
0100
0010
0001
0100
1010
1000
0011
0100
,
0110
0000
1000
0000
1001
0000
1000
0000
1000
0001
1000
0001
1000
0001
1000
0001
,
1000
0001
1000
0001
1000
0001
1000
0001
1000
0001
1000
0100
0010
0001
0100
0010
,
1000
0100
0010
0001
0100
0010
1000
0001
1000
0100
0000
0100
1000
0001
0100
0010
,
0100
0001
0001
0010
0100
0000
0000
0100
1000
0010
0100
0001
0100
0001
0010
0100
,
0010
0100
1000
0001
0010
0001
0100
0010
0100
0010
0000
0010
1000
0100
0010
0001
,
0010
0100
1000
0100
0010
0001
0100
0010
0010
0100
0010
1000
0100
0010
0100
0100
,
0010
0001
0100
0010
0100
0001
1000
0100
0010
0010
0000
0010
0100
0010
0001
1000
,
0010
0100
0001
1000
0100
0000
0000
0100
0010
0001
0000
0001
0010
0100
1000
0010
,
0100
0010
1000
0001
0100
0001
0010
0000
0100
0010
0000
0100
0010
0001
0100
0010
,
1000
0100
0010
0001
0100
0010
1000
0001
0010
0100
0010
1000
0010
0100
0010
0001
,
0100
0010
1000
0010
0100
0010
0001
0010
0100
0010
1000
0100
0010
0001
1000
0010
,
0100
0001
0010
0100
1000
0000
0001
0000
1001
0000
0000
1000
0100
0010
0001
0010
,
0100
0000
0000
0000
1000
0010
0100
0001
0010
0000
0000
0000
0010
0001
0010
0100
,
1000
0000
0000
0000
1000
0010
0100
0001
0010
0000
0000
0000
0010
0001
0010
0100
,
1000
0000
0000
0000
1000
0100
0010
0001
0100
0000
0101
0000
1000
0000
1100
0000
,
0010
1010
0001
0011
1001
0000
0110
0000
,
1001
0000
0100
0010
0220
0000
0000
0000
,
0330
0000
0000
0000
;
