#TITLE:Baam;
#ARTIST:Momoland;
#MUSIC:Baam.ogg;
#OFFSET:1.622;
#SAMPLESTART:59.96;
#SAMPLELENGTH:15;
#LASTBEATHINT:1.253;
#BPMS:0=127;
#BGCHANGES:3=Baam.avi=1=0=0=0=====;

//---------------dance-single - ----------------
#NOTES:
     dance-single:
     :
     Hard:
     12:
     :
0000
0000
0000
0000
,
0000
0000
0000
0000
,
0000
0000
0000
0000
,
0000
0000
0000
0000
,
0000
0000
0000
0000
,
0002
0000
0000
1003
0001
1000
0000
0000
,
2000
0000
0000
3001
1000
0001
0000
0000
,
0020
0000
0000
0130
0010
0100
0000
0000
,
1000
1100
0001
0101
,
1000
0000
0100
0000
1000
0100
1000
0000
,
0001
0100
0001
0010
0100
1000
0100
1000
,
0001
0001
1000
1000
,
0001
1000
0000
0000
1000
0001
0000
0000
,
1000
0000
0001
0000
0010
0100
1000
0000
,
1000
0100
0010
0001
0100
0010
0100
0001
,
1000
1000
0001
0001
,
1000
0001
0000
0000
0001
1000
0001
1000
,
0000
0000
0010
1000
0100
0001
0100
1000
,
0000
0001
0100
0010
0000
1000
0100
1000
,
0000
0001
0100
0010
0000
0100
0010
1000
,
0001
1000
0001
1000
0001
1000
0001
1000
,
0000
0000
0001
1000
0000
1000
0001
0100
,
0000
0010
0000
0000
0000
1000
0100
0010
,
0000
0010
0100
1000
0001
0000
0001
0100
,
0000
0100
0010
0100
0001
0000
1000
0000
,
1000
0001
1000
0001
1000
0100
0010
0100
,
0010
0100
1000
0001
0100
0001
0001
0000
,
0001
1000
0100
1000
1000
0100
1000
1000
,
0001
0000
0001
1000
0001
0100
0010
0000
,
0010
0100
0001
1000
0100
0010
0000
0000
,
0010
0100
1000
0001
0100
0010
0000
0000
,
1000
0100
0001
0100
1000
0010
0100
0010
,
2000
0000
0000
0000
3010
1000
0100
1000
,
0100
0000
1000
0001
1000
0001
0100
0001
,
1000
0100
0010
0010
0010
0000
1000
0010
,
1000
0100
0001
0100
1000
0010
0100
0010
,
0000
0010
0100
0001
0010
0100
1000
0100
,
0010
0001
0100
0001
0001
1000
0100
0010
,
0100
1000
0001
1000
0001
0001
0000
0000
,
1000
0100
0010
0100
1000
0001
0000
0001
,
0000
1000
0000
1000
0000
0001
0000
1001
,
1000
0100
0001
0100
1000
0010
0001
0010
,
1000
0100
0001
0100
1000
0010
0001
0010
,
1000
0100
0001
0100
1000
0010
1000
1000
,
0000
1001
0000
1001
,
0000
0000
0000
0000
0000
0000
1000
0100
0010
0100
1000
0001
,
0000
0000
0000
0000
0000
0000
0001
0100
0010
0100
0001
1000
,
0000
0000
0000
0000
0000
0000
1000
0100
0010
0001
0100
0010
,
1000
2002
0000
0000
3003
1000
0100
0010
,
0000
0010
0100
1000
0000
1000
0001
0100
,
0000
0100
0001
0010
0000
0010
0001
0100
,
0000
0100
0010
1000
0000
1000
0100
0010
,
0100
0010
0100
1000
0001
0100
0001
1000
,
0000
1000
0100
0010
0000
0010
0100
1000
,
0000
0001
0000
0000
0000
0001
0100
0010
,
0000
0010
0100
0010
1000
0000
1000
0100
,
0000
0100
0010
0100
1000
0000
1001
0000
,
1000
0100
0010
0100
1000
0001
0100
0010
,
0100
0001
0010
0001
0100
0100
0100
0000
,
1000
0100
0010
0100
1000
0001
1000
0001
,
1000
0000
0000
1000
0000
0100
0100
0000
,
0010
0001
0100
0010
0100
0001
0000
0000
,
0001
0100
0001
1000
0100
1000
0000
0000
,
1000
0100
0010
0100
1000
0001
0100
0001
,
2002
0000
0000
0000
3000
1003
0001
1000
,
0100
0000
1000
0100
0100
0010
0100
0010
,
0001
0100
0010
0010
0010
0000
1000
0100
,
0010
0100
1000
0001
0100
0001
0000
1001
,
0000
0100
0000
1100
0000
1000
0000
0001
,
1000
0001
0010
0100
1000
0001
0001
0001
,
0100
0010
1000
0100
0010
0010
0000
0000
,
0010
0100
1000
0001
0010
0001
0000
0011
,
0000
0010
0000
1010
0000
0001
0000
1001
,
1000
0100
0010
0100
1000
0001
0001
0100
,
0010
0100
0001
1000
0100
1000
1000
0001
,
0100
0010
0100
0001
0001
1000
0100
0010
,
0000
1001
0000
2002
,
0000
0000
3003
0000
;
