#TITLE:APT.;
#SUBTITLE:;
#ARTIST:ROSÉ & Bruno Mars;
#TITLETRANSLIT:;
#SUBTITLETRANSLIT:;
#ARTISTTRANSLIT:;
#GENRE:;
#CREDIT:;
#MUSIC:APT.ogg;
#BANNER:;
#BACKGROUND:;
#CDTITLE:;
#SAMPLESTART:19.586;
#SAMPLELENGTH:18.000;
#SELECTABLE:YES;
#OFFSET:-0.343;
#BPMS:0.000=149.000;
#STOPS:;
#STAGE:24;
#BGCHANGES:-1.900=APT.mp4=1.000=0=0=1;
#FGCHANGES:;

//--------------- dance-single - ----------------
#NOTES:
     dance-single:
     :
     Beginner:
     3:
     0,0,0,0,0:
0000
0000
0000
0000
,
0000
0000
0000
0000
,
0000
0000
0000
0000
,
0000
0000
0000
0000
,
0010
0000
0010
0000
,
0100
0000
0100
0000
,
0001
0000
0001
0000
,
1000
0000
1000
0000
,
0010
0000
0000
0000
,
0010
0000
0000
0000
,
0100
0000
0000
0000
,
0100
0000
0000
0000
,
0001
0000
0000
0001
,
0001
0000
0000
0000
,
1000
0000
0000
1000
,
1000
0000
0000
0100
,
0010
0000
0000
0010
,
0100
0000
0000
0100
,
0010
0000
0000
0000
,
1001
0000
0000
0000
,
1000
0000
0000
0000
,
0001
0000
0000
1000
,
1000
0000
0000
0001
,
0001
0000
0000
0000
,
0010
0000
0000
0000
,
0100
0000
0000
0000
,
0010
0000
0000
0000
,
1001
0000
0000
0000
,
0001
0000
0000
0000
,
1000
0000
0001
0010
,
0100
0000
0000
0000
,
1000
0100
0010
0000
,
0001
0000
0000
0000
,
1000
0000
0000
0000
,
0010
0000
0100
0000
,
0001
0000
0000
0000
,
0001
0000
0000
0000
,
0001
0001
0000
0000
,
1000
0000
0000
0000
,
1000
1000
0000
0000
,
0010
0000
0000
0000
,
0100
0100
0000
0000
,
1001
0000
0000
0000
,
0110
0000
0000
0000
,
1001
0000
0000
0000
,
0110
0000
0000
0000
,
0110
0000
0000
0000
,
1001
0000
0000
0000
,
1000
0000
0000
0000
,
0001
0000
0000
0000
,
1001
0000
0000
0000
,
0110
0000
0000
0000
,
0000
0000
0000
0000
,
0000
0000
0000
0000
,
0000
0000
0000
0000
,
0000
0000
0000
0000
,
1000
0000
0000
0100
,
1000
0000
0000
0000
,
0001
0000
0000
0000
,
0001
0000
0000
0000
,
0001
0000
0000
0100
,
0001
0000
0000
0000
,
1000
0000
0000
0000
,
0001
0000
0000
0000
,
1001
0000
0000
0000
,
0110
0000
0000
0000
,
1001
0000
0000
0000
,
0110
0000
0000
0000
,
1000
0000
1000
0000
,
0001
0000
0001
0000
,
0010
0000
0000
0000
,
0100
0000
0000
0000
,
0100
0000
0000
0000
,
0100
0000
0000
0000
,
0010
0000
0000
0000
,
0010
0000
0000
0000
,
1000
0000
0000
0000
,
0001
0000
0000
0000
,
1000
0000
0000
0000
,
0001
0000
0000
0000
,
1000
0000
0000
1000
,
1000
0000
0000
0000
,
0001
0000
0000
0001
,
0001
0000
0000
0000
,
0010
0000
0000
0010
,
0010
0000
0000
0000
,
0100
0000
0000
0000
,
0100
0100
0000
0000
;

//--------------- dance-single - ----------------
#NOTES:
     dance-single:
     :
     Easy:
     7:
     0,0,0,0,0:
0000
0000
0000
0000
,
0000
0000
0000
0000
,
0000
0000
0000
0000
,
1001
0000
0000
0000
,
1100
0000
0000
0000
,
0101
0000
0000
0000
,
0010
0000
0100
0000
,
0110
0000
0000
0000
,
0101
0000
0000
0000
,
1100
0000
0000
0000
,
1001
0000
0000
0000
,
0000
0000
0000
0000
,
1000
1000
1000
1000
,
0001
0001
0001
0001
,
0010
0010
0010
0010
,
0100
0100
0100
0100
,
1000
1000
1000
1000
,
0001
0001
0001
0001
,
0010
0100
1000
1000
,
0100
0010
0001
0001
,
1000
0000
0000
0000
,
0001
0000
0000
0000
,
1001
0000
0000
0000
,
0110
0000
1001
1001
,
1000
0000
0000
0000
,
1000
0000
0000
0000
,
0001
0000
0000
0000
,
0001
0000
1001
1001
,
1000
1000
1000
1000
,
0001
0001
0001
0001
,
0010
0000
0000
0100
,
0010
0000
0000
0000
,
1000
0100
0010
0001
,
0100
1000
1000
1000
,
0001
0000
0000
0001
,
0001
0001
0100
0010
,
1000
0100
0010
0001
,
0001
0100
1000
0001
,
0001
0100
0010
1000
,
0001
1000
0001
1000
,
1000
1000
1000
1000
,
0001
0001
0001
0001
,
0010
0010
0010
0010
,
0100
0100
0100
0100
,
1100
0000
0000
0000
,
0101
0000
0000
0000
,
1010
0000
0000
0000
,
0011
0000
0000
0000
,
0110
0000
0000
0000
,
1001
0000
0000
0000
,
0110
0000
0000
0000
,
1001
0000
0000
0000
,
1000
0000
0000
0000
,
0000
0000
0000
0000
,
0001
0000
0000
0000
,
0010
0000
0100
0100
,
0100
0000
0000
0010
,
0010
0000
0000
0000
,
0100
0000
0000
0000
,
0010
0000
0000
0000
,
1000
1000
1000
0000
,
0001
0001
0001
0000
,
0010
0000
0000
0000
,
0100
0000
0000
0000
,
1100
0000
0000
0000
,
0101
0000
0000
0000
,
0011
0000
0000
0000
,
1010
0000
0000
0000
,
0110
0000
0000
0000
,
1001
0000
0000
0000
,
1001
0000
0000
0000
,
1001
0000
1001
1001
,
1100
0000
0000
0001
,
1100
0000
0000
1000
,
0101
0000
0000
0001
,
1010
0000
0000
1000
,
0011
0000
0000
1000
,
1001
0000
0000
0100
,
0110
0000
0000
0001
,
1000
0001
1000
0001
,
1000
1000
1000
1000
,
0001
0001
0001
0001
,
0010
0010
0010
0010
,
0100
0100
0100
0100
,
1000
0100
0010
0001
,
0001
0010
0100
1000
,
1000
0001
0100
0010
,
1000
0001
1000
0001
;

//--------------- dance-single - ----------------
#NOTES:
     dance-single:
     :
     Medium:
     10:
     0,0,0,0,0:
0000
0000
0000
0000
,
0000
0000
0000
0000
,
0000
0000
0000
0000
,
0000
0000
0000
0000
,
0010
1000
0100
0000
1000
0100
1000
0000
,
0010
0001
0100
0000
0001
0100
0001
0000
,
1000
0001
1000
0000
1000
0100
1000
0000
,
1000
0001
1000
0000
0001
0100
0001
0000
,
0010
1000
0100
0000
1000
0100
1000
0000
,
0010
0001
0100
0000
0001
0100
0001
0000
,
1000
0001
1000
0000
1000
0100
1000
0000
,
1000
0001
1000
0000
0001
0100
0001
0000
,
1000
1000
1000
1000
,
1100
0011
1100
0011
,
0001
0001
0001
0001
,
0101
1010
0101
1010
,
1000
0100
0010
0000
0001
0010
0100
0000
,
1000
0100
0010
0000
0001
0010
0100
0000
,
1100
0101
1010
0011
,
1001
0110
1001
1001
,
2000
0001
0001
0001
,
3002
1000
1000
1000
,
0023
0100
0100
0100
,
0130
0000
0000
0010
0100
0010
0100
0000
,
1000
1100
0001
0101
,
0010
1010
0001
0011
,
0010
0110
1000
1001
,
1001
0000
0000
0001
1000
0001
1000
0000
,
0010
1000
0100
0000
1000
0100
1000
0000
,
0010
0001
0100
0000
0001
0100
0001
0000
,
1000
0001
1000
0000
1000
0100
1000
0000
,
1000
0001
1000
0000
0001
0100
0001
0000
,
0010
1000
0100
0000
1000
0100
1000
0000
,
0010
0001
0100
0000
0001
0100
0001
0000
,
1000
0001
1000
0000
1000
0100
1000
0000
,
1000
0001
1000
0000
0001
0100
0001
0000
,
1000
1000
1000
1000
,
1100
0011
1100
0011
,
0001
0001
0001
0001
,
0101
1010
0101
1010
,
1000
0100
0010
0000
0001
0010
0100
0000
,
1000
0100
0010
0000
0001
0010
0100
0000
,
1100
0101
1010
0011
,
1001
0110
1001
1001
,
2000
0001
0001
0001
,
3002
1000
1000
1000
,
0023
0100
0100
0100
,
0130
0000
0000
0010
0100
0010
0100
0000
,
1000
1100
0001
0101
,
0010
1010
0001
0011
,
0010
0110
1000
1001
,
1001
0000
0000
0001
1000
0001
1000
0000
,
2002
0000
0000
0000
,
0000
0000
0000
0000
,
0000
0000
0000
0000
,
3003
0000
0000
0000
0020
2030
3200
0320
,
0032
2003
3002
2003
,
3001
0000
0000
0000
1000
0001
1000
0000
,
2002
0000
0000
0000
,
0000
0000
0000
3003
,
0020
2030
3200
0320
0032
0000
2003
0000
,
3002
2003
3001
0000
,
1000
0001
1000
0000
0001
1000
0001
0000
,
0010
0100
0010
0000
1000
0001
1000
0000
,
0101
0000
0000
0000
,
1100
0000
0000
0000
,
0011
0000
0000
0000
,
1010
0000
0011
0000
,
1100
0000
0000
0000
,
1010
0000
0000
0000
,
0101
0000
0000
0000
,
0110
1001
0110
1001
,
2000
0001
0001
0001
,
3002
1000
1000
1000
,
0023
0100
0100
0100
,
0130
0000
0000
0010
0100
0010
0100
0000
,
1000
1100
0001
0101
,
0010
1010
0001
0011
,
0010
0110
1000
1001
,
1001
0000
0000
0001
1000
0001
1000
0000
,
2000
0001
0001
0001
,
3002
1000
1000
1000
,
0023
0100
0100
0100
,
0130
0000
0000
0010
0100
0010
0100
0000
,
1000
1100
0001
0101
,
0010
1010
0001
0011
,
0010
0110
1000
1001
,
1001
0000
0000
0001
1000
0001
1000
0000
;

//--------------- dance-single - ----------------
#NOTES:
     dance-single:
     :
     Hard:
     12:
     0,0,0,0,0:
0000
0000
0000
0000
,
0000
0000
0000
0000
,
0000
0000
0000
0000
,
1001
0000
0000
1000
0001
1000
0001
0000
,
1000
0100
0010
0000
0001
0100
0010
0000
,
0001
0100
0010
2000
0000
0000
3001
0000
,
0000
0001
0100
0010
0100
0001
1000
0100
,
1000
0000
0000
1000
0001
1000
0001
0000
,
1000
1100
0001
0101
,
0001
0100
0010
2000
0000
0000
3001
0000
,
0000
0100
0010
0001
0100
0001
1000
0100
,
0020
0100
0100
0130
,
1100
0000
1000
0100
0010
0001
0010
0100
,
1100
0101
1010
0011
,
1001
0000
0001
0100
0010
1000
0001
1000
,
0110
1001
0110
1001
,
0011
0001
0010
0100
1000
0100
0010
0001
,
0011
1100
0011
1100
,
1000
0100
0010
0001
0100
0010
1000
0001
,
1100
0101
1010
0011
,
1001
0000
1000
0001
1000
0001
1000
0000
,
1100
0000
1000
0100
1000
0100
1000
0000
,
0011
0000
0001
0010
0001
0010
0001
0000
,
0110
0100
0100
0100
,
0101
0000
0001
1000
0001
1000
0001
0000
,
1010
0000
1000
0010
1000
0010
1000
0000
,
1001
0000
1000
0001
1000
0001
1000
0000
,
0110
0000
0200
0000
0010
0000
0010
1300
,
0100
1000
1001
0001
1000
0001
1001
0010
,
0100
0001
1000
0100
0010
0002
1003
0000
,
0001
0100
0010
1000
0100
0010
0001
0100
,
1000
0000
0100
0010
0100
0010
0100
0000
,
1000
0100
0010
0000
0001
0100
0010
0000
,
0011
1100
0110
2002
,
0000
3003
0010
0100
0010
1000
0001
1000
,
0100
0010
0001
0000
0001
0000
0001
0000
,
1100
0000
1000
0100
0010
0001
0010
0100
,
1100
0101
1010
0011
,
1001
0000
0001
0100
0010
1000
0001
1000
,
0110
1001
0110
1001
,
0011
0001
0010
0100
1000
0100
0010
0001
,
0011
1100
0011
1100
,
1000
0100
0010
0001
0100
0010
1000
0001
,
1100
0101
1010
0011
,
1001
0000
1000
0001
1000
0001
1000
0000
,
1100
0000
1000
0100
1000
0100
1000
0000
,
0011
0000
0001
0010
0001
0010
0001
0000
,
0110
0100
0100
0100
,
0101
0000
0001
1000
0001
1000
0001
0000
,
1010
0000
1000
0010
1000
0010
1000
0000
,
1001
0000
1000
0001
1000
0001
1000
0000
,
0110
0010
0010
0010
,
1001
0010
0010
0010
,
0010
0010
0010
0010
,
0010
0100
0010
0100
0010
0100
0010
0100
,
0010
0100
0010
0100
0001
0101
1000
1100
,
2100
0000
3002
0010
2003
0000
3200
1000
,
0302
0103
0200
0302
0203
0000
0301
0001
,
2100
0100
3012
0000
0013
1020
0000
0031
,
0202
0300
0203
1000
0302
0013
2010
3000
,
2002
0003
3200
1300
1200
0300
0102
1003
,
1001
0020
0130
0000
0200
1000
0320
0001
,
1030
0001
1000
0001
1000
0001
1000
0001
,
1000
0001
1000
0001
1001
0000
0110
0000
,
2200
0000
0000
3300
,
0022
0000
0000
0033
,
2002
0000
0000
3003
,
0110
1001
0110
1001
,
0011
0001
0010
0100
1000
0100
0010
0001
,
0011
1100
0011
1100
,
1000
0100
0010
0001
0100
0010
1000
0001
,
1100
0101
1010
0011
,
1001
0000
1000
0001
1000
0001
1000
0000
,
1100
0000
1000
0100
1000
0100
1000
0000
,
0011
0000
0001
0010
0001
0010
0001
0000
,
0110
0100
0100
0100
,
0101
0000
0001
1000
0001
1000
0001
0000
,
1010
0000
1000
0010
1000
0010
1000
0000
,
1001
0000
1000
0001
1000
0001
1000
0000
,
0110
0010
0010
0010
,
0001
1000
0100
0010
0001
0100
0010
0100
,
0001
1000
0100
1000
0100
1000
0001
0100
,
0001
0100
0001
1000
0010
1000
1010
0000
,
0101
1100
0011
0110
,
1001
1000
0100
1000
0001
0010
0001
0000
,
0010
1000
0001
0100
0010
0100
0001
1000
,
0001
1000
0100
0010
0100
1000
0001
0100
,
1000
0100
0001
1000
0100
1000
0001
0000
;

//--------------- dance-single - ----------------
#NOTES:
     dance-single:
     :
     Challenge:
     14:
     0,0,0,0,0:
0000
0000
0000
0000
,
0000
0000
0000
0000
,
0000
0000
0000
0000
,
0000
0000
0000
0000
,
1000
0100
0010
0000
0001
0100
0010
0000
,
1000
0100
0010
0001
0000
0100
0110
0000
,
1001
0001
0010
0001
1000
0010
1000
0100
,
0110
0000
0000
0200
0310
0200
0310
0000
,
0001
0100
0010
0000
1000
0100
0010
0000
,
0001
0100
0010
1000
0000
0100
0110
0000
,
1001
1000
0100
1000
0001
0100
0001
0010
,
0110
0000
0100
0010
0100
0100
1001
0000
,
0110
0010
1000
0100
0010
0001
0100
0010
,
1000
0001
0010
0001
1000
0010
0100
0001
,
0010
0100
0010
0001
1000
0100
1000
0010
,
0100
0001
0010
0100
0110
0000
1001
0000
,
0110
0100
0001
0010
0100
1000
0010
0100
,
0001
1000
0100
1000
0001
0100
0010
1000
,
0100
0010
0100
1000
0001
0010
0001
0100
,
0020
2030
3002
0013
,
1100
0101
1100
1100
,
0101
1100
0101
0101
,
1100
0101
1100
1100
,
1001
0000
0000
2000
3001
2000
3001
0000
,
1010
0011
1010
1010
,
0011
1010
0011
0011
,
1010
0011
1010
1010
,
0110
0000
0000
0002
1003
0002
2003
0010
,
0001
3001
2000
0100
0001
3001
2000
0010
,
0001
3001
0010
0100
1001
0100
1001
0100
,
1001
1000
0100
0010
1001
0010
1001
0010
,
1001
0000
0000
0020
0130
0020
0130
0100
,
1001
0001
0101
0100
0110
0010
1010
1000
,
0100
0000
0000
0000
0001
0000
0000
0000
0100
0000
0000
0000
1000
0000
0000
0000
0010
0000
0000
0000
0010
0000
0000
0000
0100
0000
0020
0030
0000
0000
0000
0000
,
1001
0000
1001
0100
1001
0100
1001
0100
,
1001
0000
1010
0010
0110
0100
0101
0001
,
1001
1000
0010
0100
0001
0010
0100
0010
,
0001
1000
0010
0100
0001
1000
0100
0010
,
0100
1000
0010
0100
0001
0010
0001
1000
,
0010
1000
0100
0010
0110
0000
1001
0000
,
0110
0010
1000
0100
1000
0010
0100
0010
,
1000
0001
0010
0100
1000
0001
0100
0010
,
0100
0001
0010
0100
1000
0010
1000
0001
,
0020
0032
2003
3010
,
1100
0000
0101
0001
1000
0100
1100
0000
,
0101
0000
1100
1000
0001
0100
0101
0000
,
1100
0000
0101
0001
1000
0100
1100
0000
,
1001
0000
0000
0002
1003
0002
1003
0000
,
1010
0000
0011
0001
1000
0010
1010
0000
,
0011
0000
1010
1000
0001
0010
0011
0000
,
1010
0000
0011
0001
1000
0010
1010
0000
,
1001
0000
0000
2000
3001
2000
3001
0000
,
1000
0000
0100
0000
0010
0000
0010
0000
0001
0000
0100
0001
0100
0001
0100
0001
,
0100
0000
0001
0010
0100
0000
0010
0000
0001
0000
0001
0000
0100
0000
0010
1000
,
0010
0000
1000
0000
0100
0000
0100
0000
0010
0001
0010
0001
0010
0001
0010
0000
,
0001
0010
0100
0000
0010
0000
0100
0000
1000
0010
0100
0000
0001
0010
0100
0000
,
2000
0100
3020
0001
0100
1000
0230
0010
,
0302
0010
1003
0100
0010
0001
0100
0001
,
0010
0001
0010
0001
0010
0001
0010
0100
,
1000
0010
1000
0010
1001
0010
1001
0000
,
2002
3003
0100
0000
2002
3003
0100
0000
2002
3003
2002
3003
0100
0000
2002
3003
,
0000
0100
1001
0010
0100
0010
0000
0000
,
0110
0000
0001
0011
0000
1000
1010
0000
,
0001
1001
0000
0010
0110
0100
1001
0010
,
1001
0000
0000
0000
,
0101
0000
0000
0000
,
1010
0000
0000
0000
,
0011
0000
0000
0000
0020
0130
0020
0130
,
1000
0100
1000
0001
0010
0001
0100
0010
,
1000
0001
0010
0001
1000
0100
0010
0001
,
0100
0010
0100
0001
1000
0010
1000
0100
,
0020
0032
2003
3010
,
1000
0010
0001
0010
1010
0010
1010
1000
,
0001
0010
1000
0010
0011
0010
0011
0001
,
1000
0010
0001
0010
1010
0010
1010
1000
,
0002
0000
0023
0100
0230
1000
1300
0000
,
0001
0100
1000
0100
0101
0100
0101
0001
,
1000
0100
0001
0100
1100
0100
1100
1000
,
0001
0100
1000
0100
0101
0100
0101
0001
,
2000
0000
3020
0100
0230
0001
0302
0000
,
1003
0100
0101
0100
1100
1000
1100
1000
,
0001
0100
1100
0100
0101
0001
0101
0001
,
1000
0100
0101
0100
1100
1000
1100
1000
,
0002
0000
0203
0010
0320
1000
2030
0000
,
3001
0010
1010
0010
0011
0001
0011
0001
,
1000
0010
0011
0010
1010
1000
1010
1000
,
0001
0010
1010
0010
0011
0001
0011
0001
,
1001
0000
0110
2000
3001
2000
3001
0000
;
