#TITLE:in Lunacy, the Savage Dream (Long Tall Eyelash);
#SUBTITLE:;
#ARTIST:Osamu Sato (Asmik Ace);
#TITLETRANSLIT:;
#SUBTITLETRANSLIT:;
#ARTISTTRANSLIT:;
#CREDIT:;
#BANNER:bn.png;
#BACKGROUND:bg.png;
#LYRICSPATH:;
#CDTITLE:;
#MUSIC:lsd.mp3;
#OFFSET:0.000;
#SAMPLESTART:0.160;
#SAMPLELENGTH:13.714;
#SELECTABLE:YES;
#BPMS:0.000=182.500,56.000=182.540,56.063=182.940,56.125=183.140,56.188=183.540,56.313=184.340,56.375=185.940,56.500=186.740,56.563=187.540,56.625=189.140,56.750=190.740,56.813=191.540,56.875=183.740,56.938=184.540,57.000=186.140,57.063=186.940,57.188=187.740,57.250=188.540,57.313=189.340,57.375=190.140,57.438=190.940,57.500=191.740,57.563=192.540,57.625=193.340,57.688=194.140,57.750=194.940,57.813=195.740,57.875=196.540,57.938=197.340,58.000=198.140,58.063=199.740,58.188=200.540,58.250=201.340,58.313=202.140,58.375=202.940,58.438=203.740,58.500=204.540,58.563=205.340,58.625=206.140,58.688=206.940,58.750=207.740,58.813=208.540,58.875=209.340,58.938=210.140,59.000=211.740,59.063=212.540,59.125=213.340,59.250=214.140,59.313=214.940,59.375=215.740,59.438=216.540,59.500=217.340,59.563=218.140,59.625=219.740,59.750=220.540,59.813=221.340,59.875=222.140,59.938=222.940,60.000=223.740,60.063=224.540,60.125=226.140,60.188=226.940,60.250=227.740,60.375=228.540,60.438=229.340,60.500=230.140,60.563=230.940,60.625=231.740,60.688=232.540,60.750=233.340,60.813=234.940,60.875=235.740,60.938=236.540,61.000=237.340,61.063=238.140,61.125=238.940,61.188=239.740,61.250=240.540,61.375=241.340,61.438=242.140,61.500=242.940,61.563=243.740,61.625=244.540,61.688=246.140,61.813=246.940,61.875=247.740,61.938=248.540,62.000=249.340,62.063=250.140,62.125=250.940,62.188=251.740,62.250=252.540,62.313=254.140,62.438=254.940,62.500=255.740,62.563=256.540,62.625=257.340,62.688=258.940,62.813=259.740,62.875=260.540,62.938=261.340,63.000=262.140,63.063=262.940,63.125=264.540,63.250=265.340,63.313=266.140,63.375=266.940,63.438=268.540,63.563=269.340,63.625=270.140,63.688=270.940,63.750=271.740,63.813=273.340,63.938=274.140,64.000=274.940,64.063=275.740,64.125=276.540,64.188=277.340,64.250=278.140,64.313=278.940,64.375=279.740,64.438=280.540,64.500=281.340,64.563=282.140,64.625=282.940,64.688=283.740,64.750=284.540,64.813=285.340,64.875=286.140,64.938=286.940,65.000=287.740,65.063=288.540,65.125=289.340,65.188=290.140,65.250=290.940,65.313=291.740,65.375=292.540,65.438=293.340,65.500=294.139,65.563=294.939,65.625=295.739,65.688=296.539,65.750=297.339,65.813=298.139,65.875=298.939,65.938=299.739,66.000=300.539,66.063=301.339,66.125=302.139,66.188=302.939,66.250=303.739,66.313=304.539,66.375=305.339,66.438=306.139,66.500=306.939,66.563=307.739,66.625=308.539,66.688=309.339,66.750=310.139,66.813=310.939,66.875=311.739,66.938=313.339,67.063=314.139,67.125=314.939,67.188=315.739,67.250=316.539,67.313=317.339,67.375=318.139,67.438=319.739,67.563=320.539,67.625=321.339,67.688=322.139,67.750=322.939,67.813=323.739,67.875=324.539,67.938=325.339,68.000=326.139,68.063=326.939,68.125=327.739,68.188=328.539,68.250=329.339,68.313=330.139,68.375=330.939,68.438=331.739,68.500=332.539,68.563=333.339,68.625=334.139,68.688=334.939,68.750=335.739,68.813=336.539,68.875=337.339,68.938=338.139,69.000=338.939,69.063=339.739,69.125=340.539,69.188=341.339,69.250=342.139,69.313=342.939,69.375=343.739,69.438=344.539,69.500=345.339,69.563=346.139,69.625=346.939,69.688=347.739,69.750=348.539,69.813=349.339,69.875=350.139,69.938=350.939,70.000=351.739,70.063=352.539,70.125=353.339,70.188=354.139,70.250=354.939,70.313=355.739,70.375=356.539,70.438=357.339,70.500=358.139,70.563=358.939,70.625=359.738,70.688=360.538,70.750=361.338,70.813=362.138,70.875=362.938,70.938=363.738,71.000=364.538,71.063=365.338,71.125=366.138,71.188=366.938,71.250=367.738,71.313=368.538,71.375=369.338,71.438=370.138,71.500=370.938,71.563=371.738,71.625=372.538,71.688=373.338,71.750=374.138,71.813=374.938,71.875=375.738,71.938=376.538,72.000=377.338,72.063=378.138,72.125=378.938,72.188=379.738,72.250=380.538,72.313=382.138,72.438=382.938,72.500=383.738,72.563=384.538,72.625=385.338,72.688=386.138,72.750=386.938,72.813=387.738,72.875=388.538,72.938=389.338,73.000=390.138,73.063=390.938,73.125=391.738,73.188=392.538,73.250=393.338,73.313=394.138,73.375=394.938,73.438=395.738,73.500=396.538,73.563=397.338,73.625=398.138,73.688=398.938,73.750=399.738,73.813=400.538,73.875=401.338,73.938=402.138,74.000=402.938,74.063=403.738,74.125=404.538,74.188=405.338,74.250=406.138,74.313=406.938,74.375=407.738,74.438=408.538,74.500=409.338,74.563=410.138,74.625=410.938,74.688=411.738,74.750=412.538,74.813=413.358,74.875=414.538,74.938=415.938,75.000=416.138,75.063=416.738,75.125=417.538,75.188=418.938,75.250=419.738,75.313=420.538,75.375=421.338,75.438=422.138,75.500=422.938,75.563=423.738,75.625=424.538,75.688=425.337,75.750=426.137,75.813=426.937,75.875=427.737,75.938=429.337,76.000=431.737,76.063=434.937,76.125=435.737,76.188=438.937,76.250=442.137,76.313=449.337,76.375=456.537,76.438=462.937,76.500=469.337,76.563=474.937,76.625=479.737,76.688=484.537,76.750=490.137,76.813=494.137,76.875=498.937,76.938=503.737,77.000=534.136,83.000=365.000;
#STOPS:83.000=2.340
;
#BGCHANGES:;

//---------------dance-single - ----------------
#NOTES:
     dance-single:
     :
     Challenge:
     18:
     1.000,1.000,1.000,0.398,1.000: // measure 1
0000
0000
0000
0000
,  // measure 2
0000
0000
0000
0000
0000
0000
0000
0200
,  // measure 3
0000
0000
0300
0200
0000
0000
0301
0001
,  // measure 4
0200
0000
0301
0001
0000
0000
0000
0020
,  // measure 5
0000
0000
0030
0002
0000
0000
0003
0200
,  // measure 6
0000
0000
0300
1001
1001
1001
1001
0200
,  // measure 7
0000
0000
0300
0200
0000
0301
0001
0200
,  // measure 8
0000
0301
0001
1001
1001
1001
0200
0300
,  // measure 9
0200
0300
0200
0302
0000
0000
0003
1100
,  // measure 10
0000
0000
1100
0000
0110
0000
0011
2200
,  // measure 11
0000
0000
0300
0200
0000
0000
0300
0200
,  // measure 12
0000
0000
0300
0000
0000
0000
0000
0020
,  // measure 13
0000
0000
0030
0002
0000
0000
0003
0200
,  // measure 14
0000
0000
0300
0001
0001
0001
0001
0000
,  // measure 15
00M0
0M00
00M0
000M
,  // measure 16
00M0
0000
0M00
0000
00M0
000M
00M0
0M00
,  // measure 17
00M0
000M
00M0
0M00
00M0
000M
00M0
0M00
,  // measure 18
00M0
000M
00M0
0M00
00M0
000M
00M0
0M00
00M0
000M
00M0
0M00
,  // measure 19
00M0
0000
0000
0000
0000
0000
0000
0000
0000
0000
0000
0000
000M
0000
0000
0000
0000
0000
0000
0000
0000
0000
0000
0000
00M0
0000
0000
0000
0000
0000
0000
0000
0000
0000
0000
0000
0M00
0000
0000
0000
0000
0000
0000
0000
0000
0000
0000
0000
00M0
0000
0000
0000
0000
0000
0000
0000
0000
0000
0000
0000
000M
0000
0000
0000
0000
0000
0000
0000
0000
0000
0000
0000
00M0
0000
0000
0000
0000
0000
0000
0000
0000
0000
0000
0000
0000
0000
0000
0000
0000
0000
0000
0000
0000
0000
0000
0000
0M00
0000
0000
0000
0000
0000
0000
0000
00M0
0000
0000
0000
0000
0000
0000
0000
000M
0000
0000
0000
0000
0000
0000
0000
00M0
0000
0000
0000
0000
0000
0000
0000
0M00
0000
0000
0000
0000
0000
0000
0000
00M0
0000
0000
0000
0000
0000
0000
0000
000M
0000
0000
0000
0000
0000
0000
0000
00M0
0000
0000
0000
0000
0000
0000
0000
0M00
0000
0000
0000
0000
0000
0000
0000
00M0
0000
0000
0000
0000
0000
0000
0000
000M
0000
0000
0000
00M0
0000
0000
0000
0000
0000
0M00
0000
0000
0000
0000
0000
,  // measure 20
00M0
0000
0000
0000
0000
0000
000M
0000
0000
0000
0000
0000
00M0
0000
0000
0000
0000
0000
0M00
0000
0000
0000
0000
0000
00M0
0000
0000
0000
0000
0000
000M
0000
0000
0000
0000
0000
00M0
0000
0000
0000
0000
0000
0M00
0000
0000
0000
0000
0000
00M0
0000
0000
0000
0000
0000
000M
0000
0000
0000
0000
0000
00M0
0000
0000
0000
0M00
0000
0000
0000
00M0
0000
0000
0000
000M
0000
0000
0000
00M0
0000
0000
0000
0M00
0000
0000
0000
00M0
0000
0000
0000
000M
0000
0000
0000
00M0
0000
0000
0000
0M00
0000
0000
0000
00M0
0000
0000
0000
000M
0000
0000
0000
00M0
0000
0000
0000
0M00
0000
0000
0000
00M0
0000
0000
0000
000M
0000
0000
0000
00M0
0000
0000
0000
0M00
0000
0000
0000
00M0
0000
0000
0000
000M
0000
0000
0000
00M0
0000
0000
0000
0M00
0000
0000
0000
00M0
0000
0000
0000
000M
0000
0000
0000
00M0
0000
0000
0000
0M00
0000
0000
0000
00M0
0000
0000
0000
000M
0000
0000
0000
00M0
0000
0000
0000
0M00
00M0
0000
0000
000M
0000
0000
00M0
0000
0000
0M00
0000
0000
00M0
0000
0000
,  // measure 21
000M
0000
0000
00M0
0000
0000
0M00
0000
0000
00M0
0000
0000
000M
0000
0000
00M0
0000
0000
0M00
0000
0000
0MMM
0000
0000
0MMM
0000
0000
0MMM
0000
0000
0MMM
0000
0000
0MMM
0000
0000
0MMM
0000
0000
0MMM
0000
000M
0MM0
000M
000M
0MMM
000M
000M
0000
0MMM
0MMM
0MMM
0MMM
0MMM
0MMM
0MMM
0MMM
0MMM
0MMM
0MMM
0MMM
0MMM
0MMM
0MMM
0MMM
0MMM
0MMM
0MMM
0MMM
0MMM
0MMM
0MMM
0MMM
0MMM
0MMM
0MMM
0MMM
0MMM
0MMM
0MMM
0MMM
0MMM
0MMM
0MMM
0MMM
0MMM
0MMM
0MMM
0MMM
0MMM
0MMM
0MMM
0MMM
0MMM
0MMM
0MMM
0MMM
0MMM
0MMM
0MMM
0MMM
0MMM
0MMM
0MMM
0MMM
0MMM
0MMM
0MMM
0MMM
0MMM
0MMM
0MMM
0MMM
0MMM
0MMM
0MMM
0MMM
0MMM
0MMM
0MMM
0MMM
0MMM
0MMM
0MMM
0MMM
0MMM
0MMM
0MMM
0MMM
0MMM
0MMM
0MMM
0MMM
0MMM
0MMM
0MMM
0MMM
0MMM
0MMM
0MMM
0MMM
0MMM
0MMM
0MMM
3MMM
0000
0000
0000
0000
0000
0000
0000
0000
0000
0000
0000
0000
0000
0000
0000
0000
0000
0000
0000
0000
0000
0000
0000
0000
0000
0000
0000
0000
0000
0000
0000
0000
0000
0000
0000
0000
0000
0000
0000
0000
0000
0000
0000
0000
0000
0000
0000
,  // measure 22
0000
0000
0101
0000
,  // measure 23
1010
0101
0000
1010
,  // measure 24
0000
0101
1010
0101
,  // measure 25
101M
101M
110M
110M
,  // measure 26
2200
3300
0101
0000
,  // measure 27
1010
0101
0000
1010
,  // measure 28
1001
1001
0101
0011
,  // measure 29
0001
0001
0001
0001
0101
0000
0000
0000
,  // measure 30
1010
0101
0000
1010
,  // measure 31
0000
0101
1010
0101
,  // measure 32
1010
1010
1100
1100
,  // measure 33
1200
1301
1001
1001
,  // measure 34
1001
0000
1001
1000
0100
0010
0001
1000
,  // measure 35
0200
0310
0001
1000
0100
0020
0031
0000
,  // measure 36
1100
0000
1000
0000
0000
0000
1000
0000
1100
0000
0000
0000
1000
0000
0000
1000
0000
0000
1100
0000
0000
0000
1000
0000
,  // measure 37
0000
0000
1000
0000
0000
0000
1100
0000
0000
0011
0000
0000
0000
0000
0000
0110
0000
0000
0000
0000
0000
0101
0000
0000
,  // measure 38
0000
0000
0000
0000
0000
0000
0000
0000
0000
0000
0000
0000
0000
0000
0000
0000
0000
0000
0000
0000
0000
0000
0000
0000
MMMM
MMMM
MMMM
MMMM
MMMM
MMMM
MMMM
MMMM
MMMM
MMMM
MMMM
MMMM
0000
0000
0000
0000
0000
0000
0000
0000
0000
0000
0000
0000
0000
0000
0000
0000
0000
0000
0000
0000
0000
0000
0000
0000
0000
0000
0000
0000
0000
0000
0000
0000
0000
0000
0000
0000
0000
0000
0000
0000
0000
0000
0000
0000
0000
0000
0000
0000
0000
0000
0000
0000
0000
0000
0000
0000
0000
0000
0000
0000
0011
0000
0000
0000
0000
0000
0000
0000
0000
0000
0000
0000
0000
0000
0000
0000
0000
0000
0000
0000
0000
0000
0000
0000
0000
0000
0000
0000
0000
0000
0000
0000
0000
0000
0000
0000
0000
0000
0000
0000
0000
0000
0000
0000
0000
0000
0000
0000
0000
0000
0000
0000
0000
0000
0000
0000
0000
0000
0000
0000
0000
0000
0000
0000
0000
0000
0000
0000
0000
0000
0000
0000
0000
0000
0000
0000
0000
0000
0000
0000
0000
0000
0000
0000
0000
0000
0000
0000
0000
0000
0000
0000
0000
0000
0000
0000
,  // measure 39
1100
0000
0010
0100
,  // measure 40
0010
0001
0100
1000
,  // measure 41
0100
0000
0100
0000
0100
0000
0100
0100
,  // measure 42
0010
0100
1000
0100
0010
0100
1000
1000
,  // measure 43
0000
0110
0101
0010
,  // measure 44
1000
0100
0010
1000
,  // measure 45
0101
0110
0100
1000
,  // measure 46
0100
0110
0100
0010
,  // measure 47
0100
1000
0010
0010
,  // measure 48
0100
0000
1000
0000
0010
0010
0010
0000
,  // measure 49
0100
1000
0010
0000
,  // measure 50
0010
M00M
0010
M00M
,  // measure 51
0010
M00M
0010
M00M
,  // measure 52
0010
M00M
0011
MMMM
,  // measure 53
1100
0021
0001
1000
,  // measure 54
1000
0001
1000
0001
,  // measure 55
1000
0001
1000
0100
,  // measure 56
1000
0100
0001
0100
,  // measure 57
0001
0100
0001
0230
,  // measure 58
M010
M001
M010
M001
,  // measure 59
0010
1000
0000
1000
0000
1000
0000
1000
,  // measure 60
0000
1000
0000
1000
0000
1000
0000
1000
,  // measure 61
0000
1000
0000
1000
0310
0100
1000
0001
,  // measure 62
0010
0100
0010
0001
1000
0100
0010
0000
,  // measure 63
1001
0110
1001
0110
,  // measure 64
1001
1000
0100
0010
,  // measure 65
0001
1001
0110
1001
,  // measure 66
0110
1001
0000
0001
,  // measure 67
1100
0010
0100
0011
,  // measure 68
1000
0100
0010
0110
,  // measure 69
0021
0001
1000
1000
,  // measure 70
0001
1000
0001
1000
,  // measure 71
0001
1001
0100
1000
,  // measure 72
0100
0001
0100
0001
,  // measure 73
0100
0001
0230
0010
,  // measure 74
0001
0000
0010
0000
0001
0000
0010
1000
,  // measure 75
0000
1000
00MM
1000
00M0
1000
00MM
1000
,  // measure 76
000M
1000
00MM
1000
00M0
1000
00MM
1000
,  // measure 77
000M
1000
03MM
1100
0100
0010
0100
1000
,  // measure 78
0100
0110
0000
0001
0100
0010
1000
0010
,  // measure 79
0100
0001
0000
1000
0100
0010
0001
0010
,  // measure 80
0100
0000
0000
1000
0000
0000
0100
0000
0000
0010
0000
0000
0001
0000
0010
0000
0100
0000
1000
0000
0100
0000
0010
0000
,  // measure 81
0001
0000
0000
0000
0010
0000
0000
0000
0100
0000
0000
0000
1000
0000
0000
0000
0100
0000
0000
0000
0010
0000
0000
0000
0001
0000
0000
0000
0010
0000
0000
0000
0100
0000
0000
0000
1000
0000
0000
0100
0000
0000
0010
0000
0000
0001
0000
0000
,  // measure 82
0010
0100
1000
0100
0010
0001
0010
0100
1000
0000
0000
0000
0110
0000
0000
0000
,  // measure 83
0110
0000
1000
0100
0001
0010
0100
0010
,  // measure 84
0011
0100
0110
1000
1100
0100
0110
0010
,  // measure 85
0011
0021
0000
0001
0001
1000
0000
0100
,  // measure 86
1000
0100
0100
0100
0100
0001
0001
0001
,  // measure 87
0000
0001
0000
0001
0000
0100
0000
1000
,  // measure 88
0001
0100
1000
0001
1000
0100
1000
0001
,  // measure 89
1000
0000
0100
0000
1000
0000
0001
0000
0000
0000
0230
0000
0000
0000
0010
M000
,  // measure 90
M000
M000
M001
M000
M000
M000
M010
M000
M000
M000
0001
0000
0000
0000
0010
0000
,  // measure 91
1000
1000
10MM
1000
10MM
1000
10MM
M000
,  // measure 92
10MM
1000
10MM
1000
10MM
1000
10MM
1000
,  // measure 93
10MM
1000
10MM
0000
0300
1100
0100
0010
,  // measure 94
0100
1000
0100
0110
0000
0100
0011
1100
,  // measure 95
0011
0000
1100
0000
0010
0000
0000
0000
0000
0000
1000
0100
0010
0001
0010
0100
,  // measure 96
1000
0100
0010
0001
0010
0100
1000
0100
0010
0001
0010
0100
1000
0100
0010
0001
,  // measure 97
0010
0000
0000
0100
0000
0000
1000
0000
0000
0100
0000
0000
0010
0000
0000
0001
0000
0000
0010
0000
0000
0100
0000
0000
1000
0000
0100
0000
0010
0000
0001
0000
0010
0000
0100
0000
1000
0000
0100
0000
0010
0000
0001
0000
0010
0000
0100
0000
,  // measure 98
1000
0001
0010
0100
1000
0000
0000
0000
0110
0000
M00M
0000
0110
0000
0000
0000
,  // measure 99
1000
0100
0001
0010
0100
0010
M011
0100
,  // measure 100
0110
1000
110M
0100
0110
0010
2002
0000
,  // measure 101
0000
0000
0000
0000
,  // measure 102
0000
0000
0000
0000
,  // measure 103
0000
0000
0000
0000
,  // measure 104
0000
0000
0000
0000
,  // measure 105
3003
0000
0000
0000
;
