#TITLE:neu;
#SUBTITLE:;
#ARTIST:SHOUNEN RADIO;
#TITLETRANSLIT:;
#SUBTITLETRANSLIT:;
#ARTISTTRANSLIT:;
#CREDIT:;
#BANNER:neu-banner.png;
#BACKGROUND:neu-bg.png;
#LYRICSPATH:;
#CDTITLE:;
#MUSIC:neu.ogg;
#OFFSET:-1.230;
#SAMPLESTART:22.930;
#SAMPLELENGTH:12.000;
#SELECTABLE:YES;
#BPMS:0.000=99.500,36.000=199.000,100.000=99.500,148.000=199.000;
#STOPS:;
#BGCHANGES:;

//---------------dance-single - ----------------
#NOTES:
     dance-single:
     :
     Challenge:
     15:
     1.000,1.000,0.633,0.664,1.000:
0000
0000
0000
0000
,
0010
0100
0010
0100
1000
0001
1000
0001
,
0010
0000
0001
0000
0010
0000
0001
0000
1000
0000
0010
0000
1000
0000
0010
1000
,
0001
0100
0010
1000
0100
0001
0100
0010
,
0001
0000
0000
0000
0010
0000
0000
0000
1000
0000
0000
0000
0010
0000
1000
0000
0100
0000
1000
0000
0001
0000
0100
0000
0010
1000
0010
1000
0001
0100
0001
0100
,
0001
0000
0100
0001
0110
0000
1000
0100
1100
0000
1000
0010
1001
0000
0001
0010
,
0101
0000
0010
1000
0110
0000
0001
1000
0011
0000
0100
0010
0101
0100
0110
0010
,
1010
1000
1001
1000
1100
0100
0110
0010
1010
1000
1100
0100
0101
0001
1001
0001
,
0010
0100
1000
0100
0010
0100
1000
0100
0010
0001
0010
0100
0010
0001
0010
0100
2000
0000
3200
0000
1000
0000
0000
0000
0010
0000
0010
0000
1000
0000
0001
0000
,
1300
0000
0100
0000
0001
0000
1000
0100
0001
0000
0100
0000
1000
0000
0001
0100
,
1000
0000
0010
0000
0001
0000
1000
0010
0001
0000
0010
0000
1000
0000
0001
0010
,
1000
0000
0100
0000
0010
0000
0001
0010
0100
0000
0001
0000
0010
0000
1000
0100
,
0010
0000
0001
0100
1000
0000
0100
0010
0100
0000
0010
1000
0100
0010
0100
0010
,
0001
0000
1000
0001
1000
0100
0010
0100
0010
0000
0001
0100
0001
0010
0100
1000
,
0010
0000
0100
0010
1000
0001
1000
0100
0001
0000
0100
0010
0001
1000
0010
0100
,
0010
1000
0100
1000
0010
1000
0100
1000
0010
0100
0001
0100
0010
0100
0001
0100
,
0001
0010
0100
0010
0001
0010
0100
1000
0100
0010
0001
0010
1000
0001
0100
1000
,
0001
0100
0010
0000
0110
0000
1000
0100
0010
0000
0011
0000
0001
1000
0010
0000
,
1100
0000
0010
1000
0100
0000
0101
0000
0010
1000
0001
1000
0010
1000
0100
1000
,
0100
0010
0001
0000
1100
0000
1000
0001
0100
0000
1010
0000
0001
0010
0100
0000
,
0110
0000
0010
0001
1000
0000
1001
0000
0010
0100
1000
0100
0010
1000
0100
0010
,
0001
1000
0100
0001
0100
1000
0010
0100
0010
0000
0001
1000
0001
0000
0100
0010
,
1000
0000
0010
1000
0100
0000
0001
1000
0010
1000
0001
0010
0100
0010
0001
0010
,
1000
0100
1000
0100
0001
0100
0001
0100
1000
0010
1000
0010
1000
0001
1000
0001
,
0100
0010
1000
0001
1000
0100
0010
0100
0001
0100
0001
1000
0001
0100
0010
0001
,
2000
0010
3200
0000
0302
1000
1000
0010
0023
0000
0230
0001
0001
1000
2300
0000
,
3010
0100
1000
0100
0001
0010
0100
1000
0020
0100
0230
0000
2300
0001
0001
0010
,
3020
0000
0032
1000
1000
0103
0200
0000
0310
0100
0001
1000
0100
0010
0001
1000
,
0002
0100
0023
0000
2030
0001
0001
0100
3200
0000
0320
1000
1000
0001
0032
0000
,
0103
0010
0001
0010
1000
0100
0010
0001
0200
0010
0320
0000
0032
1000
1000
0100
,
0203
0000
2300
0001
0001
3010
0020
0000
0130
0010
1000
0001
0010
0100
1000
0001
,
1000
0010
0001
1000
0100
0001
1000
0100
0001
1000
0010
0001
1000
1000
0100
0100
,
0010
0010
0001
0001
0010
0010
0100
0100
0012
0000
1003
0010
1000
0010
1020
0000
,
0031
1000
0001
1000
2001
0000
3010
0001
1000
0100
0010
0001
0010
0100
0010
0100
,
1200
0000
0301
0100
0010
1000
0102
0000
1003
0100
0010
0001
0210
0000
0310
1000
,
0001
1000
0100
0010
0001
0010
0100
1000
0102
0000
1000
0000
1000
0000
0203
0000
,
0010
0000
0010
0000
0301
0100
0010
1000
0100
0010
0001
0100
0010
1000
0001
1000
,
0011
0000
1000
0100
1000
0000
0011
0000
0010
0100
0010
0000
0011
0000
0001
0100
,
0001
0011
0100
0010
2000
3010
0002
0103
,
1010
0000
0100
0001
0100
0000
1010
0000
1000
0001
1000
0000
1010
0000
0010
0001
,
0010
1010
0001
1000
0200
1300
0020
0031
,
1100
0000
0001
0010
0001
0000
1100
0000
0100
0010
0100
0000
1100
0000
1000
0010
,
1000
1100
0010
0100
0002
0103
2000
3010
,
0101
0000
0010
1000
0010
0000
0101
0000
0001
1000
0001
0000
0101
0000
0100
1000
,
0100
0101
1000
0001
0020
0031
0200
1300
,
1100
0000
0001
0100
0001
0000
0110
0000
0001
0100
0001
0000
0011
0000
0001
0100
,
0001
0000
0110
0000
0001
1000
0100
0001
1000
0010
0001
0010
0100
1000
0100
0010
,
0011
0000
1000
0100
1000
0000
0110
0000
1000
0100
1000
0000
1100
0000
1000
0100
,
1000
0000
0110
0000
1000
0100
1000
0010
0100
0001
0010
1000
0001
0100
0010
0001
,
1010
0000
1000
0001
1000
0000
0101
0000
1000
0001
1000
0000
0011
0000
1000
0001
,
1000
0000
1100
0000
1000
0001
1000
0010
0100
0001
0010
0100
0010
1000
0001
0100
,
0101
0000
0001
1000
0001
0000
1010
0000
0001
1000
0001
0000
0011
0000
0001
1000
,
0001
0000
1100
0000
0001
1000
0010
0100
0010
1000
0001
1000
0100
0001
1000
0010
,
0002
0000
2003
0000
3200
0000
0302
0000
0023
0000
0230
0000
0302
0000
0013
1000
,
0002
0000
0203
0000
2300
0000
3020
0000
0230
0000
2300
0000
3020
0000
0031
0100
,
2000
0000
3200
0000
0302
0000
0023
0000
0230
0000
0302
0000
0023
0000
1030
0100
,
0002
0000
0023
0000
0230
0000
0302
0000
0023
0000
2030
0000
3200
0000
0310
1000
,
0200
0000
0320
0000
2030
0000
3002
0000
0023
0000
2030
0000
3002
0000
0103
0010
,
0002
0000
2003
0000
3020
0000
0032
0000
0203
0000
0320
0000
0032
0000
1003
0010
,
1000
1100
1100
1100
1100
1001
1001
1001
,
1001
0000
0001
0100
0001
0100
0001
0010
0001
0010
0100
1000
0100
1000
0010
1000
,
0010
0000
0001
0000
1000
0000
0010
0001
1000
0000
0001
0000
0010
0000
1000
0001
,
0010
0000
0100
0000
1000
0000
0010
0100
1000
0000
0100
0000
0010
0000
1000
0100
,
0010
0000
0001
0000
0100
0000
1000
0100
0001
0000
1000
0000
0100
0000
0010
0001
,
0100
0000
1000
0001
0010
0000
0001
0100
0001
0000
0100
0010
0001
0100
0001
0100
,
1000
0000
0010
1000
0010
0001
0100
0001
0100
0000
1000
0001
1000
0100
0001
0010
,
0100
0000
0001
0100
0010
1000
0010
0001
1000
0000
0001
0100
1000
0010
0100
0001
,
0100
0010
0001
0010
0100
0010
0001
0010
0100
0001
1000
0001
0100
0001
1000
0001
,
1000
0100
0001
0100
1000
0100
0001
0010
0001
0100
1000
0100
0010
1000
0001
0010
,
1000
0001
0100
0000
0101
0000
0010
0001
0100
0000
1100
0000
1000
0010
0100
0000
,
0011
0000
0100
0010
0001
0000
1001
0000
0100
0010
1000
0010
0100
0010
0001
0010
,
0001
0100
1000
0000
0011
0000
0010
1000
0001
0000
0110
0000
1000
0100
0001
0000
,
0101
0000
0100
1000
0010
0000
1010
0000
0100
0001
0010
0001
0100
0010
0001
0100
,
1000
0010
0001
1000
0001
0010
0100
0001
0100
0000
1000
0010
1000
0000
0001
0100
,
0010
0000
0100
0010
0001
0000
1000
0010
0100
0010
1000
0100
0001
0100
1000
0100
,
0010
0001
0010
0001
1000
0001
1000
0001
0010
0100
0010
0100
0010
1000
0010
1000
,
0001
0100
0010
1000
0010
0001
0100
0001
1000
0001
1000
0010
1000
0001
0100
1000
,
0110
0000
0000
0000
;
