#TITLE:kioku;
#SUBTITLE:[unconnected];
#ARTIST:atmbzk;
#TITLETRANSLIT:;
#SUBTITLETRANSLIT:;
#ARTISTTRANSLIT:;
#GENRE:;
#CREDIT:;
#BANNER:kioku-banner.png;
#BACKGROUND:kioku-bg.png;
#LYRICSPATH:;
#CDTITLE:;
#MUSIC:kioku.mp3;
#OFFSET:1.800;
#SAMPLESTART:42.970;
#SAMPLELENGTH:12.000;
#SELECTABLE:YES;
#BPMS:0.000=70.005,18.000=59.005,20.000=280.020;
#STOPS:305.500=0.322
;
#BGCHANGES:0.000=kioku.avi=1.000=0=0=1=====,
99999=-nosongbg-=1.000=0=0=0 // don't automatically add -songbackground-
;
#KEYSOUNDS:;

//---------------dance-single - Blank----------------
#NOTES:
     dance-single:
     Blank:
     Challenge:
     12:
     0.941,1.000,0.649,0.509,0.070:
0000
0000
0000
0000
,
0000
0000
0000
0000
,
0000
0000
0000
0000
0000
0000
0000
0000
0000
0000
0000
0000
0000
0000
0000
0000
0000
0000
0000
0000
0000
0000
0000
0000
0001
0000
0000
0000
0100
0000
0001
1000
,
0001
0000
0000
0000
0000
0000
0000
0000
1000
0000
0100
0000
1000
0001
0000
0001
1000
0000
0000
0000
0000
0000
0000
0000
0001
0000
0010
0000
0100
1000
0100
0010
,
0001
0000
0000
0000
0000
0000
0000
0000
0000
2000
0000
0000
0000
0000
0000
0000
,
3010
0000
0100
0000
1100
0000
0000
0001
,
1000
0000
1001
0000
0100
0001
0000
0101
,
0000
0000
1000
0000
1010
0000
0000
0001
,
0010
0000
0011
0000
1000
0100
0000
1100
,
0000
0000
0001
0000
1001
0000
0000
0010
,
1000
0000
1010
0000
0001
0100
0000
0101
,
0000
0000
0010
0000
0110
0000
0000
0100
,
0001
0000
0101
0000
1000
0010
0000
1010
,
0000
0001
0100
0000
0101
0000
0010
0100
,
0001
0100
0010
0000
1000
0010
0000
1010
,
0000
1000
0100
0000
1100
0000
0001
1000
,
0100
1000
0001
0000
0100
0001
0000
0101
,
0000
0010
0100
0000
0110
0000
0010
1000
,
0001
1000
0010
0000
0100
0001
0000
0101
,
0000
0001
1000
0000
1001
0000
1000
0100
,
0001
0100
1000
0000
0010
0100
0000
0110
,
0000
0000
0001
0000
1000
0000
0000
0000
0002
0000
0000
0000
1003
0000
0100
0010
,
0100
0010
0100
0000
1000
0002
0000
1003
,
0000
0000
0010
0000
1000
0000
0000
0000
0020
0000
0000
0000
1030
0000
0001
0100
,
0001
0100
0001
0000
0010
0200
0000
0310
,
0000
0000
1000
0000
0001
0000
0000
0000
2000
0000
0000
0000
3001
0000
0010
0100
,
0010
0100
0010
0000
0001
2000
0000
3001
,
0000
0000
0100
0000
0001
0000
0000
0000
0200
0000
0000
0000
0301
0000
1000
0010
,
1000
0010
1000
0000
0100
0020
0000
0130
,
0000
0001
2000
0000
0020
0000
3030
0000
,
0001
1000
0100
0000
1100
1100
0000
1100
,
0000
1000
0002
0000
0200
0000
0303
0000
,
0101
0000
0101
0000
0000
0000
0000
1010
,
0000
0010
2000
0000
0002
0000
3003
0000
,
0011
0000
0011
0000
1000
0010
0000
1010
,
0000
1000
0001
0000
1001
0000
0001
0100
,
0001
0100
1000
0100
1000
0100
0000
0001
,
0100
1000
0001
0100
1000
0001
0100
1000
,
0001
0010
1000
0001
0010
1000
0001
0010
,
0100
1000
0001
0010
0100
1000
0001
0010
,
0100
1000
0100
0010
0001
0100
0001
0020
,
0000
1000
0000
1000
0000
1000
0000
0230
,
0000
0010
0000
0010
0000
0010
0000
2300
,
0000
0000
0001
0000
0000
3020
0000
0000
,
0000
1000
0000
1000
0000
0030
0000
1000
,
0010
0001
1000
0010
0001
1000
0010
0001
,
1000
0100
0001
1000
0100
0001
1000
0100
,
0010
0001
1000
0100
0010
0001
1000
0100
,
0010
0001
0010
0100
1000
0100
1000
0200
,
0000
0010
0000
0010
0000
0010
0000
0302
,
0000
0010
0000
0010
0000
0023
0000
0230
,
0000
0000
1000
0000
0000
0302
0000
1000
,
0000
0203
0000
0010
0000
0300
0000
0001
,
0010
0001
1000
0010
1000
0001
0010
0001
,
1000
0100
1000
0001
0100
0001
1000
0100
,
0001
0010
1000
0001
1000
0010
0001
0100
,
1000
0010
0100
0001
1000
0100
0010
0002
,
0000
0010
0000
0010
0000
0010
0000
0203
,
0000
1000
0000
1000
0000
1000
0000
0302
,
0000
0000
0010
0000
0000
0023
0000
0000
,
0000
0100
0000
0100
0000
0030
0000
1000
,
0100
1000
0001
0100
0001
1000
0100
1000
,
0001
0010
0001
1000
0010
1000
0001
0010
,
1000
0100
0001
1000
0001
0100
1000
0010
,
0001
0100
0010
1000
0001
0010
0100
2000
,
0000
0100
0000
0100
0000
0100
0000
3020
,
0000
0001
0000
0001
0000
0001
0000
2030
,
0000
0000
0100
0000
0000
3200
0000
0000
,
0000
0010
0000
0010
0000
0300
0000
0001
,
0100
0002
0000
1003
1000
0100
1000
0000
,
0010
1000
1000
0001
0100
0001
0100
0001
,
0010
0200
0000
0310
0010
0001
0010
0000
,
0100
1000
1000
0001
1000
0100
0000
0010
,
1000
2000
0000
3001
0001
0010
0100
0000
,
0010
0001
0001
1000
0001
1000
0100
1000
,
0010
0020
0000
0130
0100
0001
1000
0000
,
0001
1000
0100
1100
1000
0001
0002
0000
,
0103
0100
0010
1000
0000
0001
0001
0010
,
1000
0001
0010
1000
0100
0001
0002
0000
,
0103
0100
0010
0100
0000
0001
0001
1000
,
0010
0001
1000
0010
0001
0100
0200
0000
,
1300
1000
0010
1000
0000
0010
0010
1000
,
0100
0010
1000
0100
0010
0001
0002
0000
,
0103
0100
0001
0010
0100
0010
0001
0100
,
0001
1000
0100
0010
0001
0000
0100
0101
,
0000
0102
0000
1003
0010
0000
1000
0000
,
1010
1010
0000
1000
0100
0000
1000
1100
,
0000
2100
0000
3001
0010
0000
0100
0000
,
0110
0110
0000
0100
1000
0000
0001
1001
,
0000
1002
0000
1003
0010
0000
1000
0000
,
1010
1010
0000
0001
0010
0011
0000
0012
,
0000
0000
1003
1100
0000
1100
0000
0010
,
0100
0000
0110
0000
1000
0000
0010
1010
,
0000
2010
0000
3001
0100
0000
0001
0000
,
0101
0101
0000
0001
0010
0000
0001
0011
,
0000
0012
0000
1003
0100
0000
0010
0000
,
0110
0110
0000
0010
0001
0000
1000
1001
,
0000
2001
0000
3001
0100
0000
0001
0000
,
0101
0101
0000
1000
0100
1100
0000
2100
,
0000
0000
3001
0011
0000
0011
0000
0220
,
0000
0000
0000
0000
,
0000
0000
0000
0000
,
0000
0000
0000
0000
,
0000
0330
0000
0000
;
