#TITLE:Z2;
#SUBTITLE:;
#ARTIST:Devin Townsend Project;
#TITLETRANSLIT:;
#SUBTITLETRANSLIT:;
#ARTISTTRANSLIT:;
#GENRE:;
#CREDIT:;
#BANNER:Z2-banner.png;
#BACKGROUND:Z2-bg.png;
#LYRICSPATH:;
#CDTITLE:;
#MUSIC:Z2.mp3;
#OFFSET:-15.260;
#SAMPLESTART:137.010;
#SAMPLELENGTH:12.000;
#SELECTABLE:YES;
#BPMS:0.000=109.930,92.000=120.001,220.000=115.001,221.000=110.001,222.000=105.001,223.000=102.502,224.000=100.002,224.500=95.002,225.000=90.002,225.500=85.002,226.000=80.002,226.500=75.003,227.000=70.002,227.500=60.003,228.250=109.930,360.000=90.000;
#STOPS:;
#BGCHANGES:;
#KEYSOUNDS:;

//---------------dance-single - Blank----------------
#NOTES:
     dance-single:
     Blank:
     Challenge:
     12:
     1.000,1.000,0.614,1.000,1.000:
0000
0000
0000
0000
,
0000
0000
0000
0000
,
0000
0000
0000
0000
,
0000
0000
0000
0000
,
0000
0000
0000
0000
,
0000
0000
0000
0000
,
0000
0000
0000
0000
,
0000
0000
0000
0000
,
2000
3002
0023
0032
,
0203
0320
2030
3200
,
0302
0203
0320
0032
,
2003
3020
0230
0302
,
2003
3200
0320
0230
,
0302
0000
0000
0000
,
0000
0000
0000
0000
,
0103
1000
1000
0001
0001
1000
1000
0001
,
0001
1000
1000
0001
0001
1000
1000
0001
,
0100
0010
0010
0100
0100
0010
0010
0100
,
0001
0100
0100
0010
0010
0100
0100
0010
,
1000
0010
0010
1000
1000
0010
0010
1000
,
0010
1000
1000
0010
0010
1000
1000
0010
,
0100
0001
0001
1000
1000
0001
0001
1000
,
0010
0000
0000
1000
0100
1000
0100
0000
0000
0010
0000
0000
0001
0000
0000
1000
0000
0000
0001
0000
0000
0100
0000
0000
,
0101
0000
0010
0100
0010
0000
1000
0000
0020
0000
1030
0000
0020
0000
0230
0000
,
0001
0301
0010
0100
1000
0100
0010
0001
,
0011
0000
1000
0001
1000
0000
0010
0000
2000
0000
3100
0000
0020
0000
0031
0000
,
0100
0001
0100
0001
1000
0001
1000
0000
0010
0000
1000
0000
1020
0000
0000
0000
,
0130
0000
0001
0010
0001
0000
1000
0000
0020
0000
1030
0000
0002
0000
0203
0000
,
0010
0310
1000
0100
0010
0001
0001
0100
,
0001
0100
0001
0100
0010
0100
0010
1000
0010
1000
0001
1000
0001
1000
0100
1000
,
0100
0010
0010
0100
1000
1000
0100
0010
0010
0001
1000
1000
0002
0000
0000
0000
,
0103
0000
0010
1000
0001
0000
1000
0000
0020
0000
0031
0000
0020
0000
2030
0000
,
0001
3001
0100
0101
0001
1000
0100
2100
,
3001
0000
0100
0010
1000
0000
0100
0000
0020
0000
1030
0000
0020
0000
0031
0000
,
0001
0100
1000
0100
0010
1000
0100
0000
0010
0000
0001
0000
0012
0000
0000
0000
,
0103
0000
0001
1000
0010
0000
1000
0000
0002
0000
0013
0000
0200
0000
2300
0000
,
3010
0100
0001
0100
0010
0100
1000
0100
,
0010
1000
0010
1000
0001
1000
0001
0100
0001
0100
0010
0100
0010
1000
0001
1000
,
0001
0100
0100
0010
0100
0100
1000
0100
0100
0010
0100
0100
0002
0000
0000
0000
,
1003
0000
0000
0000
0000
0000
0010
0000
1000
0000
0010
0000
1000
0000
0000
0010
0000
0000
1000
0000
0000
0000
0000
0000
0010
0000
0000
0100
0000
0000
0010
0000
0000
0000
0000
0000
0100
0000
0000
0010
0000
0000
0100
0000
0000
0001
0000
0000
,
0100
0010
0100
1000
0100
0010
0100
0000
0001
0010
0100
0000
1000
0100
0010
0000
,
0001
0000
0000
0000
0000
0000
0100
0000
0001
0000
0100
0000
0001
0000
0000
0100
0000
0000
0001
0000
0000
0000
0000
0000
0100
0000
0000
0010
0000
0000
0100
0000
0000
0000
0000
0000
0010
0000
0000
1000
0000
0000
0010
0000
0000
1000
0000
0000
,
0100
0010
0001
0010
0100
0010
0100
0000
1000
0001
0100
0000
0010
1000
0001
0000
,
1000
0000
0000
0000
0000
0000
0001
0000
0010
0000
0001
0000
0010
0000
0000
0100
0000
0000
0010
0000
0000
0100
0000
0000
1000
0000
0000
0001
0000
0000
1000
0000
0000
0001
0000
0000
0100
0000
0000
0010
0000
0000
0100
0000
0000
0000
0000
0000
,
0010
1000
0100
0001
0100
1000
0100
0000
1000
0010
0001
0010
0100
0010
0100
0000
,
0001
0000
0000
0000
0000
0000
1000
0000
0010
0000
1000
0000
0010
0000
0000
0100
0000
0000
0010
0000
0000
1000
0000
0000
0001
0000
0000
1000
0000
0000
0100
0000
0000
0010
0000
0000
0100
0000
0000
0010
0000
0000
0001
0000
0000
0000
0000
0000
,
1000
0010
0100
0001
0010
0100
1000
0000
0010
1000
0100
0001
0100
0010
0001
0000
,
1000
0100
0010
0100
0100
1000
0100
0100
0010
0100
0100
0010
0001
0001
0010
0001
,
0100
0001
1000
1000
0001
1000
1000
0010
1000
1000
0010
1000
1000
0100
1000
1000
,
0010
0100
0010
0010
1000
0010
0010
0100
0010
0010
0001
0010
0010
1000
0010
0010
,
1010
0000
1000
0100
1000
0100
0001
0100
1100
0000
0001
0100
0001
0100
0010
0100
,
0010
1000
1010
0000
0001
1001
0000
1000
1001
0000
0001
1001
0000
1000
0001
0100
,
0101
0000
0010
0100
0010
0100
0010
1000
1010
0000
0001
1000
0001
1000
0100
1000
,
0010
0100
0110
0000
0100
0110
0000
0010
0110
0000
0100
0010
0100
0010
1000
0001
,
1001
0000
1000
0010
0100
0001
0100
0010
0110
0000
0010
1000
0001
0010
0100
1000
,
1100
0000
0100
0010
0001
0100
0001
0100
0101
0000
0010
1000
0100
0010
0001
0100
,
0010
0000
0000
1000
0000
0000
0100
0000
0000
0010
0000
0000
0001
0000
0000
0100
0000
0000
0010
0000
0000
1000
0000
0000
0100
0000
0010
0000
0001
0000
1000
0000
0100
0000
0010
0000
0001
0000
1000
0000
0001
0000
0010
0000
0100
0000
1000
0000
,
0001
0020
0000
0000
0000
0000
0000
0000
0000
0000
0000
0000
0000
0000
0000
0000
0000
0000
0000
0000
0000
0000
0000
0000
,
0031
0100
0001
0100
0000
0000
0020
0000
0000
1000
0000
0000
2030
0000
0000
0001
0000
0000
3002
0000
0000
0100
0000
0000
,
0203
0010
0320
1000
,
1030
0100
1000
0100
0000
0000
0010
0100
0010
0100
0000
0000
1000
0100
1000
0100
0000
0000
0010
0001
0010
0001
0000
0000
,
0100
0000
0000
0001
1000
0001
1000
0000
0000
0010
0000
0000
1000
0001
1000
0001
0000
0000
0100
0001
0100
0001
0000
0000
,
1000
0010
1000
0010
0000
0000
0200
0000
0000
0001
0000
0000
0302
0000
0000
1000
0000
0000
2003
0000
0000
0010
0000
0000
,
3020
0100
0230
0001
,
0302
0010
0010
0000
0020
0000
0003
0000
,
0230
1000
1000
0000
2300
0000
0001
0000
,
3010
0100
0010
0100
0000
0000
0020
0000
0000
1000
0000
0000
2030
0000
0000
0100
0000
0000
3200
0000
0000
0001
0000
0000
,
0302
0100
0203
0010
,
0310
0001
0010
0001
0000
0000
0100
0001
0100
0001
0000
0000
1000
0001
1000
0001
0000
0000
1000
0010
1000
0010
0000
0000
,
1000
0000
0000
0010
1000
0010
1000
0000
0000
0010
0000
0000
0100
0010
0100
0010
0000
0000
0100
0001
0100
0001
0000
0000
,
1000
0001
1000
0001
0000
0000
2000
0000
0000
0010
0000
0000
3020
0000
0000
0001
0000
0000
0032
0000
0000
0100
0000
0000
,
0203
1000
2300
0010
,
3020
0100
0100
0000
0200
0000
0030
0000
,
0320
1000
1000
0000
2030
0000
0001
0000
,
3001
0100
0001
0100
0000
0000
0020
0000
0000
0100
0000
0000
0130
0001
0100
0001
0000
0000
0100
0000
0000
0102
0000
0000
,
0000
0000
0000
0103
0010
0100
0010
0000
0000
0100
0001
0100
0001
0000
0000
1000
0001
1000
0001
0000
0000
1000
0100
1000
,
0100
0010
0100
0010
0000
0000
0012
0000
0000
1000
0000
0000
1003
0010
1000
0010
0000
0000
1000
0000
0000
2010
0000
0000
,
0000
0000
0000
3100
0010
0100
0010
0000
0000
0001
0100
0001
0100
0000
0000
0010
1000
0010
1000
0000
0000
0001
0100
0001
,
1000
0001
1000
0001
0000
0000
0200
0000
0000
0010
0000
0000
0310
1000
0010
1000
0000
0000
0010
0000
0000
2010
0000
0000
,
0000
0000
0000
3010
0100
0010
0100
0000
0000
0010
1000
0010
1000
0000
0000
0001
1000
0001
1000
0000
0000
0001
0010
0001
,
0010
0100
0010
0100
0000
0000
2100
0000
0000
0001
0000
0000
3001
0100
0001
0100
0000
0000
0001
0000
0000
0102
0000
0000
,
0000
0000
0000
0013
0100
0010
0100
0000
0000
1000
0010
1000
0010
0000
0000
0100
0001
0100
0002
0000
0000
0003
0000
0000
,
1000
0010
1000
0010
0000
0000
0100
0010
0100
0010
0000
0000
0100
0001
0100
0001
0000
0000
0010
0001
0010
0001
0000
0000
,
2000
0000
0000
3010
0100
0010
0100
0000
0000
0020
0000
0000
1030
0100
1000
0100
0000
0000
0010
0100
0010
0100
0000
0000
,
0200
1000
0010
0001
1000
0010
1000
0010
,
0001
0010
0010
1000
1000
0001
0002
0303
,
0000
0000
0000
0000
,
0000
0000
0000
0000
,
0000
0000
0000
0000
,
0000
0000
0000
0000
,
0000
0000
0000
0020
,
2230
0000
0300
0002
,
0020
0000
3000
0233
,
0320
2000
0032
3200
,
0023
2030
3002
2300
,
0023
0000
0000
3032
,
0200
0000
0020
0000
,
2000
0000
0000
0000
,
0000
0000
0000
0000
,
0000
0000
0000
0000
,
0000
0000
0000
0003
,
0030
0300
3000
0000
;
