#TITLE:I'll Fuck It;
#SUBTITLE:;
#ARTIST:Killbot;
#TITLETRANSLIT:;
#SUBTITLETRANSLIT:;
#ARTISTTRANSLIT:;
#GENRE:;
#CREDIT:;
#BANNER:i'll fuck it-banner.png;
#BACKGROUND:i'll fuck it-bg.png;
#LYRICSPATH:;
#CDTITLE:;
#MUSIC:i'll fuck it.mp3;
#OFFSET:-0.040;
#SAMPLESTART:21.370;
#SAMPLELENGTH:12.000;
#SELECTABLE:YES;
#BPMS:0.000=85.001,30.000=340.000,32.000=170.000;
#STOPS:30.000=1.060
,187.000=1.412
;
#BGCHANGES:;
#KEYSOUNDS:;

//---------------dance-single - Blank----------------
#NOTES:
     dance-single:
     Blank:
     Hard:
     10:
     1.000,1.000,1.000,1.000,1.000:
0000
0000
0000
0000
,
0000
0000
0000
0000
0000
0000
0000
1000
,
0001
1000
0000
0000
0000
0000
0100
0000
0001
0100
0000
0000
0000
0000
0100
0000
,
0010
0100
0000
0000
0000
0000
0100
0000
1000
0100
0000
0000
0000
0000
0001
0000
,
0012
0010
0003
0000
0102
0000
0103
0000
1002
1000
0003
0000
2010
0000
3010
0000
,
2100
0100
3000
0000
0210
0000
0310
0000
0021
0001
0030
0000
0102
0000
0103
0000
,
1000
0001
0100
0000
0001
1000
0100
0000
1000
0010
0001
0010
1000
0100
0001
0100
,
1000
0100
1000
0100
0010
0100
0010
0100
1000
0010
1000
0010
0100
0001
0100
0001
0200
0000
0000
0000
0000
0000
0000
0000
0300
0000
0000
0000
0000
0000
0000
0000
,
1200
0000
0000
0000
,
0320
0001
0230
0001
0320
0001
0032
0000
,
0103
1000
1000
1000
0100
0001
0002
0003
,
0100
0001
0001
0100
0010
0001
0001
0000
,
1010
0000
0000
0000
1100
0000
0000
0000
0110
0000
0000
0000
1002
0000
0000
0000
0000
0000
1000
0000
0000
1003
0000
0000
,
2010
0000
3002
0023
0000
2030
3200
0300
,
0010
1000
1000
1000
0010
0100
0110
0000
,
0010
0100
0210
0000
0302
0000
0000
0000
,
0023
0000
0000
0000
,
0230
1000
0320
1000
0032
0100
2003
3000
,
0010
0010
0010
0010
0100
0101
0101
0000
,
1000
1100
1100
0000
0001
0101
0101
0000
,
0110
0000
0000
0000
1010
0000
0000
0000
0011
0000
0000
0000
2001
0000
0000
0000
0000
0000
3010
0000
0000
0010
0000
0000
,
0201
0000
0320
0032
0000
2003
3100
0010
,
0001
0001
0001
0001
0200
0000
0320
0000
,
1030
1000
0001
0100
1000
0001
0010
1000
,
2010
0000
0000
3002
0000
0000
0023
0000
,
0000
0031
0001
0000
2020
0000
3030
0000
,
1000
0100
1000
2000
0000
3010
0100
1000
,
0012
0000
1003
0100
0011
0100
0100
0000
,
0110
0000
0000
0000
0101
0000
0000
0000
0011
0000
0000
0000
1200
0000
0000
0000
0000
0000
1300
0000
0000
1000
0000
0000
,
0201
0000
2300
3020
0000
0032
0103
0100
,
0001
0100
0001
0001
0002
0000
1003
0100
,
0120
0000
1030
0001
1010
0001
0001
0000
,
0012
0000
0000
0203
0000
0000
2300
0000
,
0000
3010
0010
0000
0011
0100
0001
0000
,
0010
0010
0010
2010
0000
3001
0100
1000
,
0011
0100
1000
0100
1010
0100
0001
0000
,
1010
0000
0000
0000
1001
0000
0000
0000
0101
0000
0000
0000
0110
0000
0000
1010
0000
0000
0110
0000
0000
0000
0000
0000
,
1001
0000
0110
1001
0110
0000
1000
0100
,
0011
0100
0011
0100
0012
0000
2003
0000
,
3001
0001
0100
0001
1000
0001
0001
1000
,
0002
0100
0100
0003
0010
0001
1000
0001
,
2000
3100
0200
0310
0020
0031
0002
0000
,
1003
0010
1000
0020
0000
1030
0001
1000
0001
2000
0000
3001
,
1001
0000
0100
0010
1010
0010
0100
0000
,
1010
0000
0000
0000
1001
0000
0000
0000
0101
0000
0000
0000
0110
0000
0000
1000
0000
0000
0001
0000
0000
1000
0000
0000
,
0200
0000
0320
0032
0000
0203
0310
1000
,
0010
0000
0010
0000
0210
0000
0000
0000
0310
0000
0010
0000
2020
3030
0000
0000
,
2000
0010
0010
3000
0001
0100
0010
0100
,
0020
1030
2000
3100
0200
0301
0002
0000
,
0103
0010
0100
0020
0000
0130
1000
0010
1000
0020
0000
0130
,
0101
0000
0010
1000
0101
0010
0001
0000
,
0101
0000
0000
0000
0011
0000
0000
0000
1100
0000
0000
0000
1001
0000
0000
0010
0000
0000
0001
0000
0000
0100
0000
0000
,
0020
0000
0032
0203
0000
2300
3010
0001
,
0011
0100
0110
0010
1100
0000
0002
0000
,
0103
0100
0010
1000
1000
1000
0001
1000
,
0010
0010
0001
0100
0000
0001
1000
0010
,
1000
0100
0001
0100
1000
0010
0001
0010
,
1000
1000
0010
0100
0000
0010
1000
0001
,
1000
0100
0010
0001
0100
0010
1000
0001
,
0100
0100
0001
1000
0000
0001
0010
0100
,
0001
0010
0100
0010
0001
1000
0100
0010
,
1000
1000
0010
0001
0000
0100
0001
1000
,
0001
0010
0001
0100
0001
1000
1000
1000
,
1010
0000
0001
0100
0000
0001
1000
0010
,
1000
0100
0001
0100
0010
0001
1000
0010
,
0110
0000
1000
0001
0000
1000
0010
1000
,
0100
1000
0001
1000
0001
0100
0010
0100
,
0010
0000
1000
0000
0010
0000
1000
0000
0001
0000
1000
0100
0001
0000
1000
0000
,
0100
0000
0001
0000
0100
0000
0001
0000
0010
0000
0001
1000
0010
0000
0001
0000
,
0010
0000
0100
0010
0001
0000
0100
1000
0010
0000
1000
0100
0010
0000
0100
0010
,
0220
0000
0000
0000
,
0000
0000
0000
0000
,
0330
0000
0000
0000
;
