#TITLE:I Only Wanna Be With You;
#SUBTITLE:;
#ARTIST:Volbeat;
#TITLETRANSLIT:;
#SUBTITLETRANSLIT:;
#ARTISTTRANSLIT:;
#CREDIT:;
#BANNER:iowbwy-banner.png;
#BACKGROUND:iowbwy-bg.png;
#LYRICSPATH:;
#CDTITLE:;
#MUSIC:I Only Wanna Be With You.ogg;
#OFFSET:0.000;
#SAMPLESTART:27.810;
#SAMPLELENGTH:12.000;
#SELECTABLE:YES;
#BPMS:0.000=135.000,32.000=140.000,64.000=137.500,144.000=138.500,160.000=140.000,192.000=138.000,208.000=138.500,232.000=137.000,240.000=137.500;
#STOPS:;
#BGCHANGES:;

//---------------dance-single - ----------------
#NOTES:
     dance-single:
     :
     Hard:
     9:
     0.542,0.558,0.417,0.391,0.000: // measure 1
0000
0000
0000
0000
,  // measure 2
0000
0000
0000
0000
,  // measure 3
0000
0000
0000
0000
,  // measure 4
0000
0000
0000
0000
,  // measure 5
0010
0100
0010
0100
0110
0000
0000
0000
,  // measure 6
0001
0010
0001
0010
0011
0000
0000
0000
,  // measure 7
1000
0010
1000
0010
1010
0000
0000
0000
,  // measure 8
0001
1000
0001
1000
1001
0000
1001
0000
,  // measure 9
1100
1100
0000
0001
0100
0010
0100
0010
,  // measure 10
0110
0110
0000
1000
0010
0001
0010
0001
,  // measure 11
0011
0011
0000
0100
0001
1000
0001
1000
,  // measure 12
1001
1001
0000
1000
1010
0000
1001
0000
,  // measure 13
0101
0101
0000
1000
0010
0100
0010
1000
,  // measure 14
1100
1100
0000
1000
0010
0100
0001
0010
,  // measure 15
0011
0011
0000
0100
0010
0001
1000
0010
,  // measure 16
0110
0110
0000
0100
0110
0000
1001
0000
,  // measure 17
0100
1000
0100
1000
0001
0100
0001
0100
,  // measure 18
0001
1000
0000
0002
0000
0000
0003
0100
,  // measure 19
0010
0100
0010
0100
0010
1000
0010
1000
,  // measure 20
0001
1000
0000
2000
0000
0000
3000
0100
,  // measure 21
0010
0000
0001
0001
0100
0200
0000
0000
,  // measure 22
0310
0100
0000
2001
0000
0000
3000
0010
,  // measure 23
0100
0001
0100
0001
1000
0100
1000
0100
,  // measure 24
0010
0100
0000
0020
0000
0000
0030
0001
,  // measure 25
0100
0000
0101
0000
1000
0001
0000
1002
,  // measure 26
0000
0000
0000
0103
0010
0100
0010
1000
,  // measure 27
0001
1000
1000
0100
0010
0010
0000
0012
,  // measure 28
0000
0000
0003
0100
0010
0000
0010
1000
,  // measure 29
0001
1000
0100
1000
0001
1000
0100
1000
,  // measure 30
0010
0100
0000
0200
0000
0000
0300
0010
,  // measure 31
1000
0001
0010
0001
1000
0001
0100
0001
,  // measure 32
0010
0100
0000
2000
0000
0000
3000
0010
,  // measure 33
0010
0000
0100
0001
1000
2000
0000
3001
,  // measure 34
0010
0001
0000
0201
0000
0000
0300
0010
,  // measure 35
0100
0001
0010
0100
1000
0010
0100
0001
,  // measure 36
0010
0100
0000
0020
0000
0000
0030
0001
,  // measure 37
0100
0000
0101
0000
0010
0100
0000
0020
,  // measure 38
0000
2030
0000
3001
0010
0100
1000
0010
,  // measure 39
0100
0010
1000
0100
0001
0200
0000
2300
,  // measure 40
0000
0000
0001
0001
0001
0001
0001
3001
,  // measure 41
0100
0001
0101
0000
1001
0000
1001
0000
,  // measure 42
1100
0000
1000
0020
0000
0032
0000
0203
,  // measure 43
0000
1300
0010
0001
1000
0000
0010
0002
,  // measure 44
0000
0000
0003
0000
0000
0000
0000
1000
,  // measure 45
0100
0200
0000
2300
0000
3002
0000
0203
,  // measure 46
0000
0320
0000
0230
0000
0000
0300
0010
,  // measure 47
0002
0000
0013
1000
0100
0020
0000
0032
,  // measure 48
0000
0000
1003
0100
1000
0010
1000
0010
,  // measure 49
0100
0001
1000
0001
1000
0100
0010
0100
,  // measure 50
0010
0001
0000
2000
0000
0000
3000
0010
,  // measure 51
0100
0001
0010
0100
1000
0100
0001
0100
,  // measure 52
0010
0100
0000
0020
0000
0000
0030
0001
,  // measure 53
2000
0000
3010
0100
0010
0020
0000
1030
,  // measure 54
0001
0020
0000
0230
0000
0000
0300
1000
,  // measure 55
0001
1000
0100
0001
0010
1000
0001
0100
,  // measure 56
1000
0020
0000
0032
0000
0000
0003
0100
,  // measure 57
0020
0000
2030
0000
3100
1100
0000
2010
,  // measure 58
0000
3002
0000
0103
0010
1000
0001
0010
,  // measure 59
0100
0100
1000
1000
0010
0020
0000
0230
,  // measure 60
0000
0001
0001
0010
0010
1000
1000
0310
,  // measure 61
0110
0110
0000
0001
0010
0001
1000
0100
,  // measure 62
1100
1100
0000
0001
1000
0001
0010
0100
,  // measure 63
1100
0110
0000
0001
0010
0100
1000
0100
,  // measure 64
0110
0011
0000
0001
0101
0000
0110
0000
,  // measure 65
2002
3003
0000
0000
;
