#TITLE:First of the Year;
#SUBTITLE:(Equinox);
#ARTIST:Skrillex;
#TITLETRANSLIT:;
#SUBTITLETRANSLIT:;
#ARTISTTRANSLIT:;
#CREDIT:;
#BANNER:;
#BACKGROUND:;
#LYRICSPATH:;
#CDTITLE:;
#MUSIC:First of the Year (Equinox) (DDR Edit).mp3;
#OFFSET:-0.030;
#SAMPLESTART:26.550;
#SAMPLELENGTH:13.400;
#SELECTABLE:YES;
#BPMS:0.000=145.000;
#STOPS:;
#BGCHANGES:;

//---------------dance-single - ----------------
#NOTES:
     dance-single:
     :
     Hard:
     12:
     0.642,0.654,0.613,0.657,0.666:
0000
0000
0000
0000
,
0000
0000
0000
0000
,
0000
0000
0000
0000
,
0000
0000
0000
0000
,
1000
0000
0010
0001
0000
0010
0001
0000
0000
0001
0000
0000
,
0100
0000
0000
0010
0001
0010
0200
0000
0010
0000
0310
1000
,
0010
0000
0000
0000
0100
0000
0000
0000
0100
0000
0000
0000
0102
0000
0000
0000
0000
0000
0000
0000
0000
1000
0003
0000
,
0010
0000
0000
0110
0000
0000
0110
0000
1000
0000
0001
0000
,
0011
0000
1000
0011
0000
0000
0102
0000
0000
1000
0000
1003
,
0010
0000
0000
0000
1000
0000
0100
0000
0001
0000
0100
0000
0020
0000
0000
0000
0000
0000
0000
0000
0000
0031
0000
0000
,
0101
0000
1000
1100
0000
0000
0210
0000
0000
0010
0000
1000
,
0310
0000
1000
0001
0010
0100
1100
0000
0001
1000
0001
0100
,
0110
0000
0001
1001
0000
0000
2100
0000
0000
0001
0000
3010
,
1010
0000
0001
1000
0100
0010
0001
0000
0000
0001
0010
0100
,
0002
0000
0000
0000
0100
0000
0000
0000
1000
0000
0000
0000
0023
0000
0000
0000
0000
0000
0000
0000
0000
0030
0000
0000
,
2200
0000
0000
0300
,
3001
0000
0000
0101
0000
0000
1001
0000
0000
0100
0100
0100
,
0120
0000
0000
1030
1000
1000
2100
0000
0000
0001
0000
0000
,
3010
0000
0000
0110
0000
0000
0201
0000
0000
0301
0001
0001
,
0012
0023
0230
2300
,
3002
0000
0000
0000
0000
0000
2003
0000
0000
3100
0100
0100
,
0010
0001
0010
0100
1000
0100
2100
0000
0000
0000
0000
0000
,
3001
0000
0000
0011
0000
0000
0110
0000
0000
1000
0100
0010
,
0110
0000
0000
0101
0000
0000
0200
0000
1300
0020
0000
0031
,
0100
0000
0000
1100
0000
0000
2001
0000
0000
3001
0100
0001
,
1000
0100
1000
0100
0010
0001
0200
0000
0000
0320
0000
0000
,
1030
0000
2100
0000
0000
0000
3200
0000
0000
0000
0000
0000
,
0320
0000
0000
2030
0000
0000
3020
0000
0000
0031
0001
0001
,
0020
0000
0000
0000
0000
0000
0032
0000
0000
1003
0010
1000
,
0001
0010
0001
0010
0100
1000
0020
0000
0000
0230
0000
0000
,
0301
0100
0001
0101
0000
0000
0120
0000
0000
1030
0100
1000
,
1100
0000
0000
0110
0000
0000
0002
0000
1003
0200
0000
0310
,
0001
0000
0100
0001
0000
0000
1000
0000
0000
0100
0000
0000
,
0010
0000
0000
0001
0000
0000
0201
0000
0000
0000
0310
0000
,
1000
0000
0010
0100
0000
0000
1000
0000
0000
0010
0000
0100
,
0001
0000
0000
0010
0000
1000
0100
0000
0010
0001
1000
0100
,
0010
0000
1000
0001
0000
1000
0001
0000
0000
0001
0000
0000
,
1000
0000
0000
0010
0001
0010
2000
0000
0010
0000
3010
0100
,
0010
0000
0000
0000
1000
0000
0000
0000
1000
0000
0000
0000
1002
0000
0000
0000
0000
0000
0000
0000
0000
0100
0003
0000
,
0010
0000
0000
1010
0000
0000
1010
0000
0100
0000
0001
0000
,
0011
0000
0100
0011
0000
0000
1002
0000
0000
0100
0000
0103
,
0010
0000
0000
0000
0100
0000
1000
0000
0001
0000
1000
0000
0020
0000
0000
0000
0000
0000
0000
0000
0000
0031
0000
0000
,
1001
0000
0100
1100
0000
0000
2010
0000
0000
0010
0000
0100
,
3010
0000
0100
0001
0010
1000
1100
0000
0001
0100
0001
1000
,
1010
0000
0001
0101
0000
0000
1200
0000
0000
0001
0000
0310
,
0110
0000
0001
0100
1000
0010
0001
0000
0000
0001
0010
1000
,
0002
0000
0000
0000
1000
0000
0000
0000
0100
0000
0000
0000
0023
0000
0000
0000
0000
0000
0000
0000
0000
0030
0000
0000
,
2200
0000
0000
3000
,
0301
0000
0000
1001
0000
0000
0101
0000
0000
1000
1000
1000
,
1020
0000
0000
0130
0100
0100
1200
0000
0000
0001
0000
0000
,
0310
0000
0000
1010
0000
0000
2001
0000
0000
3001
0001
0001
,
0012
0023
2030
3200
,
0302
0000
0000
0000
0000
0000
0203
0000
0000
1300
1000
1000
,
0010
0001
0010
1000
0100
1000
1200
0000
0000
0000
0000
0000
,
0301
0000
0000
0011
0000
0000
1010
0000
0000
0100
1000
0010
,
1010
0000
0000
1001
0000
0000
1000
0100
0001
1000
0010
0001
,
1000
0000
0000
1100
0000
0000
0201
0000
0000
0301
1000
0001
,
0100
1000
0100
1000
0010
0001
2000
0000
0000
3020
0000
0000
,
0130
0000
1200
0000
0000
0000
2300
0000
0000
0000
0000
0000
,
3020
0000
0000
0230
0000
0000
0320
0000
0000
0031
0001
0001
,
0020
0000
0000
0000
0000
0000
0032
0000
0000
0103
0010
0100
,
0001
0010
0001
0010
1000
0100
0020
0000
0000
2030
0000
0000
,
3001
1000
0001
1001
0000
0000
1020
0000
0000
0130
1000
0100
,
1100
0000
0000
1010
0000
0000
0002
0000
0103
2000
0000
0020
,
3030
0000
0000
0000
;
