#TITLE:Candy Kids;
#SUBTITLE:;
#ARTIST:Barely Alive & Datsik;
#TITLETRANSLIT:;
#SUBTITLETRANSLIT:;
#ARTISTTRANSLIT:;
#GENRE:;
#CREDIT:;
#BANNER:candy kids-banner.png;
#BACKGROUND:candy kids-bg.png;
#LYRICSPATH:;
#CDTITLE:;
#MUSIC:candy kids.mp3;
#OFFSET:-0.100;
#SAMPLESTART:54.890;
#SAMPLELENGTH:12.000;
#SELECTABLE:YES;
#BPMS:0.000=140.000;
#STOPS:123.750=1.714
;
#BGCHANGES:;
#KEYSOUNDS:;

//---------------dance-single - Blank----------------
#NOTES:
     dance-single:
     Blank:
     Challenge:
     10:
     1.000,1.000,0.700,1.000,0.744:
0000
0000
0000
0000
,
0000
0000
0000
0000
,
0000
0000
0000
0000
,
0000
0000
0000
0000
,
0000
0000
0000
0000
,
0000
0000
0000
0000
,
0000
0000
0000
0000
,
0000
0000
0000
0000
,
2010
0000
0000
0000
3010
0000
0100
0000
0210
0000
0000
0310
1000
0000
0001
0000
,
1000
0000
0000
1000
0000
0000
0100
0000
0000
0100
0000
0000
0010
0000
0010
0000
,
0012
0000
0000
0000
0103
0000
0010
0000
0120
0000
0000
1030
0100
0000
1000
0000
,
0001
0000
0000
0001
0000
0000
0010
0000
0000
0010
0000
0000
0100
0000
0100
0000
,
1200
0000
0000
0000
1300
0000
0010
0000
1010
0000
1000
0001
1000
0000
0001
0000
,
1000
0000
0000
1000
0000
0000
0010
0000
0000
0010
0000
0000
0100
0000
0100
0000
,
0201
0000
0000
0000
0310
0000
1000
0000
1010
0000
0001
1000
0001
0000
1000
0000
,
0001
0000
0000
0001
0000
0000
0100
0010
0100
0000
0100
0010
0000
0010
1000
0010
,
2000
0001
0001
0001
,
0001
0001
0001
0001
,
0010
0010
0010
0010
,
0010
0010
0010
0010
,
0100
0100
0100
0100
,
0100
0100
0100
0100
,
0001
0001
0001
0001
,
0001
0001
0001
3001
,
0201
0000
0000
0301
0100
0000
0100
0000
0001
0000
0001
0000
1000
0000
1000
0000
,
2001
0000
0000
3001
1000
0000
1000
0000
0001
0000
0001
0000
0010
0000
0010
0000
,
0012
0000
0000
0013
0001
0000
0001
0000
0010
0000
0010
0000
0100
0000
0100
0000
,
0120
0000
0000
0130
0010
0000
0010
0000
0100
0000
0100
0000
1000
0000
1000
0000
,
0020
0000
1030
0010
1000
0000
1000
0000
0001
0000
0001
0000
0010
0000
0010
0000
,
0002
0000
0103
0001
0100
0000
0100
0000
0010
0000
0010
0000
1000
0000
1000
0000
,
0001
0100
0001
0100
1000
0100
1000
0100
0002
0023
0032
0023
2030
3020
2030
3020
,
0032
0003
0101
0101
2000
3002
2003
3200
,
0320
0000
0000
0000
0001
0000
0000
0000
0130
0000
1000
0010
1000
0000
0001
0000
,
1000
0000
1000
0000
2000
0000
3000
0000
0101
0000
0010
0000
0100
0001
0000
0000
,
0101
0000
0000
0001
1000
0000
0001
1000
0001
0000
1000
0010
0000
1000
0010
1000
,
0020
1030
1010
1010
2000
3002
2003
3020
,
0230
0000
0000
0000
1000
0000
0000
0000
0310
0000
1000
0001
1000
0000
0001
0000
,
0010
0010
0020
0030
2200
3300
1100
1100
,
1010
0000
0000
0001
1000
0000
0001
0010
0001
0000
0100
0001
0000
0100
0001
0100
,
0020
0000
0000
0030
1100
0000
1100
0000
0002
0000
0023
0000
2030
0000
3200
0000
,
0302
0000
0000
0000
0010
0000
0000
0000
2003
0000
3010
0100
0010
0000
1000
0000
,
0001
0000
0001
0000
0002
0000
0000
0000
0103
0000
0101
0000
0001
1000
0000
0000
,
1001
0000
0000
0010
1000
0000
0100
1000
0100
0000
1000
0001
0000
0001
1000
0000
,
0200
0310
0110
0110
0020
2030
3200
0302
,
0023
0000
0000
0000
1000
0000
0000
0000
0230
0000
0301
0100
0001
0000
0010
0000
,
0100
0000
0100
0000
0200
0000
0000
0000
2300
0000
0000
3000
0011
0000
0011
0000
,
0001
0100
0001
0100
1000
0100
2000
0000
3100
0010
0200
0000
0310
1000
0010
1000
,
2200
3300
1100
1100
0010
0011
0100
0100
,
0100
0000
0000
0000
0010
0000
1000
0000
0001
0000
1000
0000
0001
0000
0000
0000
0100
0000
0001
0000
1000
0000
0001
1000
0001
0000
0100
0000
0001
0000
0000
0000
,
1000
0000
0010
0000
1000
0000
0010
0100
0010
0000
0100
0000
0010
0000
0000
0000
2000
0000
0000
0000
0000
0000
0000
0000
3002
0000
0000
0000
0000
0000
0000
0000
,
0013
0100
0010
0001
0010
1000
0010
0000
0001
0000
0001
0000
0100
0001
0000
0000
,
0012
0000
0000
0003
2010
0000
0000
3000
0220
0000
0000
0030
0301
0000
0001
0000
,
0010
0001
0100
0001
1000
0100
1000
0000
0200
0000
0310
0001
0010
0000
0001
0000
,
1000
1000
2000
3000
0210
0000
0001
0301
,
0120
0000
1000
1030
1020
0230
0302
1003
,
2010
0000
0000
3000
0201
0000
0000
0300
0021
0000
0000
0000
0130
0000
0100
0000
,
1000
0000
0001
0000
0010
0000
0001
0000
1000
0000
0100
0000
0010
0000
0000
0000
0001
0000
0100
0000
0001
0000
1000
0010
1000
0000
0001
0000
1000
0000
0000
0000
,
0100
0010
0001
0010
0100
0010
0100
0000
2000
0000
0000
0000
3020
0000
0000
0000
,
1030
0001
1000
0100
0001
0100
0010
0000
0100
0000
0010
0000
0001
0100
0000
0000
,
0210
0000
0000
0300
1020
0000
0000
0030
1002
0000
0000
0000
1003
0000
1000
0000
,
0010
0000
1000
0000
0100
0000
1000
0000
0001
0000
0100
0000
1000
0000
0000
0000
1200
0000
0000
0000
0000
0000
0000
0000
0301
0000
1000
0000
0001
0000
0010
0001
,
0010
0001
1000
0010
0001
0010
1000
0000
0012
0000
0000
0000
0013
0100
0010
0001
,
0010
0100
1000
0100
0010
0100
0010
0001
0200
0300
0200
0300
0200
0300
0200
0300
,
0020
0000
0130
0001
0020
0000
1030
0100
,
0000
0001
0010
1000
0200
0000
0301
0010
,
0002
0000
0000
0003
;
