#TITLE:Bad Maniacs;
#SUBTITLE:;
#ARTIST:kors k as teranoid;
#TITLETRANSLIT:;
#SUBTITLETRANSLIT:;
#ARTISTTRANSLIT:;
#GENRE:;
#CREDIT:;
#BANNER:bad maniacs-banner.png;
#BACKGROUND:bad maniacs-bg.png;
#LYRICSPATH:;
#CDTITLE:;
#MUSIC:bad maniacs.ogg;
#OFFSET:-0.400;
#SAMPLESTART:15.490;
#SAMPLELENGTH:12.000;
#SELECTABLE:YES;
#BPMS:0.000=97.500,24.500=780.000,28.000=195.000,184.000=48.750,188.000=195.000,228.000=390.000,252.000=195.000,256.000=390.000,352.000=97.500,370.000=780.000,386.000=97.500;
#STOPS:24.500=0.616
,119.500=1.231
,191.500=1.231
,195.500=1.231
;
#BGCHANGES:;
#KEYSOUNDS:;

//---------------dance-single - Blank----------------
#NOTES:
     dance-single:
     Blank:
     Challenge:
     13:
     0.924,1.000,0.622,0.171,0.439:
0000
0000
0000
0000
0000
0000
0000
0000
0000
0000
0000
0001
0000
0000
0000
0000
0000
0000
0000
0000
0000
0000
0000
0000
0000
0000
0000
0000
0000
0000
0000
1000
,
0000
0000
0000
0000
0000
0000
0000
0000
0000
0000
0000
0000
0000
0000
0000
0000
0000
0000
0000
0000
0000
0000
0000
0001
0000
0000
0000
0000
0000
0000
0000
0000
,
0000
0000
0000
0000
0000
0000
0000
0000
0000
0000
0000
0000
0000
1000
0000
0000
0000
0000
0000
0000
0000
0000
0000
0000
0000
0000
0000
0000
0000
0000
0000
0001
,
0000
0000
0000
0000
0000
0000
0000
0000
0000
0000
0000
0000
0000
0000
0000
1000
0000
0000
0000
0000
0000
0000
0000
0000
0000
0000
0000
0000
0000
0000
0000
0001
,
0000
0000
0000
0000
0000
0000
0000
1000
0000
0000
0000
0000
0000
0000
0001
0000
,
0000
0000
0000
0000
0000
0000
0000
1000
0000
0000
0000
0000
0000
0000
0000
0000
0001
0000
0000
0000
0000
0000
0000
0000
2000
0000
0000
0000
0000
0000
0000
0000
,
0000
3000
0001
0000
1000
0000
0001
0000
,
1001
0000
0000
0000
0101
0000
0001
1000
0001
0000
1000
0000
0010
0000
1000
0000
,
0100
0000
0001
0100
1000
0000
0010
1000
0002
0000
0000
0000
0103
0000
0100
0000
,
0110
0000
0000
0000
1010
0000
1000
0010
1000
0000
0010
0000
1000
0001
1000
0001
,
1000
0000
0100
0000
1000
0010
1000
0010
0200
0000
0000
0000
0301
0000
0000
0000
,
0110
0000
0000
0000
0011
0000
0010
0100
0010
0000
0100
0000
1000
0000
0100
0000
,
0001
0000
0010
0001
0100
0000
1000
0100
0020
0000
0000
0000
0031
0000
0001
0000
,
1001
0000
0000
0000
1100
0000
0100
1000
0100
0000
1000
0000
0100
0010
0100
0010
,
0100
0000
0001
0000
0100
1000
0100
1000
0002
0000
0000
0000
0013
0000
0000
0000
,
1100
0000
0000
0000
1001
0000
0100
0001
0100
0000
0010
0000
1000
0000
1000
0000
,
0001
0000
0001
0000
0010
0000
0010
0000
1000
0000
1000
0000
0100
1000
0100
0000
,
0101
0000
0000
0000
0011
0000
1000
0010
1000
0000
0001
0100
0001
0000
1000
0000
,
0010
0000
0010
0000
0100
0000
0100
0000
0001
0000
0001
0000
1000
0100
1000
0000
,
0101
0000
1000
0000
1100
0000
0001
0010
0001
0000
1000
0010
1000
0000
0001
0000
,
1000
0000
1000
0000
0100
0000
0100
0000
0001
0000
0001
0000
0010
1000
0010
1000
,
0100
0000
0000
1100
0000
0000
1001
0000
0000
0011
0000
0000
0101
0000
0000
0110
,
0000
0000
1100
0000
0000
0110
0000
0000
0011
0000
0000
0000
0200
0000
0000
0000
,
0310
1000
0010
0000
0100
0000
0010
1000
0010
0000
0100
0000
0010
1000
0010
0000
,
0100
0010
0100
0000
0020
0000
0000
0000
2030
0000
0000
0000
3200
0000
0000
0000
,
0310
0001
0010
0000
1000
0000
0010
0001
0010
0000
1000
0000
0010
0001
0010
0000
,
1000
0010
1000
0000
0020
0000
0000
0000
0032
0000
0000
0000
2003
0000
0000
0000
,
3100
1000
0100
0000
1100
0000
0010
0000
0100
1000
0100
0000
1100
0000
0010
0000
,
0100
0001
0100
0000
0101
0000
1000
0000
0100
0001
0100
0000
0101
0000
1000
0000
,
0100
0010
1000
0000
1010
0000
0100
0000
0010
0001
0100
0000
0101
0000
0200
0300
,
0010
1000
0010
1000
1100
0000
0001
0100
,
0001
0100
0110
0000
2010
0000
3001
0000
,
0001
0010
0001
0100
0101
0101
0010
0010
,
0001
1000
0001
1000
2100
0000
3010
0010
,
1000
0100
1000
0001
0101
0000
0110
1000
,
0001
1000
2100
0000
3001
0000
0102
0000
,
1003
0010
1000
0010
0110
0110
0100
0001
,
0001
1000
0001
1000
0002
0000
0000
0000
0103
0000
0000
0000
0010
0000
0000
0000
,
1010
0100
1000
0100
1010
0100
0001
0100
,
1010
0100
1000
0100
1010
0100
0001
0100
,
1010
0001
1000
0001
0101
1000
0001
1000
,
0011
1000
0001
1000
1010
0001
1000
0001
,
0100
0001
0010
0100
1010
0001
1000
0100
,
0010
0001
1100
0001
0010
0100
0011
0100
,
0010
1000
0001
1000
1100
0010
0001
0100
,
0001
0101
0100
0110
0010
1010
1000
1001
,
0102
0000
0000
0000
0000
0000
0000
0003
,
1000
0001
1000
0000
0001
0000
1000
0000
0100
1000
0100
0000
1000
0001
0001
0000
,
0010
0001
0100
0000
0010
0000
0100
0000
0010
1000
0010
0000
1000
0100
0100
0000
,
1000
0100
1000
0100
1000
0000
0001
1000
0001
1000
0001
0000
0100
0001
0100
0000
,
0010
1000
0010
1000
0010
0000
0100
0001
0100
0001
0100
0000
0010
0100
0010
0000
,
0100
0001
0100
0001
0100
0000
0001
1000
0001
1000
0001
0000
1000
0010
1000
0000
,
0010
1000
0010
1000
0010
0000
0100
1000
0100
1000
0100
0000
0001
0010
0001
0000
,
0100
0001
0100
0000
0010
0000
0100
0000
0010
1000
0010
0000
1000
0000
0100
0000
,
0010
0001
0010
0000
0001
0000
0100
0000
0001
1000
0001
0000
1000
0000
0100
0000
,
0010
0000
0000
0100
0000
0000
0010
0000
0000
0000
0000
0000
0001
0000
0000
0100
0000
0000
0001
0000
0000
0000
0000
0000
1000
0000
0000
0010
0000
0000
1000
0000
0000
0010
0000
0000
1000
0000
0000
0000
0100
0000
0000
0000
0010
0000
0000
0000
,
0001
1000
0010
0001
1000
0100
0010
1000
0001
0020
0000
0000
,
1030
0001
1000
0000
0001
0000
0100
0000
,
0001
0000
0010
0000
0100
0001
0010
0001
,
0010
0100
0010
1000
0010
0000
0001
0100
,
0001
0010
0001
1000
0001
0010
0001
0000
,
0011
1000
0010
1000
,
0100
0000
1000
0000
0010
0001
1000
0100
,
1000
0001
1000
0010
1000
0000
0100
0010
0001
0010
0100
1000
0100
0010
0001
0010
,
0100
1000
0100
0000
0010
0000
0001
0000
,
0100
0000
0001
1000
0001
1000
0100
1000
,
0100
0010
0100
0010
0100
0000
0010
0001
,
0100
0001
0100
0010
1000
0010
1000
0000
,
1010
0100
0001
1000
,
0100
0000
1000
0010
1000
0100
1000
0001
,
0100
0001
0010
0001
0100
0000
0010
1000
,
0100
0001
0100
0010
0001
0010
0100
1000
,
1100
0001
1000
0001
,
0011
0000
1000
0000
0010
0000
0100
0010
,
1000
0100
1000
0001
1001
0000
0001
0100
,
0001
1000
1001
0000
0001
0100
0001
0100
,
0110
0001
1000
0100
,
0011
0000
0100
0000
0010
0000
0100
0001
,
1000
0001
1000
0010
1010
0000
0100
0010
,
0100
0010
0110
0000
0100
0001
1000
0001
,
1001
0100
0010
0100
,
0101
0000
0010
0000
0001
0000
1000
0001
,
0010
1000
0010
0100
0010
1000
0100
1000
,
0100
0010
0100
1000
0100
1000
0100
1000
,
1001
0100
0010
1000
,
0101
0000
1000
0000
0001
0000
1000
0100
,
0010
0100
0010
0001
0010
0100
1000
0001
,
1000
0001
1000
0010
1000
0100
0010
0100
,
0011
0000
0000
0000
,
0000
0000
0000
0000
,
0000
0000
0000
0000
,
0000
0000
0000
0000
,
0000
0000
1000
0100
,
0010
0001
1000
0100
,
0010
0001
1000
0100
,
0010
0001
1000
0100
,
0010
0001
1100
0000
;
