#TITLE:vanessa (vers. 2);
#SUBTITLE:IIDX GOLD extra stage;
#ARTIST:dj yoshitaka;
#TITLETRANSLIT:;
#SUBTITLETRANSLIT:;
#ARTISTTRANSLIT:;
#GENRE:;
#CREDIT:dimo;
#BANNER:vanessa.png;
#BACKGROUND:vanessa-bg.png;
#LYRICSPATH:;
#CDTITLE:!dimotitle.png;
#MUSIC:beatmania IIDX 14 GOLD - VANESSA.ogg;
#OFFSET:0.558;
#SAMPLESTART:20.120;
#SAMPLELENGTH:12.000;
#SELECTABLE:YES;
#DISPLAYBPM:185.000;
#BPMS:0.000=185.000,252.000=370.000,253.000=185.000,253.500=370.000,263.833=185.000;
#STOPS:4.500=4.600
,22.000=0.973
,92.000=0.324
,99.000=0.324
,122.000=0.324
,129.000=0.324
,251.000=0.973
,252.000=0.054
,252.333=0.054
,252.667=0.054
,253.000=0.054
,253.167=0.054
,253.333=0.054
,253.500=0.054
,253.833=0.054
,254.167=0.054
,254.500=0.054
,254.833=0.054
,255.167=0.054
,255.500=0.054
,255.833=0.054
,256.167=0.054
,256.500=0.054
,256.833=0.054
,257.167=0.054
,257.500=0.054
;
#BGCHANGES:0.000=beatmania IIDX 14 GOLD VANESSA.avi=1.000=1=0=0=StretchNoLoop==CrossFade==,
261.000=vanessa-bg.png=1.000=0=0=1=====,
99999=-nosongbg-=1.000=0=0=0 // don't automatically add -songbackground-
;
#KEYSOUNDS:;

//---------------dance-single - dimo----------------
#NOTES:
     dance-single:
     dimo:
     Challenge:
     12:
     1.000,0.348,0.148,0.423,1.000:
0000
0000
0000
0000
,
0000
0000
0000
0000
0000
0000
0000
0000
2002
0000
0000
0000
0000
0000
0000
0000
0000
0000
0000
0000
0000
0000
0000
0000
0MM0
3003
0000
0000
0000
0000
0000
0000
0000
0000
0000
0000
0000
0000
0000
0000
0000
0000
0000
0000
0000
0000
0000
0000
0000
0000
0000
0000
0000
0000
0000
0000
0000
0000
0000
0000
0000
0000
0000
0000
0000
0000
0000
0000
0000
0000
0000
0000
0000
0000
0000
0000
0000
0000
0000
0000
0000
0000
0000
0000
0000
0000
0000
0000
0000
0000
0000
0000
0000
0000
0000
0000
1000
0000
0000
0000
0000
0000
0000
0000
0000
0000
0000
0000
0000
0000
0000
0000
0100
0000
0000
0000
0000
0000
0000
0000
0000
0000
0000
0000
0000
0000
0000
0000
1000
0000
0000
0000
0000
0000
0000
0000
0000
0000
0000
0000
0000
0000
0000
0000
0100
0000
0000
0000
0000
0000
0000
0000
0000
0000
0000
0000
0000
0000
0000
0000
0010
0000
0000
0000
0000
0000
0000
0000
0000
0000
0000
0000
0000
0000
0000
0000
0100
0000
0000
0000
0000
0000
0000
0000
0000
0000
0000
0000
0000
0000
0000
0000
,
0010
0001
0010
0001
0010
0001
0100
0010
1000
0100
0010
0001
,
0100
0010
1000
0100
1000
0001
0100
0001
0010
0100
1000
0100
,
0001
0100
1000
0100
0010
0001
0010
0001
0100
0010
1000
0001
,
1000
0001
0100
0010
1000
0001
1MM1
0000
0000
0100
0010
1000
,
0100
0010
0100
1000
0010
0100
0001
0010
0100
0100
0010
0001
,
0100
0010
0100
0001
0010
0001
0100
0010
0100
0001
0010
0001
,
0100
0010
0100
0001
0010
0001
1000
0100
0010
0001
0010
0100
,
1000
0010
1000
0100
0010
0100
1000
0010
1000
0100
0010
0100
,
1000
0010
1000
0100
0010
0100
1000
0010
1000
0100
0010
0001
,
1000
0100
1000
0010
1000
0001
0010
0100
0010
0001
0100
1000
,
0100
0001
0010
0100
0010
0001
0100
0001
1000
0100
0001
0100
,
1000
0010
1000
0001
1000
0010
1000
0001
0010
0100
0010
0001
,
1000
0000
0000
1MM1
0000
0000
0010
0001
0100
0010
0100
0001
,
0010
0001
0100
0010
0100
0001
0010
0001
0100
0010
0100
0001
,
0010
0001
1000
0100
0010
0001
0010
0100
1000
0010
1000
0100
,
0010
0100
1000
0010
1000
0100
0010
0100
1000
0010
1000
0100
,
0010
0100
1000
0010
1000
0010
1000
0100
0010
0001
1000
0100
,
0010
0001
1000
0100
1000
0010
0100
0001
0010
0100
0010
0001
,
0010
0100
1000
0100
1000
0010
0100
0001
0100
0010
1000
0010
,
1000
0001
0100
0010
1000
0001
1000
0100
0001
0100
1000
0100
,
0010
0001
0010
0100
0010
0001
1000
0010
1000
0100
1000
0001
,
MM11
0000
0000
0010
0100
1000
0010
0100
0001
0010
0100
1000
,
0001
1000
0100
0010
0001
1000
0001
0010
0100
11MM
0000
0000
,
1000
0001
1000
0010
1000
0001
1000
0001
0100
0001
0010
0001
,
1000
0100
1000
0001
1000
0100
1000
0001
0010
0001
0010
0100
,
1000
0001
1000
0100
0010
0100
0001
0100
1000
0001
0010
0100
,
1000
0001
0100
0001
0010
0001
1000
0100
1000
0001
1000
0100
,
0010
0001
0010
0001
0100
0010
1000
0100
0001
0100
1000
0100
,
0010
0001
1000
0010
1000
0001
1MM1
0000
0000
1000
0100
1000
,
0010
0100
0001
0010
0100
1000
0001
1000
0100
0010
0001
1000
,
0001
0010
0100
M11M
0000
0000
0010
0001
1000
0100
1000
0001
,
0010
0100
0010
0001
1000
0010
1000
0001
0100
0001
1000
0100
,
1000
0001
0010
0001
1000
0001
1000
0100
1000
0100
0010
0001
,
0010
0100
1000
0001
0010
0100
0010
0001
0100
0001
0010
0001
,
1000
0000
0100
0000
1000
0000
0001
0000
1000
0000
0100
0000
0010
0000
1000
0000
0010
0000
0002
0003
0020
0030
0200
0300
,
2000
3000
0000
0000
0000
0000
2020
3030
0000
0000
0000
0000
0220
0330
0000
0000
0200
0300
0002
0003
0000
0000
0002
0003
,
0020
0030
0000
00M0
0000
0000
0000
0000
0000
0000
0000
0000
0200
0300
0000
0000
2000
3000
0020
0030
0000
0000
0020
0030
,
2000
3000
0000
0000
0002
0003
0000
000M
0000
0000
0000
0000
0002
0003
0000
0000
0200
0300
0002
0003
0000
0000
0002
0003
,
0020
0030
0000
0000
0000
0000
0220
0330
0000
0MM0
0000
0000
0200
0300
0000
0000
0200
0300
2000
3000
0000
0000
2000
3000
,
0002
0003
0000
0000
0202
0303
0000
0000
0000
0000
2000
3000
2200
0000
0000
0000
3300
0000
MM01
0000
0010
0000
0001
0000
,
0010
0100
0001
0100
1000
0001
0010
0100
0010
0001
1000
0010
,
0100
0001
0010
0100
1000
0100
1000
0001
0010
0001
1000
0100
,
0010
0100
1000
0001
0010
0001
1000
0010
0100
0001
0010
0010
,
0100
1000
1000
0010
0100
0100
0001
0010
0010
0001
0100
0010
,
1000
1000
0100
0010
0001
0010
0001
0010
0100
0010
0001
0100
,
0010
0100
0001
0010
0001
0100
0010
0100
0001
0010
0001
0100
,
0010
0100
0001
0010
0001
1000
0100
0010
0001
0010
0100
1000
,
0010
1000
0100
0010
0100
1000
0010
1000
0100
0010
0100
1000
,
0010
1000
0100
0010
0100
1000
0010
1000
0010
1000
0100
0010
,
0001
1000
0100
0010
0001
1000
0100
1000
0010
0100
0001
0010
,
0100
0010
0001
0010
0100
1000
0100
1000
0010
0100
0001
0100
,
0010
1000
0010
1000
0001
0100
0010
1000
0001
1000
0010
1000
,
0100
0000
0000
M11M
0000
0000
0100
0010
0001
0010
0001
0100
,
0010
0100
0001
0010
0001
0100
0010
0100
0001
0010
0001
0100
,
0010
0100
0001
0010
0001
1000
0100
0010
0001
0010
0100
1000
,
0010
1000
0100
0010
0100
1000
0010
1000
0100
0010
0100
1000
,
0010
1000
0100
0010
0100
1000
0010
1000
0010
1000
0100
0010
,
0001
1000
0100
0010
0001
1000
0100
1000
0010
0100
0001
0010
,
0100
0010
0001
0010
0100
1000
0100
1000
0010
0100
0001
0100
,
0010
1000
0010
1000
0001
0100
0010
1000
0001
1000
0100
0001
,
0100
0000
0000
0000
0000
0000
0000
0000
0000
0000
0000
0000
0000
0000
0000
0000
1000
0000
0000
0000
0000
0000
0000
0000
0000
0000
0000
0000
0000
0000
0000
0000
0100
0000
0000
0000
0000
0000
0000
0000
0000
0000
0000
0000
0000
0000
0000
0000
0010
0000
0000
0000
0000
0000
0000
0000
0000
0000
0000
0000
0000
0000
0000
0000
0001
0000
0000
0000
0000
0000
0000
0000
0000
0000
0000
0000
0000
0000
0000
0000
0010
0000
0000
0000
0000
0000
0000
0000
0000
0000
0000
0000
0000
0000
0000
0000
0100
0000
0000
0000
0000
0000
0000
0000
0000
0000
0000
0000
0000
0000
0000
0000
0010
0000
0000
0000
0000
0000
0000
0000
0000
0000
0000
0000
0000
0000
0000
0000
0001
0000
0000
0000
0000
0000
0000
0000
0000
0000
0000
0000
0000
0000
0000
0000
2000
3000
0000
0000
0000
0000
0000
0000
0000
0000
0000
0000
0000
0000
0000
0000
0000
0000
0000
0000
0000
0000
0000
0000
0000
0000
0000
0000
0000
0000
0000
0000
0000
0000
0000
0000
0000
0000
0000
0000
0000
0000
0000
0000
0000
0000
0000
0000
,
2002
0M00
0M00
0M00
0M00
0M00
00M0
00M0
00M0
00M0
0M00
0M00
0M00
0M00
0M00
00M0
00M0
00M0
00M0
00M0
0M00
0M00
0M00
0M00
0M00
00M0
00M0
00M0
00M0
00M0
0M00
0M00
,
0M00
0M00
0M00
00M0
00M0
00M0
00M0
00M0
0M00
0M00
0M00
0M00
0M00
00M0
00M0
00M0
00M0
0M00
0M00
0M00
0M00
0M00
0000
0000
0000
0000
0000
0000
0000
0000
0000
0000
,
0000
0000
0000
0000
0000
0000
0000
3003
;
