#TITLE:laser cruster;
#SUBTITLE:IIDX GOLD;
#ARTIST:L.E.D.;
#TITLETRANSLIT:;
#SUBTITLETRANSLIT:;
#ARTISTTRANSLIT:;
#GENRE:;
#CREDIT:thx for half of it cody;
#BANNER:laser cruster.png;
#BACKGROUND:laser cruster-bg.png;
#LYRICSPATH:;
#CDTITLE:!dimotitle.png;
#MUSIC:laser cruster.ogg;
#OFFSET:-3.223000;
#SAMPLESTART:101.019997;
#SAMPLELENGTH:15.620000;
#SELECTABLE:YES;
#DISPLAYBPM:152.000000;
#BPMS:0.000000=151.979996
,176.000000=75.989998
,184.000000=151.979996
;
#STOPS:
;
#BGCHANGES:;
#KEYSOUNDS:;
#ATTACKS:;

//---------------dance-single - dimo----------------
#NOTES:
     dance-single:
     dimo:
     Challenge:
     13:
     1.126095,1.140261,0.116534,0.507754,1.926967,947.000000,933.000000,14.000000,61.000000,24.000000,0.000000,1.126095,1.140261,0.116534,0.507754,1.926967,947.000000,933.000000,14.000000,61.000000,24.000000,0.000000:
0000
0000
0000
0000
,
0000
0000
0000
0000
,
0000
0000
0000
0000
,
0000
0000
0000
0000
,
2004
0000
0000
0000
0000
3003
0204
0000
0000
0000
0000
0000
0000
0000
0303
0000
,
4200
0000
0000
0000
0000
3300
0402
0000
0000
0000
0000
0000
0000
0000
0303
0000
,
0001
1000
0001
1000
0001
1000
0001
1000
0001
1000
0001
1000
0001
1000
0001
1000
,
1001
0000
0000
0001
0100
0000
0110
0000
0000
1000
0100
0000
0110
0000
0100
0010
,
0001
0100
0010
0100
0010
0100
0001
0100
0010
0100
0010
0100
0001
0010
0100
1000
,
0010
1000
0001
1000
0001
1000
0100
1000
0001
1000
0001
1000
0010
0100
0010
1000
,
0100
1000
0010
1000
0010
1000
0001
1000
0010
1000
0010
0100
0001
0010
0001
0100
,
0010
0100
0001
0100
0001
0100
0010
0100
0001
0100
0001
0100
0001
1000
0001
0010
,
0001
0010
0100
0010
0100
1000
0001
0010
0100
0010
0100
1000
0001
0010
0100
1000
,
0010
0100
0001
1000
0001
1000
0010
0100
0001
1000
0001
1000
0010
0100
0001
1000
,
0100
1000
0001
0010
0001
0010
0100
1000
0001
0010
0001
0010
0100
1000
0001
0010
,
0100
1000
0100
0010
0001
0100
0010
1000
0010
0100
0001
0010
0100
1000
0010
0100
,
0010
0100
0001
0010
0100
0010
0001
1000
0100
1000
0100
1000
0010
0100
0001
0010
,
0100
1000
0100
0010
0100
1000
0001
0100
0001
1000
0100
1000
0010
0100
0001
0010
,
0100
0010
0100
1000
0001
1000
0100
1000
0010
0100
0001
0100
0010
1000
0100
0010
,
0001
1000
0010
1000
0010
0100
0010
0100
0001
0010
0100
0010
0001
0100
0010
1000
,
0002
0003
0100
0000
0010
0000
1000
0000
0100
0000
0010
0000
0200
0300
0010
0000
0001
0000
0100
0000
0010
0000
0100
0000
0010
0000
1000
0000
0100
0000
1000
0000
,
0200
0300
0010
0000
0100
0000
0010
0000
0001
0000
0100
0000
0002
0003
0010
0000
0100
0000
0010
0000
0100
0000
1000
0000
0010
0000
0100
0000
0001
0000
1000
0000
,
0020
0030
0100
0000
0001
0000
0010
0000
0100
0000
1000
0000
0200
0300
1000
0000
0010
0000
0100
0000
0001
0000
0010
0000
0100
0000
1000
0000
0010
0000
0100
0000
,
0020
0030
0100
0000
0010
0000
0100
0000
0001
0000
0100
0000
0020
0030
0100
0000
0010
0000
1000
0000
0010
0000
0100
0000
0010
0000
0100
0000
0001
0000
0100
0000
,
0020
0100
0130
0001
1000
0001
0020
0000
,
0130
0000
0000
1000
0000
0000
0001
0000
0000
1000
0000
0000
0010
0000
0000
0100
0001
0100
0010
0000
0000
1000
0000
0000
,
0101
0000
0000
1100
0000
0000
0100
0000
0000
0010
0000
0000
0001
0000
0000
0100
0000
0000
0010
0000
0000
0100
0001
1000
,
0001
0000
1000
0010
0100
0000
0011
0000
0010
0100
1000
0000
1001
0000
0100
0010
,
0100
0010
1000
0100
0010
0100
0010
0001
0100
0010
0100
0010
1000
0010
0100
0010
,
0100
0000
0001
0000
0100
0000
0010
0000
1000
0000
0100
0000
0010
0000
0100
0000
0010
0000
0100
0000
1000
0000
0010
0000
0100
0000
0001
0000
1000
0001
1000
0001
,
0100
0000
0000
0001
0000
0000
0100
0000
0000
0010
0000
0000
1000
0000
0000
0100
0000
0000
0010
0000
0000
0001
0000
0000
1000
0000
0000
0100
0000
0000
0010
0000
0000
0100
0000
0000
1000
0000
0001
0000
1000
0000
0100
0000
0000
1000
0000
0000
,
0100
0010
0001
0100
0010
0100
0001
0010
0001
0100
0010
1000
0100
1000
0001
0010
,
0200
0000
0320
0000
0032
0000
1003
0001
0100
0001
1000
0100
0010
0001
0100
0001
,
0100
0000
0010
0000
1000
0000
0100
0000
1000
0000
0001
0000
0100
0000
0010
0000
1000
0000
0001
0000
0100
0000
0010
0000
1000
0000
0001
0000
1000
0010
1000
0010
,
1000
0000
0000
0010
0000
0000
0100
0000
0000
0001
0000
0000
0010
0000
0100
0000
1000
0000
0100
0000
1000
0000
0100
0000
1000
0000
0000
0010
0000
0000
1000
0000
0000
0100
0000
0000
0010
0000
0000
0001
0000
0000
0100
0000
0000
0010
0000
0000
,
1000
0010
0100
0001
0100
0010
1000
0001
0010
0100
1000
0001
0100
0010
1000
0001
,
0020
0030
0002
0003
0200
0300
0020
0030
2000
3000
2000
3000
M000
0000
0002
0003
,
1000
0010
0200
0300
0200
0300
0M01
0010
0002
0003
0002
0003
100M
0010
0100
0001
,
0010
0000
0100
0000
1000
0000
0010
0000
0100
0000
0001
0000
2000
0000
0000
3000
0000
0000
2000
0000
0000
3000
0000
0000
M010
0000
0000
0100
0000
0000
0010
0000
0000
0100
0000
0000
0001
0000
0000
0010
0000
0000
0100
0000
0000
1000
0000
0000
,
0200
0000
0000
0000
0000
0000
0000
0000
0000
0000
0000
0000
0300
0000
0000
0000
0000
0000
0000
0000
0000
0000
0000
0000
0200
0000
0000
0000
0000
0000
0000
0000
0000
0000
0000
0000
0300
0000
0000
0000
0000
0000
0000
0000
0000
0000
0000
0000
0M10
0000
0000
0000
0000
0000
0000
0000
0001
0000
0000
0000
0000
0000
0000
0000
0010
0000
0000
0000
0000
0000
0000
0000
0001
0000
0000
0000
0000
0000
1000
0000
0000
0000
0000
0000
0001
0000
0000
0000
0000
0000
1000
0000
0000
0000
0000
0000
0001
0000
0000
0000
0000
0000
0000
0000
0000
0000
0000
0000
0100
0000
0000
0000
0000
0000
0000
0000
0000
0000
0000
0000
0001
0000
0000
0000
0000
0000
0000
0000
0000
0000
0000
0000
0100
0000
0000
0000
0000
0000
0000
0000
0000
0000
0000
0000
0020
0000
0000
0000
0000
0000
0000
0000
0000
0000
0000
0000
0030
0000
0000
0000
0000
0000
0000
0000
0000
0000
0000
0000
0020
0000
0000
0000
0000
0000
0000
0000
0000
0000
0000
0000
0030
0000
0000
0000
0000
0000
0000
0000
0000
0000
0000
0000
,
01M0
0001
0100
0001
1000
0010
0100
0010
0100
0001
0010
0001
1000
0001
0100
0001
,
1000
0100
1000
0001
0010
0001
0100
0010
1000
0001
0010
0100
1000
0100
0010
0001
,
1000
0010
0100
0010
0100
0001
0010
0001
0100
0010
1000
0100
0010
0100
1000
0001
,
0010
0100
0010
0001
1000
0010
0100
0001
0010
0001
1000
0010
0100
0010
1000
0001
,
0010
0000
0000
0000
M000
000M
0M00
00M0
0000
0000
M000
000M
0M00
00M0
0000
0000
0000
0001
0000
0001
0010
0000
0100
1000
0000
1000
0010
0000
0000
M000
0M00
00M0
,
000M
0100
0000
0100
0001
0000
0001
0010
0000
0010
0100
0000
000M
00M0
0M00
M000
0000
1000
0000
0010
0100
0000
0001
0010
0000
0010
0001
0000
0100
0001
1000
0010
,
M10M
0010
0000
0010
0100
0000
0001
1000
0000
1000
0010
0000
1000
0000
0001
0000
,
0010
0001
0000
0001
1000
0000
0010
1000
0000
1000
0001
0000
0010
0000
0100
0000
,
1000
0001
1000
0001
1000
0001
1000
0001
1000
0001
1000
0001
1000
0001
1000
0001
,
1001
0000
0000
1000
0010
0000
0110
0000
0000
0001
0010
0000
0110
0000
0010
0100
,
1000
0010
0100
0010
0100
0010
1000
0010
0100
0010
0100
0010
1000
0100
0010
0001
,
0100
0000
0001
0000
1000
0000
0001
0000
1000
0000
0001
0000
0010
0000
0001
0000
1000
0000
0001
0000
1000
0000
0001
0000
0100
0000
0010
0000
0100
0001
0100
0001
,
0010
0000
0001
0000
0100
0000
0001
0000
0100
0000
0001
0000
1000
0000
0001
0000
0100
0000
0001
0000
0100
0000
0010
0000
1000
0000
0100
0000
1000
0001
1000
0001
,
1000
0010
1000
0010
1000
0010
0100
0010
1000
0010
1000
0010
1000
0001
1000
0100
,
1000
0100
0010
0100
0010
0001
1000
0100
0010
0100
0010
0001
1000
0100
0010
0001
,
0100
0000
0010
0000
1000
0000
0001
0000
1000
0000
0001
0000
0100
0000
0010
0000
1000
0000
0001
0000
1000
0000
0001
0000
0100
0000
0010
0000
1000
0100
1000
0100
,
0010
0000
0000
0001
0000
0000
1000
0000
0000
0100
0000
0000
1000
0000
0100
0000
0010
0000
0001
0000
1000
0000
0100
0000
1000
0000
0000
0100
0000
0000
1000
0000
0000
0100
0000
0000
0010
0000
0000
0001
0000
0000
1000
0000
0000
0100
0000
0000
,
0010
0001
0010
0100
1000
0010
0100
0001
0100
0010
1000
0100
0010
0001
0100
0010
,
0100
0010
1000
0100
0010
0100
1000
0001
0010
0001
0010
0001
0100
0010
1000
0100
,
0010
0001
0010
0100
0010
0001
1000
0010
1000
0001
0010
0001
0100
0010
1000
0100
,
0010
0000
0100
0000
0010
0000
0100
0000
0010
0000
0001
0000
1000
0000
0000
0001
0000
0000
0010
0000
0000
0001
0000
0000
0100
0000
0000
0010
0000
0000
1000
0000
0000
0010
0000
0000
0100
0000
0000
0001
0000
0000
0010
0000
0000
0100
0000
0000
,
1000
0000
0001
0000
0100
0000
0001
0000
0100
0001
0100
0001
0100
0010
0100
0010
1000
0000
0100
0000
0010
0000
0100
0000
1000
0000
0010
0000
0100
0000
0001
0000
,
2000
3000
0010
0000
0100
0000
0001
0000
0010
0000
0100
0000
0020
0030
0100
0000
1000
0000
0010
0000
0100
0000
0010
0000
0100
0000
0001
0000
0010
0000
0001
0000
,
0020
0030
0100
0000
0010
0000
0100
0000
1000
0000
0010
0000
2000
3000
0100
0000
0010
0000
0100
0000
0010
0000
0001
0000
0100
0000
0010
0000
1000
0000
0001
0000
,
0200
0300
0010
0000
1000
0000
0100
0000
0010
0000
0001
0000
0020
0030
0001
0000
0100
0000
0010
0000
1000
0000
0100
0000
0010
0000
0001
0000
0100
0000
0010
0000
,
0200
0300
0010
0000
0100
0000
0010
0000
1000
0000
0010
0000
0200
0300
0010
0000
0100
0000
0001
0000
0100
0000
0010
0000
0100
0000
0010
0000
1000
0000
0010
0000
,
0200
0300
0010
0000
2000
0000
3000
0000
2000
0000
3000
0000
0200
0000
0310
0000
0002
0000
0003
0000
0002
0000
0003
0000
0020
0000
0030
0000
0200
0000
0300
0000
,
2000
3001
0200
0300
0020
0030
0200
0301
0020
0030
0200
0300
2000
0000
0000
0000
,
3002
0000
0000
0000
0000
0000
0000
0000
0000
0000
0000
0000
0000
0000
0000
0000
0000
0000
0000
0000
0000
0000
0000
0000
0000
0000
0000
0000
0000
0000
0000
0000
0000
0000
0000
0000
0000
0000
0000
0000
0000
0000
0000
0000
0000
0000
0000
0000
0000
0000
0000
0000
0000
0000
0000
0000
0000
0000
0000
0000
0000
0000
0000
0000
0000
0000
0000
0000
0000
0000
0003
0000
0002
0000
0000
0000
0000
0000
0000
0000
0000
0000
0000
0000
0000
0000
0000
0000
0000
0000
0000
0000
0000
0000
0000
0000
0000
0000
0000
0000
0000
0000
0000
0000
0000
0000
0000
0000
0000
0000
0000
0000
0000
0000
0000
0000
0000
0000
0000
0000
0000
0000
0000
0000
0000
0000
0000
0000
0000
0000
0000
0000
0000
0000
0000
0000
0000
0000
0000
0000
0000
0000
0000
0000
0000
0000
0000
0000
0000
0000
0000
0000
0000
0000
0000
0000
0000
0000
0000
0000
0000
0000
0000
0000
0000
0000
0000
0000
0000
0000
0000
0000
0000
0000
0000
0000
0000
0000
0000
0000
0000
0000
0000
0000
0000
0000
0000
0000
0000
0000
0000
0000
,
2000
0000
0000
0000
0000
0000
0000
0000
0000
0000
0000
0000
0000
0000
0000
0000
0000
0000
0000
0000
0000
0000
0000
0000
0000
0000
0000
0000
0000
0000
0000
0000
0000
0000
0000
0000
0000
0000
0000
0000
0000
0000
0000
0000
0000
0000
0000
0000
0000
0000
0000
0000
0000
0000
0000
0000
0000
0000
0000
0000
0000
0000
0000
0000
0000
0000
0000
0000
0000
0000
3000
0000
2000
0000
0000
0000
0000
0000
0000
0000
0000
0000
0000
0000
0000
0000
0000
0000
0000
0000
0000
0000
0000
0000
0000
0000
0000
0000
0000
0000
0000
0000
0000
0000
0000
0000
0000
0000
0000
0000
0000
0000
0000
0000
0000
0000
0000
0000
0000
0000
0000
0000
0000
0000
0000
0000
0000
0000
0000
0000
0000
0000
0000
0000
0000
0000
0000
0000
0000
0000
0000
0000
0000
0000
0000
0000
0000
0000
0000
0000
0000
0000
0000
0000
0000
0000
0000
0000
0000
0000
0000
0000
0000
0000
0000
0000
0000
0000
0000
0000
0000
0000
0000
0000
0000
0000
0000
0000
0000
0000
0000
0000
0000
0000
0000
0000
0000
0000
0000
0000
0000
0000
,
0000
3003
0000
0000
;
