#TITLE:happy adventure, delightful adventure;
#SUBTITLE:super mario rpg;
#ARTIST:yoko shimomura;
#TITLETRANSLIT:;
#SUBTITLETRANSLIT:;
#ARTISTTRANSLIT:;
#GENRE:;
#CREDIT:dimo;
#BANNER:Happy Adventure, Delightful Adventure-bn.jpg;
#BACKGROUND:Happy Adventure, Delightful Adventure-bg.jpg;
#LYRICSPATH:;
#CDTITLE:!dimotitle.png;
#MUSIC:Happy Adventure, Delightful Adventure.ogg;
#OFFSET:-0.017;
#SAMPLESTART:16.790;
#SAMPLELENGTH:14.257;
#SELECTABLE:YES;
#DISPLAYBPM:139.000;
#BPMS:0.000=138.883;
#STOPS:;
#BGCHANGES:0.000=Happy Adventure=1.000=0=0=1=====,
99999=-nosongbg-=1.000=0=0=0 // don't automatically add -songbackground-
;
#KEYSOUNDS:;

//---------------dance-single - dimo----------------
#NOTES:
     dance-single:
     dimo:
     Challenge:
     12:
     0.994,0.174,0.671,0.152,1.000: // measure 1
0000
0000
0000
0000
,  // measure 2
0000
0000
0000
0000
0000
0000
0000
0000
0000
0000
0000
0000
0000
0000
0000
0000
0000
0000
0000
0000
0000
0000
0000
0000
0MM0
0000
0000
0000
0000
0000
0000
0000
0000
0000
0000
0000
M00M
0000
0000
0000
0000
0000
0MM0
0000
0000
0000
0000
0000
0000
0000
0000
0000
0000
0000
0000
0000
0000
0000
0000
0000
0000
0000
0000
0000
0000
0000
0000
0000
0000
0000
0000
0000
0000
0000
0000
0000
0000
0000
0000
0000
0000
0000
0000
0000
0000
0000
0000
0000
0000
0000
0000
0000
0000
0000
0000
0000
0000
0000
0000
0000
0000
0000
0000
0000
0000
0000
0000
0000
0000
0000
0000
0000
0000
0000
0000
0000
0000
0000
0000
0000
0000
0000
0000
0000
0000
0000
0000
0000
0000
0000
0000
0000
0000
0000
0000
0000
0000
0000
0000
0000
0000
0000
0000
0000
1000
0000
0000
0000
0000
0000
0000
0000
0100
0000
0000
0000
0000
0000
0000
0000
1000
0000
0000
0000
0000
0000
0000
0000
0001
0000
0000
0000
0000
0000
0000
0000
0100
0000
0000
0000
0000
0000
0000
0000
0001
0000
0000
0000
0000
0000
0000
0000
,  // measure 3
0010
0000
0100
0000
1000
0010
0000
0100
0000
0001
0000
1000
0100
0000
0010
0000
,  // measure 4
0100
0000
0000
0000
1000
0000
0000
0000
0010
0000
0100
0000
0000
0000
0001
0000
0000
0000
1000
0000
0000
0000
0001
0000
0000
0000
0040
0030
M40M
0300
0000
0000
,  // measure 5
1000
0000
1000
0000
0010
0100
0000
0010
0000
1000
0000
0001
0010
0000
0100
0000
,  // measure 6
1000
0000
0000
0000
0000
0000
0100
0000
0000
0000
0000
0000
0010
0000
0000
0100
0000
0000
0000
0000
0000
1000
0000
0000
0000
0000
0000
0001
0000
0000
0000
0000
0000
1000
0000
0000
0001
0000
0100
0000
0010
0000
1000
0000
0010
0000
0100
0000
,  // measure 7
0001
0000
0100
0000
0110
0000
0010
1000
0000
1000
0000
1010
0000
0010
0100
0000
,  // measure 8
0001
1000
0100
0000
1100
0000
0010
0001
0000
0001
0000
1000
0010
0000
0101
0000
,  // measure 9
1000
0000
0100
0000
0010
0100
0000
0100
0000
1000
0000
0001
1000
0000
0001
0000
,  // measure 10
0001
0000
0000
0000
0000
0000
0010
0000
0000
0000
0000
0000
0001
0000
0000
1000
0000
0000
0000
0000
0000
1000
0000
0000
0000
0000
0000
0010
0000
0000
0000
0000
0000
1000
0000
0000
0001
0000
0100
0000
0010
0000
0100
0000
0010
0000
1000
0000
,  // measure 11
0100
0000
0010
0000
0011
0000
0001
0100
0000
0110
0000
0110
0000
1000
0010
0000
,  // measure 12
0100
0001
0100
0000
0010
0000
1000
0100
0000
1000
0000
0001
0100
0000
0110
0000
,  // measure 13
0010
0000
1000
0000
0001
0010
0000
0100
0000
1000
0000
0100
0010
0000
0001
0000
,  // measure 14
1000
0000
0000
0000
0000
0000
0010
0000
0000
0000
0000
0000
0100
0000
0000
0001
0000
0000
0000
0000
0000
0010
0000
0000
0000
0000
0000
0001
0000
0000
0000
0000
0000
1000
0000
0000
0001
0000
0010
0000
0001
0000
1000
0000
0100
0000
1000
0000
,  // measure 15
0010
0000
0000
0000
0000
0000
1000
0000
0000
0000
0000
0000
0010
0000
0000
0100
0000
0000
0000
0000
0000
0001
0000
0000
0000
0000
0000
0100
0000
0000
0010
0000
0000
0000
0000
0000
1000
0000
0000
0000
0000
0000
0010
0000
0100
0000
0001
0000
,  // measure 16
0100
0000
0000
0000
0000
0000
0010
0000
0000
0000
0000
0000
0100
0000
0000
0001
0000
0000
0010
0000
0000
0100
0000
0000
0000
0000
0000
0100
0000
0000
1000
0000
0000
0000
0000
0000
0010
0000
0000
0000
0000
0000
0100
0000
0001
0000
0100
0000
,  // measure 17
0010
0000
1000
0000
0001
0000
0010
0100
0000
0010
0000
0001
0000
1000
0010
0000
,  // measure 18
0100
0000
0000
0001
0000
0000
0010
0000
0000
0100
0010
0001
1000
0001
1000
0001
0100
0001
1000
0001
0010
0100
0000
0000
,  // measure 19
1000
0000
0001
0000
0100
0010
0000
1000
0000
1000
0000
0010
0100
0000
0001
0000
,  // measure 20
0010
0000
0010
0000
0001
0010
0000
0100
0000
0100
0000
1000
0010
0000
0100
0000
,  // measure 21
0001
0000
0001
0000
1000
0100
0000
0010
0000
0010
0000
0100
0010
0000
0001
0000
,  // measure 22
1000
0000
0000
0000
0000
0000
1000
0000
0000
0000
0000
0000
0010
0000
0000
0100
0000
0000
0000
0000
0000
0001
0000
0000
0000
0000
0000
0001
0000
0000
0000
0000
0000
1000
0000
0000
0100
0000
0000
0000
0000
0000
0100
0000
0010
0000
0001
0000
,  // measure 23
0100
0000
0001
0000
1000
0000
0001
0010
0000
0100
0000
0010
0000
0001
0010
0000
,  // measure 24
0100
1000
0100
0000
0010
0000
0001
0100
0000
0010
0000
1000
0002
0000
2003
3000
,  // measure 25
0010
0000
0000
0000
0000
0000
1000
0000
0000
0100
0000
0000
1000
0000
0000
0100
0000
0000
1000
0000
0000
0001
0000
0000
0000
0000
0000
0010
0000
0000
0000
0000
0000
0001
0000
0000
1000
0000
0010
0000
1000
0000
0010
0000
1000
0000
0010
0000
,  // measure 26
1000
0000
0000
0000
0000
0000
1000
0000
0000
0010
0000
0000
0100
0000
0000
0001
0000
0000
0100
0000
0000
0010
0000
0000
0000
0000
0000
1000
0000
0000
0000
0000
0000
0001
0000
0000
0010
0000
0001
0000
1000
0000
0010
0000
0100
0000
0001
0000
,  // measure 27
0010
0000
0100
0000
1000
0000
0001
1000
0000
1000
0000
0010
0000
1000
0010
0000
,  // measure 28
1000
0100
0010
0000
0001
0000
0010
0001
0000
0001
0000
1000
0100
0000
1000
0000
,  // measure 29
0010
0000
0000
0000
0000
0000
0100
0000
0000
0001
0000
0000
0100
0000
0000
0001
0000
0000
0100
0000
0000
0010
0000
0000
0000
0000
0000
1000
0000
0000
0000
0000
0000
0100
0000
0000
0010
0000
0001
0000
0010
0000
0001
0000
0010
0000
0001
0000
,  // measure 30
0010
0000
0000
0000
0000
0000
0010
0000
0000
0001
0000
0000
1000
0000
0000
0001
0000
0000
0100
0000
0000
0010
0000
0000
0000
0000
0000
1000
0000
0000
0000
0000
0000
0001
0000
0000
1000
0000
0100
0000
0010
0000
0100
0000
1000
0000
0001
0000
,  // measure 31
0100
0000
0000
0000
0000
0000
0001
0000
0000
0000
0000
0000
1000
0000
0000
0010
0000
0000
0000
0000
0000
0010
0000
0000
0000
0000
0000
1000
0000
0000
0100
0000
0000
0000
0000
0000
0100
0000
0000
0000
0000
0000
1000
0000
0100
0000
0010
0000
,  // measure 32
0001
0000
0000
0000
0000
0000
1000
0000
0000
0000
0000
0000
0001
0000
0000
1000
0000
0000
0010
0000
0000
1000
0000
0000
0000
0000
0000
0001
0000
0000
1000
0000
0000
0000
0000
0000
0010
0000
0000
0000
0000
0000
0100
0000
0001
0000
0010
0000
,  // measure 33
0001
0000
0010
0000
0100
0000
1000
0010
0000
1000
0000
0010
0000
0100
0010
0000
,  // measure 34
0200
0300
0002
0003
0020
0030
2002
0000
0M00
0000
00M0
0000
0M00
0000
30M3
0000
,  // measure 35
1001
0000
0100
0000
0101
0000
0100
0010
0000
1000
0000
0100
0010
0000
0011
0000
,  // measure 36
0101
0000
0100
0000
1010
0000
0010
1000
0000
0100
0000
0100
0010
0000
0110
0000
,  // measure 37
0011
0000
1000
0000
0101
0000
0001
1000
0000
0100
0000
0100
0010
0000
0001
0000
,  // measure 38
1010
0000
0000
0000
0000
0000
0100
0000
0000
0000
0000
0000
1001
0000
0000
0000
0000
0000
0001
0000
0000
0010
0000
0000
0000
0000
0000
0100
0000
0000
0000
0000
0000
1000
0000
0000
0001
0000
0010
0000
0100
0000
1000
0000
0100
0000
0010
0000
,  // measure 39
0001
0000
0010
0000
0100
0000
1000
0010
0000
0100
0000
0010
0000
1000
0010
0000
,  // measure 40
1000
0000
0000
0001
0000
0000
1000
0000
0000
0000
0000
0000
0100
0000
0000
0000
0000
0000
1000
0000
0000
0010
0000
0000
1000
0000
0001
0000
0010
0000
0100
0000
0010
0000
0001
0000
0100
0000
0010
0000
1000
0000
0010
0000
0100
0000
0001
0000
,  // measure 41
0010
0000
0001
0000
0100
0000
0010
0100
0000
0001
0000
0100
0000
0010
0100
0000
,  // measure 42
0010
0000
0000
1000
0000
0000
0100
0000
0000
0000
0000
0000
1000
0000
0000
0000
0000
0000
0001
0000
1000
0000
0010
0000
1000
0000
0010
0000
0100
0000
0001
0000
0100
0000
0001
0000
0010
0000
0100
0000
1000
0000
0010
0000
0100
0000
0001
0000
,  // measure 43
0010
0000
0100
0000
0010
0000
0001
0000
1000
0000
0010
0000
0100
0000
0000
0001
0000
0000
0000
0000
0000
1000
0000
0000
0000
0000
0000
0010
0000
0000
0000
0000
0000
1000
0000
0000
0001
0000
0010
0000
0100
0000
1000
0000
0000
0000
0000
0000
,  // measure 44
0100
0000
1000
0000
0100
0000
0010
0000
0100
0000
1000
0000
0001
0000
0000
0100
0000
0000
0000
0000
0000
0100
0000
0000
0000
0000
0000
0001
0000
0000
0000
0000
0000
0100
0000
0000
0010
0000
1000
0000
0100
0000
0010
0000
0001
0000
0000
0000
,  // measure 45
0100
0000
0010
0000
1000
0000
0010
0000
1000
0000
0100
0000
1000
0000
0000
0100
0000
0000
0000
0000
0000
0010
0000
0000
0000
0000
0000
0001
0000
0000
0000
0000
0000
0100
0000
0000
0010
0000
1000
0000
0100
0000
1000
0000
0000
0000
0000
0000
,  // measure 46
0101
0000
0011
0000
0000
0110
0000
1100
,  // measure 47
2000
0000
0010
0000
0010
0000
0010
0010
0000
0010
0000
0010
3010
0000
0100
0000
,  // measure 48
0001
0000
0010
0000
0100
0000
1000
0000
0100
0000
0010
0000
0001
0000
1000
0000
0001
0000
1000
0000
0001
0000
1000
0000
0001
0000
0100
0000
0010
0000
0100
0000
0001
0000
0100
0000
0010
0000
0000
MM0M
0000
0000
0000
0000
0000
0000
0000
0000
,  // measure 49
0110
0000
0101
0000
0011
0000
0002
0000
0023
0000
0130
1000
0010
0000
1001
0000
,  // measure 50
1020
0000
0130
0001
0010
0000
0110
0000
0100
0000
1000
0000
1010
0000
0010
0100
,  // measure 51
0010
0000
0110
0000
0101
0000
0002
0000
2003
0000
3100
1000
0100
0000
0011
0000
,  // measure 52
0101
0000
0001
0100
0010
0000
1001
0000
1100
0000
0101
0000
0220
0000
0330
0000
,  // measure 53
1001
0000
1000
0100
1000
0000
1010
0000
1001
0000
0001
0010
0001
0000
0011
0000
,  // measure 54
1001
0000
0100
0010
0100
0000
0001
0000
2000
0000
3010
0100
0001
0010
0100
1000
,  // measure 55
0001
0000
0000
0000
0000
0000
0100
0000
0000
0010
0000
0000
1000
0000
0001
0000
1000
0000
0001
0000
0000
0000
0000
0000
1001
0000
0000
0000
0000
0000
1000
0000
0000
0010
0000
0000
0100
0000
0001
0000
0100
0000
0001
0000
0000
0000
0000
0000
,  // measure 56
0011
0000
0000
0000
0000
0000
0010
0000
0000
0100
0000
0000
1000
0000
0100
0000
1000
0000
0100
0000
0000
0000
0000
0000
1002
0000
0000
0000
0000
0000
1003
0000
0000
0010
0000
0000
0100
0000
0000
0001
0000
0000
0100
0000
0000
0010
0000
0000
,  // measure 57
1000
0000
1001
0000
0100
0010
0000
0110
0000
0101
0000
0001
0010
0000
0110
0000
,  // measure 58
0100
0000
1000
0010
1000
0100
0000
0011
0000
0101
0000
1000
0020
0000
0000
0000
,  // measure 59
1030
0000
1001
0000
0010
0100
0000
1100
0000
0011
0000
0010
0100
0000
1100
0000
,  // measure 60
1001
0000
0001
0100
0010
0100
0000
0010
0000
0100
0001
0000
2000
0000
0000
0000
,  // measure 61
3010
0000
1010
0000
0010
1000
0000
0110
0000
0101
0000
0001
1000
0000
1010
0000
,  // measure 62
0101
0000
0001
0100
0001
1000
0000
0011
0000
0011
0000
0010
0200
0000
0000
0000
,  // measure 63
1300
0000
1100
0000
0100
0010
0000
0110
0000
0011
0000
0010
0001
0000
0101
0000
,  // measure 64
0110
0000
0100
0010
1000
0010
0000
1000
0000
0001
1000
0000
0020
0000
0000
0030
,  // measure 65
1010
0000
1010
0000
0010
0100
0000
0011
0000
0011
0000
0010
0001
0000
0101
0000
,  // measure 66
0110
0000
0000
0000
0110
0000
0000
0000
0100
0000
0010
0000
0000
0000
1010
0000
0000
0000
1010
0000
0000
0000
0010
0000
1000
0000
0040
0030
M40M
0300
0000
0000
,  // measure 67
0110
0000
0101
0000
0001
0010
0000
0110
0000
1100
0000
1000
0100
0000
0110
0000
,  // measure 68
0011
0000
0000
0000
0000
0000
1001
0000
0000
0000
0000
0000
0100
0000
0000
0010
0000
0000
0000
0000
0000
0100
0000
0000
0000
0000
0000
0010
0000
0000
0000
0000
0000
0010
0000
0000
1000
0000
0010
0000
0100
0000
0001
0000
1000
0000
0010
0000
,  // measure 69
0100
0000
0100
0000
0110
0000
0100
0010
0000
1000
0000
1001
0000
0100
0010
0000
,  // measure 70
1000
0001
1000
0000
0101
0000
0100
0010
0000
1000
0000
0001
0010
0000
0110
0000
,  // measure 71
1000
0000
0010
0000
1000
0010
0000
0100
0000
0100
0000
0010
0100
0000
0100
0000
,  // measure 72
0001
0000
0000
0000
0000
0000
0010
0000
0000
0000
0000
0000
0100
0000
0000
1000
0000
0000
0000
0000
0000
0100
0000
0000
0000
0000
0000
0100
0000
0000
0000
0000
0000
1000
0000
0000
0100
0000
0010
0000
0100
0000
1000
0000
0001
0000
0100
0000
,  // measure 73
0001
0000
1000
0000
1010
0000
0100
0010
0000
1001
0000
0010
0000
0100
0010
0000
,  // measure 74
0100
0010
1000
0000
0101
0000
0100
0010
0000
1000
0000
0010
0100
0000
1001
0000
,  // measure 75
1000
0000
0100
0000
1000
0001
0000
0010
0000
0010
0000
0100
0010
0000
0001
0000
,  // measure 76
0010
0000
0000
0000
0000
0000
0010
0000
0000
0000
0000
0000
0001
0000
0000
0010
0000
0000
0000
0000
0000
0100
0000
0000
0000
0000
0000
0100
0000
0000
0000
0000
0000
1000
0000
0000
0001
0000
1000
0000
0001
0000
0010
0000
0001
0000
0100
0000
,  // measure 77
0010
0000
0000
0000
0000
0000
1000
0000
0000
0000
0000
0000
1000
0000
0000
0001
0000
0000
0000
0000
0000
0001
0000
0000
0000
0000
0000
0100
0000
0000
0010
0000
0000
0000
0000
0000
1000
0000
0000
0000
0000
0000
0010
0000
0100
0000
0001
0000
,  // measure 78
1000
0000
0000
0000
0000
0000
0001
0000
0000
0000
0000
0000
0010
0000
0000
0100
0000
0000
1000
0000
0000
0001
0000
0000
0000
0000
0000
0010
0000
0000
0100
0000
0000
0000
0000
0000
1000
0000
0000
0000
0000
0000
0010
0000
1000
0000
0001
0000
,  // measure 79
0100
0000
0010
0000
0100
0000
0010
1000
0000
0001
0000
1000
0000
0010
1000
0000
,  // measure 80
0001
0000
0000
0100
0000
0000
0010
0000
0000
1000
0100
0010
0001
0010
0100
1000
0010
0100
0010
0100
0001
0100
0000
0000
,  // measure 81
0000
0000
0000
0000
0000
0000
0MM0
0000
0000
M00M
0MM0
0000
0000
0000
0000
0000
0000
0000
0000
0000
0000
0000
0000
0000
;
