#TITLE:fire fire;
#SUBTITLE:IIDX GOLD;
#ARTIST:StripE;
#TITLETRANSLIT:;
#SUBTITLETRANSLIT:;
#ARTISTTRANSLIT:;
#GENRE:;
#CREDIT:;
#BANNER:fire fire.png;
#BACKGROUND:fire fire-bg.png;
#LYRICSPATH:;
#CDTITLE:!dimotitle.png;
#MUSIC:beatmania IIDX 14 GOLD - FIRE FIRE.ogg;
#OFFSET:-0.410;
#SAMPLESTART:77.140;
#SAMPLELENGTH:12.000;
#SELECTABLE:YES;
#BPMS:0.000=150.000;
#STOPS:168.000=0.800
,272.000=0.200
,272.500=0.195
;
#BGCHANGES:;
#KEYSOUNDS:;

//---------------dance-single - ----------------
#NOTES:
     dance-single:
     dimo:
     Challenge:
     13:
     1.000,0.438,0.430,0.046,1.000: // measure 1
0000
0000
0000
0000
,  // measure 2
1001
0000
0101
0000
1010
0000
1000
0010
0000
1000
0001
0010
0001
1000
0100
1000
,  // measure 3
1010
0000
0101
0000
0011
0000
0010
0001
0000
1000
0100
0001
0100
0010
0001
1000
,  // measure 4
1010
0000
1001
0000
0110
0000
0001
0100
0000
0100
0010
0100
0001
0010
0100
1000
,  // measure 5
0100
0010
0100
1000
0010
0100
0010
1000
0000
0010
0100
0010
1000
0100
0010
0001
,  // measure 6
1001
0100
1001
0010
1001
0100
1001
0010
,  // measure 7
0011
0001
0101
0100
1010
0010
1001
0100
,  // measure 8
1000
0000
0000
0000
0000
0000
0000
0000
0000
0000
0000
0000
0100
0000
0000
0000
0000
0000
0000
0000
0000
0000
0000
0000
1000
0000
0000
0000
0000
0000
0000
0000
0100
0000
0000
0000
0000
0000
0000
0000
1000
0000
0000
0000
0000
0000
0000
0000
0001
0000
0000
0000
0000
0000
0000
0000
0000
0000
0000
0000
0010
0000
0000
0000
0000
0000
0000
0000
0000
0000
0000
0000
0001
0000
0000
0000
0000
0000
0000
0000
0100
0000
0000
0000
0000
0000
0000
0000
0010
0000
0000
0000
0000
0000
0000
0000
0100
0000
0000
0000
0000
0000
0000
0000
0000
0000
0000
0000
0010
0000
0000
0000
0000
0000
0000
0000
0000
0000
0000
0000
1000
0000
0000
0000
0000
0000
0000
0000
0100
0000
0000
0000
0000
0000
0000
0000
0010
0000
0000
0000
0000
0000
0000
0000
0100
0000
0000
0000
0000
0000
1000
0000
0000
0000
0000
0000
0001
0000
0000
0000
0000
0000
1000
0000
0000
0000
0000
0000
0001
0000
0000
0000
0000
0000
1000
0000
0000
0000
0000
0000
0001
0000
0000
0000
0000
0000
1000
0000
0000
0000
0000
0000
,  // measure 9
0100
0000
M00M
0M00
00M0
M00M
0100
00M0
0M00
M000
001M
0M00
0000
M0M0
0000
0M01
M000
00M0
0M00
000M
0000
0000
0000
0000
,  // measure 10
1000
0000
0001
0100
0000
0001
0010
0100
0010
0000
0001
1000
0000
0001
0010
0001
,  // measure 11
0100
0000
0010
1000
0000
0000
1001
0000
0100
0000
0001
0000
0011
0000
0010
0000
,  // measure 12
0001
0000
0100
0010
0000
0010
1000
0001
1000
0000
0001
0100
0000
0000
0010
0100
,  // measure 13
0010
0000
0000
0000
0000
0000
1000
0000
0000
0001
0000
0000
0000
0000
0000
0000
0000
0000
1000
0000
0000
0010
0000
0000
1000
0000
0000
0001
0000
0000
0010
0000
0001
0000
0100
0000
0010
0000
0000
0000
0000
0000
0001
0000
0000
0000
0000
0000
,  // measure 14
1001
0000
1000
0100
0000
0010
0001
1000
0001
0000
1000
0001
0000
1000
0010
0100
,  // measure 15
0010
0000
0000
0000
0000
0000
0100
0000
0000
0000
0000
0000
0001
0000
0000
0000
0000
0000
1000
0000
0100
0000
1000
0000
0100
0000
0000
0000
0000
0000
0010
0000
0000
0000
0000
0000
0200
0000
0000
0000
0000
0000
0000
0000
0000
0300
0000
0000
,  // measure 16
0010
0000
0010
0001
0000
0010
0001
0100
0010
0000
0100
0010
0000
0000
0010
0100
,  // measure 17
0110
0000
0010
0000
0100
0000
0001
0010
0011
0000
0100
0000
1001
0000
0010
0000
,  // measure 18
1000
0000
0100
0010
0000
0010
0001
0100
0010
0000
1000
0001
0000
1000
0010
0100
,  // measure 19
0010
0000
1000
0010
0000
1000
0010
0100
0001
0000
0010
0000
0100
0000
0000
0000
,  // measure 20
0010
0000
0100
0010
0000
0001
1000
0001
1000
0000
0010
0100
0000
0001
1000
0100
,  // measure 21
0010
0000
0000
0000
0000
0000
1001
0000
0000
0000
0000
0000
0100
0000
0000
0000
0000
0000
1000
0000
0000
0100
0000
0000
0010
0000
0001
0000
0010
0000
0001
0000
1000
0000
0001
0000
1000
0000
0000
0000
0000
0000
0001
0000
0000
0000
0000
0000
,  // measure 22
M11M
0000
0000
0000
0000
0000
1MM1
0000
0000
0000
0000
0000
0010
0000
0000
0000
0000
0000
1000
0000
0000
0100
0000
0000
0010
0000
0000
0000
0000
0000
0011
0000
0000
0000
0000
0000
0001
0000
0000
0000
0000
0000
1000
0000
0100
0000
1000
0000
,  // measure 23
001M
0000
0000
0000
0000
0000
1001
0000
0000
0000
0000
0000
0010
0000
0000
0000
0000
0000
0001
0000
0000
0100
0000
0000
0001
0000
0000
0000
0000
0000
0001
0000
0000
1000
0000
0000
0010
0000
0000
0000
0000
0000
1000
0000
0100
0000
0010
0000
,  // measure 24
M001
0000
0000
0010
0000
0000
0100
0000
0000
0100
0010
0001
01M0
0000
0000
0010
0000
0000
0100
0000
0000
0001
0100
0001
,  // measure 25
1000
0000
0000
0000
0000
0000
0010
0000
1000
0000
0100
0000
0010
0000
0000
0000
0000
0000
010M
0000
1000
0000
0100
0000
0010
0000
0000
0000
0000
0000
0010
0000
0001
0000
0100
0000
0010
0000
0000
1000
0000
0000
0001
0000
0000
0010
0000
0000
,  // measure 26
0002
0000
0000
0013
0100
1000
001M
0000
0000
0100
0001
0010
0100
0010
0100
0010
0001
1000
0002
0000
0000
0000
0000
0003
,  // measure 27
1000
0100
1000
0001
1000
0000
0001
1000
0001
0100
0001
0000
0101
0000
0100
0010
,  // measure 28
0100
0000
0000
0001
0000
0000
0100
0000
0000
0000
0000
0000
0110
0000
0000
0000
0000
0000
0010
0000
0000
0100
0000
0000
0010
0000
0000
1000
0000
0000
0010
0000
1000
0000
0100
0000
1000
0000
0000
0000
0000
0000
1100
0000
0000
0000
0000
0000
,  // measure 29
1001
0001
0010
0001
0010
0000
0100
1000
0100
0000
0010
0000
1001
0000
1000
0100
,  // measure 30
0010
0001
0010
0000
0100
0000
1000
0000
0100
0010
0100
0000
0010
0000
0001
0000
1000
0010
0100
0000
0010
0000
1000
0000
0001
0000
1000
0000
0001
0100
0001
0100
,  // measure 31
0001
0100
0010
1000
0010
0000
0100
0010
0100
0000
0010
0000
1010
0000
1000
0100
,  // measure 32
1000
0000
0001
0000
0010
0000
0100
0000
1000
0000
0000
0000
0010
0000
0100
0000
0010
0000
1000
0000
0010
0100
0010
0100
0001
0000
0000
0000
1001
0000
0000
0000
,  // measure 33
1000
0100
0010
0001
0010
0000
0100
1000
0100
0000
0010
0000
0001
0000
1000
0100
,  // measure 34
0010
0000
0001
0000
0010
0000
0100
0000
1000
0000
0010
0000
0100
0010
0100
0010
0100
0010
0100
0000
0001
0000
1000
0000
1100
0000
0000
0000
1100
0000
0000
0000
,  // measure 35
0001
0000
0000
0100
0000
0000
0010
0000
0000
0100
0000
0000
0010
0000
0000
0000
0000
0000
0010
0000
0000
1000
0000
0000
0100
0000
0000
1000
0000
0000
0100
0000
0000
0000
0000
0000
1100
0000
0000
0000
0000
0000
1000
0000
0100
0000
1000
0000
,  // measure 36
0010
0000
0100
0000
0001
0000
0010
0000
0100
0000
0000
0000
0010
0000
0100
0000
0010
0000
0001
0000
0010
0000
0000
0000
0011
0000
0001
0000
1000
0010
0100
0010
,  // measure 37
1000
0000
0000
0000
0000
0000
0000
0000
0000
0000
0000
0000
0100
0000
0000
0000
0000
0000
0000
0000
0000
0000
0000
0000
0010
0000
0000
0000
0000
0000
0000
0000
0000
0000
0000
0000
0001
0000
0000
0000
0000
0000
0000
0000
0000
0000
0000
0000
0100
0000
0000
0000
0000
0000
0000
0000
0000
0000
0000
0000
0000
0000
0000
0000
0000
0000
0000
0000
0000
0000
0000
0000
1000
0000
0000
0000
0000
0000
0000
0000
0010
0000
0000
0000
0000
0000
0000
0000
1000
0000
0000
0000
0000
0000
0000
0000
0001
0000
0000
0000
0000
0000
0000
0000
0000
0000
0000
0000
1000
0000
0000
0000
0000
0000
0000
0000
0000
0000
0000
0000
0001
0000
0000
0000
0000
0000
0000
0000
0000
0000
0000
0000
0100
0000
0000
0000
0000
0000
0000
0000
0000
0000
0000
0000
0010
0000
0000
0000
0000
0000
0000
0000
0000
0000
0000
0000
0000
0000
0000
0000
0000
0000
0000
0000
0000
0000
0000
0000
0010
0000
0000
0000
0000
0000
1000
0000
0000
0000
0000
0000
0100
0000
0000
0000
0000
0000
0010
0000
0000
0000
0000
0000
,  // measure 38
0001
0000
0000
0000
0000
0000
0000
0000
0000
0000
0000
0000
0010
0000
0000
0000
0000
0000
0000
0000
0000
0000
0000
0000
0001
0000
0000
0000
0000
0000
0000
0000
0000
0000
0000
0000
1000
0000
0000
0000
0000
0000
0000
0000
0000
0000
0000
0000
0001
0000
0000
0000
0000
0000
0000
0000
0000
0000
0000
0000
0000
0000
0000
0000
0000
0000
0000
0000
0000
0000
0000
0000
0100
0000
0000
0000
0000
0000
0000
0000
0010
0000
0000
0000
0000
0000
0000
0000
1000
0000
0000
0000
0000
0000
0000
0000
0001
0000
0000
0000
0000
0000
0000
0000
0000
0000
0000
0000
0010
0000
0000
0000
0000
0000
0000
0000
0000
0000
0000
0000
0100
0000
0000
0000
0000
0000
0000
0000
0000
0000
0000
0000
0010
0000
0000
0000
0000
0000
0000
0000
0000
0000
0000
0000
0001
0000
0000
0000
0000
0000
0000
0000
0000
0000
0000
0000
0000
0000
0000
0000
0000
0000
0000
0000
0000
0000
0000
0000
1000
0000
0000
0000
0000
0000
0100
0000
0000
0000
0000
0000
1000
0000
0000
0000
0000
0000
0100
0000
0000
0000
0000
0000
,  // measure 39
1000
0000
0000
0001
0000
0000
0010
0000
0000
0001
0000
0000
1000
0000
0000
0000
0000
0000
0010
0000
0000
0000
0000
0000
0100
0000
0000
0001
0000
0000
0010
0000
0000
0100
0000
0000
0010
0000
0000
0000
0000
0000
0001
0000
1000
0000
0010
0000
,  // measure 40
0100
0000
0001
0000
0100
0000
0010
0000
1000
0000
0000
0000
0001
0000
0000
0000
1000
0000
0010
0000
1000
0000
0010
0000
0100
0000
0000
0000
0100
0001
0100
0001
,  // measure 41
0100
0000
0000
0000
0000
0000
0000
0000
0000
0000
0000
0000
0001
0000
0000
0000
0000
0000
0000
0000
0000
0000
0000
0000
0010
0000
0000
0000
0000
0000
0000
0000
0000
0000
0000
0000
0100
0000
0000
0000
0000
0000
0000
0000
0000
0000
0000
0000
0010
0000
0000
0000
0000
0000
0000
0000
0000
0000
0000
0000
0001
0000
0000
0000
0000
0000
0000
0000
0000
0000
0000
0000
0100
0000
0000
0000
0000
0000
0000
0000
0010
0000
0000
0000
0000
0000
0000
0000
1000
0000
0000
0000
0000
0000
0000
0000
0010
0000
0000
0000
0000
0000
0000
0000
0000
0000
0000
0000
1000
0000
0000
0000
0000
0000
0000
0000
0000
0000
0000
0000
0001
0000
0000
0000
0000
0000
0000
0000
0000
0000
0000
0000
1000
0000
0000
0000
0000
0000
0000
0000
0000
0000
0000
0000
0001
0000
0000
0000
0000
0000
0000
0000
0000
0000
0000
0000
0010
0000
0000
0000
0000
0000
0000
0000
0000
0000
0000
0000
0100
0000
0000
0000
0000
0000
1000
0000
0000
0000
0000
0000
0100
0000
0000
0000
0000
0000
1000
0000
0000
0000
0000
0000
,  // measure 42
0100
0000
0000
0000
0000
0000
0000
0000
0000
0000
0000
0000
1000
0000
0000
0000
0000
0000
0000
0000
0000
0000
0000
0000
0100
0000
0000
0000
0000
0000
0000
0000
0010
0000
0000
0000
0000
0000
0000
0000
0100
0000
0000
0000
0000
0000
0000
0000
1000
0000
0000
0000
0000
0000
0000
0000
0000
0000
0000
0000
0010
0000
0000
0000
0000
0000
0000
0000
0000
0000
0000
0000
1000
0000
0000
0000
0000
0000
0001
0000
0000
0000
0000
0000
1000
0000
0000
0000
0000
0000
0001
0000
0000
0000
0000
0000
1000
0000
0000
0000
0000
0000
0000
0000
0000
0000
0000
0000
0001
0000
0000
0000
0000
0000
0000
0000
0000
0000
0000
0000
0010
0000
0000
0000
0000
0000
0000
0000
0001
0000
0000
0000
0000
0000
0000
0000
1000
0000
0000
0000
0000
0000
0000
0000
0001
0000
0000
0000
0000
0000
0000
0000
0000
0000
0000
0000
0010
0000
0000
0000
0000
0000
0000
0000
0000
0000
0000
0000
0100
0000
0000
0000
0000
0000
0000
0000
0000
0000
0000
0000
1000
0000
0000
0000
0000
0000
0000
0000
0000
0000
0000
0000
,  // measure 43
1001
0000
0000
0000
0000
0000
0000
0000
0000
0000
0000
0000
0000
0000
0000
0000
0000
0000
0000
0000
0000
0000
0000
0000
0100
0000
0000
0001
0000
0000
1000
0000
0100
0000
0010
0000
0001
0000
0000
0010
0000
0000
0001
0000
0100
0000
0010
0000
,  // measure 44
1000
0000
0000
0001
0000
0000
0100
0000
0010
0000
1000
0000
0001
0000
0000
0000
0000
0000
0110
0000
0000
0000
0000
0000
1000
0000
0000
0100
0000
0000
1000
0000
0000
0001
0000
0000
1000
0000
0000
0000
0000
0000
0001
0000
0000
1000
0000
0000
,  // measure 45
0001
0100
0001
0000
0101
0000
0100
0010
0100
0001
0100
0000
0110
0000
0010
0100
,  // measure 46
0010
1000
0010
0000
0100
0000
0001
0100
0010
1000
0001
0100
0010
0000
0010
1000
,  // measure 47
0100
0000
0010
0000
1001
0000
1000
0100
0010
0001
0100
0010
0100
0000
0001
1000
,  // measure 48
0100
0010
0001
1000
0001
0100
0001
1000
0001
0100
0010
1000
0010
0000
0100
0010
,  // measure 49
0100
0000
0010
0000
1000
0000
0001
0010
0001
0100
0010
1000
0001
0000
0010
0100
,  // measure 50
1000
0000
0100
0000
0010
0000
0000
0000
0001
0000
0000
0000
0100
0000
0010
0000
1000
0100
1000
0000
0010
0000
0100
0000
0001
0000
0000
0000
0001
0000
1000
0000
,  // measure 51
0001
0000
0000
0000
0000
0000
0010
0000
0000
0000
0000
0000
0001
0000
0000
0000
0000
0000
0000
0000
0000
0000
0000
0000
1000
0000
0000
0000
0000
0000
0000
0000
0000
0000
0000
0000
0010
0000
0000
0000
0000
0000
0000
0000
0000
0000
0000
0000
0100
0000
0000
0000
0000
0000
0000
0000
0000
0000
0000
0000
0000
0000
0000
0000
0000
0000
0000
0000
0000
0000
0000
0000
0100
0000
0000
0000
0000
0000
0001
0000
0000
0000
0000
0000
0100
0000
0000
0000
0000
0000
0001
0000
0000
0000
0000
0000
0100
0000
0000
0000
0000
0000
0000
0000
0000
0000
0000
0000
0000
0000
0000
0000
0000
0000
0000
0000
0000
0000
0000
0000
0000
0000
0000
0000
0000
0000
0000
0000
0000
0000
0000
0000
0010
0000
0000
0000
M000
0000
0000
0000
0000
0000
0000
0000
000M
0000
0000
0000
0000
0000
0000
0000
0000
0000
0000
0000
0000
0000
0000
0000
0000
0000
0000
0000
0000
0000
0000
0000
1M00
0000
0000
0000
0000
0000
0000
0000
00M0
0000
0000
0000
0000
0000
0000
0000
0000
0000
0000
0000
0000
0000
0000
0000
,  // measure 52
0000
0000
0000
0010
M000
0000
0100
0000
0000
0000
00M0
0000
0M01
0000
0000
0000
0000
0000
1001
0000
0000
0000
0000
0000
1000
0000
0000
0100
0000
0000
1000
0000
0000
0001
0000
0000
1000
0000
0000
0000
0000
0000
0001
0000
0000
1000
0000
0000
,  // measure 53
0001
0100
0001
0000
0101
0000
0100
0010
0100
0001
0100
0000
0110
0000
0010
0100
,  // measure 54
0010
1000
0010
1000
0001
0010
0100
1000
0001
0010
0001
0010
0001
0000
0001
1000
,  // measure 55
0100
0000
0010
0000
1001
0000
1000
0100
0010
0001
0100
0010
0100
0000
0001
0000
,  // measure 56
0010
0000
0100
0000
0010
0000
0100
0000
1000
0000
0000
0000
0001
0000
0010
0000
0001
1000
0100
0000
0010
0000
0100
0000
1000
0000
0001
0000
1000
0000
0010
0000
,  // measure 57
1000
0000
0100
0000
0010
0000
0100
0000
1000
0000
0001
0000
0100
0000
0010
0000
0100
0001
0100
0000
0001
0000
0100
0000
0010
0000
1000
0000
0010
0000
1000
0000
,  // measure 58
0100
0010
0100
0010
0001
1000
0001
1000
0010
0100
0010
0100
0001
1000
0001
1000
,  // measure 59
0100
0010
0100
0010
0001
0010
0001
0010
0001
0010
0001
0100
001M
0M00
10MM
0100
,  // measure 60
0010
0000
0000
M001
0000
0000
0100
0000
0000
000M
0000
0000
0010
0000
000M
0M00
0000
0000
1000
0000
00M0
0100
0000
0000
1000
0000
0000
0000
0000
0000
0001
0000
0000
0100
0000
0000
0000
0000
0000
0001
0000
0000
0010
0000
0000
0100
0000
0000
,  // measure 61
0010
0000
0001
1000
0000
0001
0010
0001
0100
0000
0010
1000
0000
0000
1001
0000
,  // measure 62
0100
0000
0001
0000
0011
0000
0010
0000
0001
0000
0100
0010
0000
0010
1000
0001
,  // measure 63
1000
0000
0001
0100
0000
0000
0010
0100
0010
0000
0010
1000
0000
0000
1000
0010
,  // measure 64
1000
0000
0000
0001
0000
0000
0010
0000
0001
0000
0100
0000
0010
0000
0000
0000
0000
0000
0001
0000
0000
0000
0000
0000
1001
0000
0000
0000
0000
0000
1000
0000
0000
0100
0000
0000
0000
0000
0000
0010
0000
0000
0001
0000
0000
1000
0000
0000
,  // measure 65
0001
0000
0000
0000
0000
0000
1000
0000
0000
0001
0000
0000
0000
0000
0000
1000
0000
0000
0010
0000
0000
0100
0000
0000
0010
0000
0000
0000
0000
0000
0100
0000
0000
0000
0000
0000
0001
0000
0000
0000
0000
0000
1000
0000
0100
0000
1000
0000
,  // measure 66
0100
0000
0000
0000
0000
0000
0010
0000
0000
0000
0000
0000
0200
0000
0000
0000
0000
0000
0000
0000
0000
0300
0000
0000
0010
0000
0001
0000
0100
0000
0010
0000
0000
1000
0000
0000
0100
0000
0000
0000
0000
0000
1000
0000
0000
0010
0000
0000
,  // measure 67
0100
0000
0010
0000
1000
0000
0100
0000
0000
0010
0000
0000
0001
0000
0000
0000
0000
0000
0001
0000
0000
0100
0000
0000
0010
0000
0000
1000
0000
0000
0001
0000
0000
0100
0000
0000
0000
0000
0000
0010
0000
0000
0001
0000
0000
0100
0000
0000
,  // measure 68
0000
0000
0000
0010
0000
0000
1000
0000
0000
0100
0000
0000
0000
0000
0000
0010
0000
0000
0001
0000
0000
0100
0000
0000
0001
0000
0010
0000
0001
0000
0100
0000
0000
0010
0000
0000
1000
0000
0000
0000
0000
0000
0010
0000
0000
0100
0000
0000
,  // measure 69
0001
0000
1111
0000
1000
0000
0010
0000
1000
0000
0100
1000
0010
1000
0100
0000
,  // measure 70
0010
0000
0001
0100
0010
1000
0100
0010
0001
0000
1000
0001
1000
0000
0010
0000
,  // measure 71
0100
0000
0001
1000
0001
1000
0010
0100
0001
0000
0010
0100
1000
0001
0010
0100
,  // measure 72
0010
0000
0100
1000
0010
0100
0010
0100
0001
0000
0010
0100
0010
0000
0001
0000
,  // measure 73
0100
0000
0010
1000
0100
0010
0001
1000
0100
0000
0001
1000
0010
0100
0001
0000
,  // measure 74
0010
0000
0000
0000
0000
0000
0100
0000
0000
0010
0000
0000
0100
0000
0010
0000
0001
0000
0100
0000
0000
0010
0000
0000
1000
0000
0000
0000
0000
0000
1000
0000
0000
0010
0000
0000
1000
0000
0001
0000
0100
0000
0010
0000
0000
1000
0000
0000
,  // measure 75
0100
0000
0010
0001
0010
0000
0000
1001
0000
0000
0011
0000
0000
0100
1100
0000
,  // measure 76
0001
1000
0220
0000
0000
0000
0000
0000
,  // measure 77
0330
0000
0000
0000
;
