#TITLE:addiction;
#SUBTITLE:buchiage trance #6;
#ARTIST:StripE;
#TITLETRANSLIT:;
#SUBTITLETRANSLIT:;
#ARTISTTRANSLIT:;
#GENRE:;
#CREDIT:;
#BANNER:addiction.png;
#BACKGROUND:addiction-bg.png;
#LYRICSPATH:;
#CDTITLE:!dimotitle.png;
#MUSIC:13 ADDICTION.ogg;
#OFFSET:0.228;
#SAMPLESTART:78.127;
#SAMPLELENGTH:12.000;
#SELECTABLE:YES;
#DISPLAYBPM:150.000;
#BPMS:0.000=150.050,77.000=300.100,81.000=150.050,146.000=600.200,147.000=150.050,175.000=300.100,176.000=150.050,207.000=300.100,208.000=150.050,210.000=600.200,211.000=150.050,239.000=300.100,240.000=150.050,271.000=300.100,272.000=150.050;
#STOPS:82.000=0.400
,82.500=0.400
,130.000=0.100
,130.250=0.100
,130.500=0.100
,130.750=0.100
,146.500=0.303
,175.000=0.033
,175.167=0.033
,175.333=0.033
,175.500=0.033
,175.667=0.033
,175.833=0.033
,207.000=0.033
,207.167=0.033
,207.333=0.033
,207.500=0.033
,207.667=0.033
,207.833=0.033
,210.500=0.300
,239.000=0.033
,239.167=0.033
,239.333=0.033
,239.500=0.033
,239.667=0.033
,239.833=0.033
,271.000=0.033
,271.167=0.033
,271.333=0.033
,271.500=0.033
,271.667=0.033
,271.833=0.033
;
#BGCHANGES:;
#KEYSOUNDS:;

//---------------dance-single - dimo----------------
#NOTES:
     dance-single:
     dimo:
     Challenge:
     11:
     0.945,0.000,0.409,0.299,1.000:
0000
0000
0000
0000
,
0000
0000
0000
0000
,
0000
0000
0000
0000
,
0000
0000
0000
0000
,
0000
0000
0000
0000
,
0000
0000
0000
0000
,
0000
0000
0000
0000
,
1000
0001
1000
0100
0010
0001
0000
0001
0100
0000
0010
1000
0000
1000
0100
0000
,
0010
0001
0000
0001
0100
0000
0010
1000
0000
1000
0100
0000
1000
0001
0100
0010
,
1000
0001
0010
0000
0010
0001
0000
0001
0100
0000
0010
1000
0000
1000
0100
0000
,
0010
0001
0000
0001
0100
0000
0010
1000
0000
1000
0100
0000
1000
0010
1000
0001
,
0010
0100
1000
0010
0100
0001
0000
0001
0010
0000
0100
0010
0000
0010
0100
0000
,
0100
1000
0000
1000
0001
0000
1000
0010
0000
1000
0010
0100
0010
1000
0001
0100
,
0010
1000
0100
1000
0001
1000
0000
1000
0100
0000
1000
0100
0000
0100
0010
0000
,
0001
0010
0000
0010
0100
0000
0100
1000
0000
1000
0010
1000
0100
0010
0100
1000
,
0001
0000
0001
1000
0100
0000
1000
0100
1000
0000
0010
0100
0001
0000
0010
0100
,
1000
0000
0001
1000
0100
0000
1000
0001
0100
0000
0001
0100
0001
0000
0010
0001
,
1000
1100
0001
0101
0010
1001
0100
1001
,
0001
0010
0001
1000
0100
0010
0100
1000
0001
0100
0010
1000
0100
1000
0010
0100
,
0002
0M00
0000
M000
00M0
0000
0M00
0000
00M0
0000
M000
0000
0M00
0000
00M0
0000
,
M000
0000
0M00
0000
0003
0000
0000
0000
1MM1
0000
11MM
0000
0202
0000
0000
0003
,
0000
0000
0000
0000
0310
0000
0000
0000
1010
0000
1000
0001
0100
0000
0001
1000
,
0100
1000
0000
0001
0100
0010
1000
0100
1000
0000
0100
0000
1000
0100
2000
3000
,
0002
0103
0001
0010
0001
1000
0100
1000
0010
0100
0001
0010
0100
1000
0010
0100
,
0001
1000
0100
0010
0100
1000
0001
1000
0010
0100
0002
1003
0010
0200
0301
1000
,
0020
0130
0010
0100
0001
0010
0001
0010
0001
1000
0010
1000
0100
1000
0001
0010
,
0001
1000
0100
0010
0001
1000
0001
0010
0001
0100
0020
1030
0010
0200
0301
1000
,
0020
0130
0001
0010
0001
0010
0001
0100
0010
1000
0001
0100
0010
1000
0001
1000
,
0100
0000
M011
0M00
00M0
110M
00M0
0M00
M000
0000
M101
0M00
00M0
110M
0000
0000
,
2000
000M
0000
0M00
0000
00M0
0000
000M
3000
0100
0010
0001
0100
0000
0010
0100
,
0001
0100
0000
0010
1000
0100
0010
0000
0001
0000
0100
0000
0010
1000
0100
1000
,
0001
1000
0000
0010
0100
0000
0001
0010
0100
0000
0010
0001
1000
0000
0010
0100
,
0001
0010
0000
0100
1000
0010
0100
0000
0002
0000
0000
0000
2003
0M00
0000
000M
,
0000
0M00
0000
00M0
3000
0000
0100
0010
0100
0000
1000
0001
0100
0010
0000
0100
,
0001
0010
0100
0000
1000
0000
0001
0000
1000
0001
0000
0001
0100
0000
0010
1000
,
0100
0000
0000
0000
0000
0000
0010
0000
0000
0001
0000
0000
0100
0000
0000
0000
0000
0000
0100
0000
0000
0010
0000
0000
0100
0000
0000
0000
0000
0000
0001
0000
0000
0100
0000
0000
0010
0000
1000
0000
0100
0000
0010
0000
0000
0000
0000
0000
,
0001
0000
1000
0000
1000
0001
1000
0010
0200
0000
0300
0000
1010
0000
0010
1000
,
0000
1000
0010
0000
0100
0001
0000
0010
0000
0100
1000
0000
1100
0000
0100
0010
,
0000
0010
0001
0000
1000
0001
0000
0100
0010
0000
1010
0000
0101
0000
0100
0001
,
0000
0100
0001
0000
0010
0100
0000
1100
0000
1000
0001
0000
1001
0000
0100
0001
,
0010
0000
0100
1000
0000
1000
0000
0010
0100
0000
0100
0001
1001
0000
1000
0001
,
0000
1000
0100
0000
0010
0001
0000
1000
0000
0100
1000
0000
1010
0000
0010
1000
,
0000
0010
0100
0000
0100
0001
0000
0001
0010
0000
0100
0000
1100
0000
1000
0001
,
0000
0000
0000
1000
0000
0000
0001
0000
0000
0000
0000
0000
0010
0000
0000
0001
0000
0000
0000
0000
0000
1000
0000
0000
0000
0000
0000
0010
0000
0000
0100
0000
0000
0001
0000
0000
1000
0000
0100
0000
1000
0000
0001
0000
0100
0000
0000
0000
,
0010
0000
0010
0100
0000
0001
0000
1000
0100
0000
0110
0000
0011
0000
0010
0100
,
0000
1000
0001
0000
0001
0100
0000
0001
0000
0010
0100
0000
0110
0000
0010
0001
,
0000
0001
0100
0000
0001
0100
0000
0100
0010
0000
1000
0000
1010
0000
0010
0100
,
0000
0100
0010
0000
1000
0010
0000
1000
0000
0010
1000
0000
1001
0000
0001
0100
,
0010
0000
1000
0100
0000
1000
0000
0010
0100
0000
0001
0100
0101
0000
0100
0001
,
0000
0000
0000
1000
0000
0000
0001
0000
0000
0000
0000
0000
0001
0000
0000
1000
0000
0000
0001
0000
1000
0000
0010
0000
1000
0000
0000
0001
0000
0000
0010
0000
0000
0100
0000
0000
1000
0000
0000
0000
0000
0000
0100
0000
0000
1000
0000
0000
,
0000
0000
0000
1000
0000
0000
0010
0000
0000
0000
0000
0000
0100
0000
0000
0001
0000
0000
0010
0000
0001
0000
1000
0000
0010
0000
0000
0100
0000
0000
0001
0000
0000
1000
0000
0000
0010
0000
0000
0000
0000
0000
0000
0000
0000
0000
0000
0000
,
0000
0000
0000
0000
0000
0000
0100
0000
0000
0001
0000
0000
0010
0000
0000
0000
0000
0000
0000
0000
0000
0000
0000
0000
0000
0000
0000
0000
0000
0000
0100
0000
0000
1000
0000
0000
0010
0000
1000
0000
0001
0000
0100
0000
0010
0000
0000
0000
,
1000
0000
0100
1000
0000
1000
0000
0010
0000
0000
0000
0000
0101
0000
0100
0001
,
0000
0001
0100
0000
0010
1000
0000
0100
0000
0010
0001
0000
0011
0000
0010
0100
,
0000
0100
1000
0000
0001
1000
0000
0010
0100
0000
0101
0000
1010
0000
0010
1000
,
0000
0010
1000
0000
0100
0010
0000
0011
0000
0001
1000
0000
1001
0000
0010
1000
,
0100
0000
0010
0001
0000
0001
0000
0100
0010
0000
0010
1000
1001
0000
0001
1000
,
0000
0001
0010
0000
0100
1000
0000
0001
0000
0010
0001
0000
0101
0000
0100
0001
,
0000
0100
0010
0000
0010
1000
0000
1000
0100
0000
0010
0000
0011
0000
0001
1000
,
0000
0000
0000
0001
0000
0000
1000
0000
0000
0000
0000
0000
0100
0000
0000
1000
0000
0000
0000
0000
0000
0010
0000
0000
0000
0000
0000
0100
0000
0000
0001
0000
0000
1000
0000
0000
0100
0000
1000
0000
0001
0000
0100
0000
0010
0000
0000
0000
,
0100
0000
0010
1000
0000
1000
0000
0100
0010
0000
0110
0000
0011
0000
0010
0100
,
0000
1000
0001
0000
0001
0100
0000
0001
0000
0010
0100
0000
0110
0000
0010
0001
,
0000
0001
0100
0000
0001
0100
0000
0100
0010
0000
1000
0000
1010
0000
0010
0100
,
0000
0100
0010
0000
1000
0010
0000
1000
0000
0010
1000
0000
1001
0000
0001
0100
,
0010
0000
1000
0100
0000
1000
0000
0010
0100
0000
0001
0100
0101
0000
0100
0001
,
0000
0001
0100
0000
0010
1000
0000
0100
0000
0010
0001
0000
0011
0000
0010
0100
,
0000
0100
1000
0000
0001
1000
0000
0010
0100
0000
0101
0000
1010
0000
0010
1000
,
0000
0000
0000
0010
0000
0000
1000
0000
0000
0000
0000
0000
0100
0000
0000
0010
0000
0000
0000
0000
0000
0011
0000
0000
0000
0000
0000
0001
0000
0000
1000
0000
0000
0010
0000
0000
0100
0000
0001
0000
0010
0000
0100
0000
1000
0000
0000
0000
,
0001
0000
0100
0010
0000
1000
0000
0001
0100
0000
0110
0000
2000
0000
3001
0100
,
0020
0000
1030
0100
2000
0000
3001
0100
0002
0000
0013
0001
0200
0000
0310
1000
,
0200
0000
0310
0001
0020
0000
0130
0000
1100
0000
1000
0000
0201
0000
0301
0010
,
0200
0000
1300
0010
0200
0000
0301
0010
0002
0000
1003
0010
0200
0000
0301
1000
,
0020
0000
0130
0001
0020
0000
0031
0000
0011
0000
0010
0000
2001
0000
3001
0100
,
0020
0000
1030
0001
0200
0000
0301
1000
0020
0000
0130
0001
2000
0000
3001
0010
,
0200
0000
0310
0001
0020
0000
0031
0100
0002
0000
1003
0010
0000
0000
1000
0001
,
0000
0000
0001
0010
0000
0000
0001
1000
0000
0000
0010
0100
0000
0000
0010
1000
,
0000
0000
0001
0010
0200
0000
0000
0000
0000
0000
0000
0000
0311
0000
0000
0000
;
