#VERSION:0.83;
#TITLE:Yog Sothoth;
#SUBTITLE:;
#ARTIST:nato;
#TITLETRANSLIT:;
#SUBTITLETRANSLIT:;
#ARTISTTRANSLIT:;
#GENRE:;
#ORIGIN:;
#TAGS:;
#CREDIT:demicore;
#BANNER:ys_banner.jpg;
#BACKGROUND:ys_bg.png;
#PREVIEWVID:;
#JACKET:;
#CDIMAGE:;
#DISCIMAGE:;
#LYRICSPATH:;
#CDTITLE:;
#MUSIC:yogsothoth.mp3;
#OFFSET:-0.206000;
#SAMPLESTART:75.806000;
#SAMPLELENGTH:9.600000;
#SELECTABLE:YES;
#BPMS:0.000000=200.000000
;
#STOPS:;
#DELAYS:;
#WARPS:;
#TIMESIGNATURES:0.000000=4=4
;
#TICKCOUNTS:0.000000=4
;
#COMBOS:0.000000=1
;
#SPEEDS:0.000000=1.000000=0.000000=0
;
#SCROLLS:0.000000=1.000000
;
#FAKES:;
#LABELS:0.000000=Song Start
;
#BGCHANGES:0.000=ys_movie.mp4=1.000=0=0=1=====,
4.000=ys_movie.mp4=1.000=0=0=1=====,
99999=-nosongbg-=1.000=0=0=0 // don't automatically add -songbackground-
;
#KEYSOUNDS:;
#ATTACKS:
;

//---------------dance-single - demicore----------------
#NOTEDATA:;
#CHARTNAME:demicore;
#CHARTHASH:2371267811;
#STEPSTYPE:dance-single;
#BANNER:;
#DESCRIPTION:demicore;
#CHARTSTYLE:;
#DIFFICULTY:Challenge;
#METER:18;
#METERF:0.000000;
#LASTSECONDHINT:117.806007;
#RADARVALUES:0.954528,1.335514,0.272554,0.371664,0.933290,809.000000,776.000000,33.000000,45.000000,0.000000,0.000000,0.000000,0.000000,0.000000,0.954528,1.335514,0.272554,0.371664,0.933290,809.000000,776.000000,33.000000,45.000000,0.000000,0.000000,0.000000,0.000000,0.000000;
#CREDIT:demicore;
#NOTES:
// measure 0
0000
0000
0000
0000
,  // measure 1
0000
0000
0000
0000
,  // measure 2
0000
0000
0000
0000
,  // measure 3
2001
0000
0000
0000
3010
0000
0000
0100
,  // measure 4
0002
0000
1003
0010
0200
0000
0000
0310
,  // measure 5
2000
0000
0000
3010
0002
0000
0000
0013
,  // measure 6
0200
0000
0301
1000
0020
0000
0030
0100
,  // measure 7
0002
0000
0003
0100
2000
0000
3000
0100
,  // measure 8
0020
0000
1030
0001
0200
0000
0301
1000
,  // measure 9
0020
0000
0030
0100
2000
0000
3000
0100
,  // measure 10
0002
0000
0013
0001
2000
0000
3000
0000
,  // measure 11
1002
0000
0013
0001
0200
0000
0310
1000
,  // measure 12
0002
0000
1003
0001
0020
0000
0031
0100
,  // measure 13
0020
0000
1030
0100
0002
0000
1003
0010
,  // measure 14
0002
0000
1003
0010
0200
0000
0301
1000
,  // measure 15
0020
0000
0130
0001
0020
0000
0031
1000
,  // measure 16
0010
0010
0100
0001
2000
0000
3001
0100
,  // measure 17
0002
0000
1003
0010
0200
0000
0301
0010
,  // measure 18
0200
0000
1300
0001
2000
0000
3001
0000
,  // measure 19
1001
0000
0000
0000
,  // measure 20
0000
0000
0000
0000
,  // measure 21
1000
1000
0001
0010
0001
0100
0110
0000
,  // measure 22
1000
0000
1000
0000
0001
0000
0010
0001
0100
0000
0010
1000
0010
0000
0000
0000
,  // measure 23
0100
0000
0001
1000
0010
0000
0100
0000
0001
0000
0010
0000
0001
0000
1000
0000
,  // measure 24
0100
0000
0010
0100
1000
0000
0001
0000
0100
0000
0010
0000
1000
0000
0001
0000
,  // measure 25
0010
0000
0001
0100
0010
0000
1000
0000
0010
0000
0001
0000
0010
0000
1000
0000
,  // measure 26
0001
0000
0010
0001
0100
0000
0010
1000
0010
0000
0100
0001
0010
0000
0001
0000
,  // measure 27
1000
0000
0010
1000
0001
0000
0100
0000
0010
0000
0010
0000
1000
0000
0001
0000
,  // measure 28
0100
0000
0010
1000
0100
0000
1000
0000
0001
0000
0010
0000
0100
0000
1000
0000
,  // measure 29
0001
0000
0100
0001
0010
0000
0001
0000
1000
0000
0010
0000
0100
0000
0100
0000
,  // measure 30
0001
0000
0100
0010
2000
0000
3000
0001
0100
0010
1000
0001
1000
0000
0000
0000
,  // measure 31
0101
0000
0001
0100
0010
0000
1000
0000
0100
0000
0010
0001
1000
0000
0010
0000
,  // measure 32
0100
0000
0001
1000
0010
0000
0100
0000
0010
0000
1000
0100
0010
0000
0001
0000
,  // measure 33
0100
0000
0001
0010
1000
0000
0001
0000
1000
0000
0010
0001
1000
0000
0010
0000
,  // measure 34
0100
0000
0001
1000
0010
1000
0100
0010
0001
0000
0100
0001
1000
0000
1000
0000
,  // measure 35
0010
0000
0100
0001
1000
0000
0100
0000
1000
0000
0010
0100
0001
0000
0010
0000
,  // measure 36
0001
0000
1000
0010
0100
0000
0001
0000
1000
0000
0100
0010
0001
0000
0100
0000
,  // measure 37
0010
0000
1000
0001
0010
0000
0001
0000
0010
0000
0001
1000
0100
0000
1000
0000
,  // measure 38
0010
0000
0000
0000
0000
0000
0010
0000
0000
0000
0000
0000
0200
0000
0000
0000
0000
0000
0000
0000
0000
0301
0000
0000
1000
0000
0000
0010
0000
0000
1000
0000
0010
0000
1000
0000
0010
0000
0000
0000
0000
0000
0000
0000
0000
0000
0000
0000
,  // measure 39
0010
1010
0010
0110
0010
1010
0100
0101
,  // measure 40
0000
0000
0000
1000
0000
0000
0010
0000
0000
0000
0000
0000
0100
0000
0001
0000
0010
0000
0100
0000
1000
0000
0010
0000
,  // measure 41
0100
0101
0010
1010
1000
1001
0001
0011
,  // measure 42
0000
0000
0000
1000
0000
0000
0001
0000
0000
0000
0000
0000
0100
0000
0010
0000
1000
0000
0001
0000
0010
0000
0100
0000
,  // measure 43
1000
1100
0010
0110
1000
1001
0001
0101
,  // measure 44
0000
0000
0000
1000
0000
0000
0010
0000
0000
0000
0000
0000
1000
0000
0010
0000
0100
0000
0001
0000
0100
0000
0010
0000
,  // measure 45
0100
0001
1000
0100
1000
0010
0100
0001
0100
0010
0001
0010
,  // measure 46
0100
0000
0000
0000
0001
0000
0000
0000
1000
0000
0000
0000
0010
0000
0000
0000
0100
0000
0000
0000
0001
0000
0000
0000
0010
0000
0000
0000
0000
0000
0001
0000
0000
1000
0000
0000
0000
0000
0000
0010
0000
0000
0100
0000
0000
0000
0000
0000
,  // measure 47
1000
0000
0100
0010
1000
0000
0001
0100
0001
0000
0100
0010
1000
0000
0001
0100
,  // measure 48
0010
0000
0000
1000
0000
0000
1000
0000
0000
0000
0000
0000
0010
0000
1000
0000
0001
0000
0010
0000
0001
0000
0100
0000
,  // measure 49
0010
0000
1000
0010
0100
0000
0010
1000
0001
0000
0100
0001
0010
0000
0001
0100
,  // measure 50
1000
0000
0000
0100
0000
0000
0001
0000
0000
0000
0000
0000
1000
0000
0100
0000
0001
0000
1000
0000
0010
0000
0001
0000
,  // measure 51
1000
0000
0010
0001
0100
0000
0001
1000
0010
0000
1000
0100
0010
0000
0100
0010
,  // measure 52
0001
0000
0000
1000
0000
0000
0010
0000
0000
0000
0000
0000
0100
0000
0010
0000
0001
0000
1000
0000
0010
0000
0100
0000
,  // measure 53
0001
0100
0010
0001
1000
0100
0010
1000
0001
0100
0010
1000
,  // measure 54
0010
0000
0000
0000
0100
0000
0000
0000
0010
0000
0000
0000
1000
0000
0000
0000
0001
0000
0000
0000
0100
0000
0000
0000
0010
0000
0000
0000
0000
0000
0100
0000
0000
0001
0000
0000
0000
0000
0000
1000
0000
0000
0010
0000
0000
0000
0000
0000
,  // measure 55
2002
0000
0000
0000
,  // measure 56
0000
0003
0020
3000
,  // measure 57
0200
0000
0000
0000
,  // measure 58
0000
0030
0002
0300
,  // measure 59
0010
0010
0010
0010
,  // measure 60
1000
1000
0203
0010
,  // measure 61
0320
0100
0001
1000
,  // measure 62
0130
0000
0000
0000
0001
0100
0010
1000
0100
0000
0010
0000
0010
0000
0000
0000
,  // measure 63
0101
0000
0000
0001
0000
0000
1000
0000
0000
0010
0000
0000
1000
0000
0000
0100
0000
0000
0010
0000
0001
0000
1000
0000
,  // measure 64
0010
0200
0001
0001
0001
0001
0301
0000
,  // measure 65
1010
0000
0000
1000
0000
0000
0001
0000
0000
0010
0000
0000
0001
0000
0100
0000
0001
0000
1000
0000
0010
0000
0100
0000
,  // measure 66
0002
0000
0010
0010
0010
0010
0013
0000
,  // measure 67
1001
0000
0000
0000
0000
0000
1000
0000
0000
0000
0000
0000
0010
0000
0000
0000
0000
0000
0100
0000
0000
0000
0000
0000
0001
0000
0000
1000
0000
0000
0010
0000
0000
0000
0000
0000
0100
0000
0000
0000
0100
0000
0000
0000
0100
0000
0000
0000
,  // measure 68
0001
0000
0000
0000
0000
0000
1000
0000
0000
0001
0000
0000
0010
0000
0000
0000
0000
0000
0100
0000
0000
0000
0000
0000
1000
0000
0000
0000
0000
0000
0001
0000
0000
0000
0000
0000
1000
0000
0000
0000
0010
0000
0000
0000
1000
0000
0000
0000
,  // measure 69
1001
0000
0101
0000
0110
0000
1100
0000
0011
0000
0101
0000
,  // measure 70
1001
0000
1000
0000
0010
0001
0100
0001
1000
0100
0010
0001
0100
0000
0000
0000
,  // measure 71
2002
0000
0000
0000
,  // measure 72
3003
0000
0000
0000
,  // measure 73
0100
0000
0100
0000
0001
0000
1000
0010
0100
0000
0001
0000
1001
0000
0000
0000
,  // measure 74
0100
0000
0001
0100
0010
0000
1000
0001
0100
0000
0010
1000
0010
0100
0001
0010
,  // measure 75
0001
0000
1000
0001
0000
1000
0010
0000
0100
0001
0000
0010
0001
0000
0100
0010
,  // measure 76
1000
0000
0010
0100
0000
0001
1000
0000
0100
0010
0000
0001
0010
0000
0001
0100
,  // measure 77
0010
0000
1000
0010
0000
1000
0100
0000
0001
0010
0000
0001
1000
0000
0010
0100
,  // measure 78
0001
0000
1000
0010
0000
0100
0001
0000
1000
0010
1000
0000
0010
0100
0001
0000
,  // measure 79
0100
0000
0010
0100
0000
0001
0010
0000
1000
0010
0000
1000
0100
0000
1000
0001
,  // measure 80
0100
0010
1000
0000
0001
0010
0001
0000
1000
0010
0100
0000
0001
1000
0001
0000
,  // measure 81
1000
0100
0010
0001
1000
0000
0010
0000
0100
0010
1000
0001
0010
0000
0001
0000
,  // measure 82
0100
0010
1000
0010
0100
0001
0010
0001
1000
0000
0010
1000
0000
1000
0001
0000
,  // measure 83
0110
0000
0010
1000
0000
0001
0010
0000
0001
0100
0000
0010
1000
0001
0010
0000
,  // measure 84
0001
0000
0100
0001
0000
0010
0001
0000
1000
0100
0000
1000
0010
0100
0001
0000
,  // measure 85
0100
0000
0010
0100
0000
0010
1000
0000
0001
0010
0000
0001
0100
0010
0100
0000
,  // measure 86
0001
0010
0001
1000
0010
0100
0001
0010
0100
1000
0010
0100
0001
0100
0010
1000
,  // measure 87
0001
0000
0000
0000
0000
0000
0000
0000
1000
0010
0100
0001
1000
0000
0010
0000
,  // measure 88
0100
0001
0010
0000
0001
0000
1000
0000
0010
0100
0001
0000
1000
0000
0010
0000
,  // measure 89
1000
0001
0010
0000
0001
0000
0100
0000
0010
0100
0001
0000
1000
0000
0010
0000
,  // measure 90
0100
0001
0010
0000
0001
0000
1000
0000
0100
1000
0001
0000
0100
0000
0010
0000
,  // measure 91
1000
0001
0010
0001
1000
0000
0010
0000
0100
0010
1000
0001
0010
0000
0001
0000
,  // measure 92
1000
0010
0100
0000
0001
1000
0010
0000
0110
0000
0000
0000
1001
0000
0000
0000
,  // measure 93
1000
0100
0010
0001
0100
0001
0010
0001
1000
0010
0100
0001
0010
0100
1000
0010
,  // measure 94
0100
0001
0010
0001
1000
0010
0100
0001
0010
0001
1000
0100
0010
0100
1000
0010
,  // measure 95
0100
0001
0010
0001
1000
0010
0100
0001
0010
0001
1000
0010
0100
0010
0100
0002
,  // measure 96
2000
0000
0000
0000
,  // measure 97
0000
0000
0000
0000
,  // measure 98
3003
0000
0000
0000
;
