#TITLE:XEROiZE;
#SUBTITLE:;
#ARTIST:FE;
#TITLETRANSLIT:;
#SUBTITLETRANSLIT:;
#ARTISTTRANSLIT:;
#GENRE:;
#CREDIT:;
#BANNER:xeroizebanner.png;
#BACKGROUND:;
#LYRICSPATH:;
#CDTITLE:;
#MUSIC:xeroize.mp3;
#OFFSET:-0.583000;
#SAMPLESTART:20.833000;
#SAMPLELENGTH:10.000000;
#SELECTABLE:YES;
#BPMS:0.000000=200.000000
;
#STOPS:
;
#BGCHANGES:;
#KEYSOUNDS:;
#ATTACKS:;

//---------------dance-single - demicore----------------
#NOTES:
     dance-single:
     demicore:
     Beginner:
     3:
     0.210586,0.275927,0.074638,0.074638,0.000000,158.000000,150.000000,8.000000,8.000000,0.000000,0.000000,0.210586,0.275927,0.074638,0.074638,0.000000,158.000000,150.000000,8.000000,8.000000,0.000000,0.000000:
0000
0000
0000
0000
,
0000
0000
0000
0000
,
0000
0000
0000
0000
,
0000
0000
0000
0000
,
0001
0000
0001
0000
,
1000
0000
1000
0000
,
0010
0000
0010
0000
,
0100
0000
0100
0000
,
0001
0000
1000
0000
,
0010
0000
1000
0000
,
0001
0000
0010
0000
,
0001
0000
0100
0000
,
0010
0000
0000
0100
,
0000
0000
0010
0000
,
0110
0000
0000
0000
,
1001
0000
0000
0000
,
0000
0000
0000
0000
,
0100
0100
0100
0000
,
0001
0001
0001
0000
,
1000
0010
1000
0000
,
0001
0000
0100
0000
,
0010
0010
0010
0000
,
1000
1000
1000
0000
,
0001
0000
1000
0000
,
0001
1000
0001
0000
,
0200
0000
0300
0000
,
0020
0000
0030
0000
,
2000
0000
3000
0000
,
0002
0000
0003
0000
,
0020
0000
0030
0000
,
0002
0000
0003
0000
,
2000
0000
3000
0000
,
0002
0000
0003
0000
,
0100
0000
0010
0000
,
0100
0000
0000
0000
,
0001
0000
1000
0000
,
0001
0000
0000
0000
,
1000
0000
0010
0000
,
1000
0000
0000
0000
,
0001
0000
0100
0000
,
0001
0000
0000
0000
,
1001
0000
0000
0000
,
0110
0000
0000
0000
,
0000
0000
0000
0000
,
1000
0000
0010
0000
,
0100
0000
0001
0000
,
1000
0000
0000
0000
,
1010
0000
0000
0000
,
1000
0000
0001
0000
,
0010
0000
0001
0000
,
0100
0000
0000
0000
,
0101
0000
0000
0000
,
1000
1000
1000
0000
,
0001
0001
0001
0000
,
0100
0000
0001
0000
,
1000
0001
1000
0000
,
0010
0010
0010
0000
,
1000
1000
1000
0000
,
0001
0000
0100
0000
,
0001
0000
0110
0000
,
0000
0000
1000
1000
,
1000
0000
0001
0000
,
0010
0000
0001
0001
,
0001
0000
0100
0000
,
0010
0000
1000
0010
,
1000
0000
0010
0000
,
0100
0000
0001
0000
,
1000
0000
0001
0000
,
0001
0000
0100
0000
,
0100
0000
0010
0000
,
0010
0000
1000
0000
,
1000
0000
0010
0000
,
0010
0000
0100
0000
,
0100
0000
0001
0000
,
0001
0000
1000
0000
,
1000
0000
0001
0000
,
0001
0000
0100
0000
,
0010
0000
1000
0000
,
0010
0000
0100
0000
,
0001
0000
0010
0000
,
0001
0000
1000
0000
,
0100
0000
1000
0000
,
0010
0000
1000
0000
,
0100
0000
0010
0000
,
0001
0000
1001
0000
;

//---------------dance-single - demicore----------------
#NOTES:
     dance-single:
     demicore:
     Easy:
     7:
     0.346534,0.401179,0.102627,0.214584,0.000000,260.000000,249.000000,11.000000,23.000000,0.000000,0.000000,0.346534,0.401179,0.102627,0.214584,0.000000,260.000000,249.000000,11.000000,23.000000,0.000000,0.000000:
0000
0000
0000
0000
,
0000
0000
0000
0000
,
0000
0000
0000
0000
,
0000
0000
0000
0000
,
1000
0000
0010
0000
0000
0100
0000
0000
,
0001
0000
0010
0000
0000
0001
0000
0000
,
1000
0000
0001
0000
0000
0100
0000
0000
,
0010
0000
0000
0010
0000
0000
0010
0000
,
0100
0100
0001
0001
,
1000
1000
0010
0100
,
0010
1000
0001
0010
,
0001
0001
1000
1000
,
0010
0000
0000
0010
0000
0000
0100
0000
,
0000
0100
0000
0000
0001
0000
0001
0000
,
2000
0000
3000
0000
,
0002
0000
0003
0000
,
0000
0000
0000
0000
,
0100
0010
1000
1000
,
0001
0010
0001
0001
,
1000
0010
1000
0001
,
0010
0001
0100
0010
,
0100
0010
1000
1000
,
0001
0100
0001
0001
,
1000
0000
0010
0000
0000
0010
0000
0000
,
0100
0001
1000
0010
,
0200
0300
0002
0003
,
2000
3000
0020
0230
,
0302
0003
2000
3000
,
0020
0000
0030
0000
,
0100
0100
0001
0001
,
1000
1000
0010
0100
,
0001
0001
1000
1000
,
0020
0000
0030
0000
,
0110
0000
0000
1000
0000
0001
0000
0000
,
0220
0000
0330
0000
,
1001
0000
0000
1000
0000
0001
0000
0000
,
1001
0000
0100
0010
,
1010
0000
0000
1000
0000
0010
0000
0000
,
2020
0000
3030
0000
,
0101
0000
0000
0001
0000
0100
0000
0000
,
0001
0000
0000
1000
0000
0000
0010
0000
,
0000
0100
0000
0000
0010
0000
0010
0000
,
0020
0000
0000
0000
,
0030
0000
0000
0000
,
1000
0010
0100
0001
,
1000
0010
1000
0001
,
0020
0000
0030
0000
,
2002
0000
3003
0000
,
0001
1000
0010
1000
,
0001
0010
0001
1000
,
0020
0000
0030
0000
,
0100
0200
0300
0000
,
0001
1000
0010
0010
,
0100
0001
1000
1000
,
0010
1000
0010
0100
,
0001
1000
0001
0010
,
0001
1000
0100
0100
,
1000
0010
0100
0100
,
0001
0000
1000
0000
0000
1000
0000
0000
,
0010
0100
0010
0100
,
0000
0000
0001
1000
,
0001
0000
0000
0100
0000
0000
0001
0000
,
0100
0010
1000
0001
,
1000
0000
0000
0010
0000
0000
0100
0000
,
0010
0000
0100
0001
,
1000
0000
0000
0010
0000
0100
0000
0000
,
0010
1000
0001
0000
,
1000
0010
0100
0000
,
0110
0000
0001
0001
,
1000
1000
0010
0010
,
0100
0100
0001
0001
,
0010
0010
0100
0100
,
1000
1000
0001
1000
,
0010
0100
0010
0010
,
1000
1000
0001
0100
,
0001
1000
0010
0010
,
0100
0000
1010
0000
,
1000
0001
1000
0000
,
0001
0100
0010
0000
,
1000
0001
0010
0000
,
0001
1000
0010
0010
,
1000
0010
0100
0100
,
0001
1000
0010
0100
,
0001
1000
0010
0010
,
0100
0100
0220
0000
,
0000
0000
0000
0000
,
0330
0000
0000
0000
;

//---------------dance-single - demicore----------------
#NOTES:
     dance-single:
     demicore:
     Medium:
     11:
     0.481149,0.521533,0.139946,0.382520,0.060643,361.000000,346.000000,15.000000,41.000000,0.000000,0.000000,0.481149,0.521533,0.139946,0.382520,0.060643,361.000000,346.000000,15.000000,41.000000,0.000000,0.000000:
0000
0000
0000
0000
,
0000
0000
0000
0000
,
0000
0000
0000
0000
,
0000
0000
0000
0000
,
1000
0000
0010
0000
0000
0100
0000
0001
,
0100
0000
0001
0000
0000
1000
0000
0001
,
1000
0000
0010
0000
0000
0100
0000
0010
,
0200
0320
2030
3020
,
0130
0000
0100
0000
0001
1000
0001
0000
,
0100
0000
0010
0000
1000
0010
0100
0000
,
0001
0000
1000
0001
0000
0010
0002
0000
,
0000
0000
1003
0000
0010
0100
0010
0000
,
1000
0000
1000
0001
0000
0001
0010
0000
,
0010
0001
0000
0100
0010
0000
0110
0000
,
1000
1000
0000
0001
0001
0000
1000
1000
,
0000
0010
0010
0000
0200
0000
0020
0000
,
0330
0000
0000
0000
,
1000
0001
1000
0000
0010
0000
0010
0000
,
0100
0001
0010
0000
0001
0000
1000
0000
,
0010
1000
0010
0000
0100
0000
0001
0000
,
1000
0010
1000
0000
0001
0010
0001
0000
,
1000
0001
0010
0000
0001
0000
0100
0000
,
0001
1000
0010
0000
0100
0000
0010
0000
,
1000
0001
0010
0000
0001
0000
1000
0000
,
0010
0100
0010
0100
0010
0000
0110
0000
,
2000
3001
0002
0103
,
0200
0310
0020
1030
,
2000
3010
0020
0130
,
0010
0000
1000
0000
0001
1000
0001
0000
,
0200
0301
0002
1003
,
2000
3010
0020
0130
,
0200
0301
0002
1003
,
0010
0000
0010
0000
1000
0001
1000
0000
,
0010
0000
1000
0010
0000
1000
0000
0001
,
0200
0000
0300
0000
,
0010
0000
0100
0010
0000
0100
0000
0001
,
2000
0000
3000
0001
0000
0100
0001
0000
,
0100
0000
0001
1000
0000
0010
0000
1000
,
0002
0000
0003
0000
,
0100
0000
0010
1000
0000
0001
1000
0000
,
1001
0000
0000
1010
0000
0000
0110
0000
,
0000
0101
0000
0000
1001
0000
1000
0000
,
0010
0100
0010
0100
0010
0000
0000
0000
,
0000
0000
0000
0000
,
1000
0010
1000
0000
0001
0000
0010
0000
,
0001
0100
0001
0000
1000
0000
0001
0000
,
0020
0000
0030
0000
,
0001
1000
0001
0000
1001
0000
0000
0000
,
0100
0010
0100
0000
0001
0000
1000
0000
,
0010
1000
0010
0000
0100
0000
0010
0000
,
2000
0000
3000
0000
,
2002
0000
3003
0000
,
1000
0000
0001
0000
0010
0001
0000
0010
,
0001
0000
0100
0000
0010
1000
0000
0010
,
1000
0000
0010
0100
0001
0000
1000
0000
,
0020
0130
2000
3010
,
0100
0000
0001
0000
1000
0010
0000
0100
,
0010
0000
0100
0000
0001
0100
0000
0010
,
0100
0000
0010
1000
0000
0010
1000
0000
,
0020
0230
0320
0130
,
0000
0000
1000
0010
,
0100
0000
0001
1000
0000
0001
1000
0000
,
0001
0010
0000
0001
0100
0000
0001
0000
,
1000
0010
0000
0010
0000
0010
0100
0000
,
1001
0000
0100
0001
,
1000
0001
0000
0001
0000
1000
0000
1000
,
0010
0000
0100
0000
0001
0100
0000
0010
,
0000
0100
0010
0000
1000
0000
0001
0000
,
1001
0000
1000
1000
,
0001
0000
0100
0001
0000
0000
0100
0000
0000
0010
0000
0000
,
1000
0000
0001
0100
0000
0000
0001
0000
0000
1000
0000
0000
,
0001
0000
0010
0001
0000
0000
0010
0000
0010
1000
0000
0000
,
0001
0000
0001
1000
0000
0000
0010
0000
0000
0100
0000
0000
,
0001
0000
1000
0001
0000
0000
0010
0000
0000
0001
0000
0000
,
0100
0000
0010
1000
0000
0000
0010
0000
0000
0100
0000
0000
,
0001
0000
1000
0001
0000
0000
0200
0000
0000
0320
0000
0000
,
0230
0320
1030
1001
,
0001
0100
0010
1010
,
1000
0001
0010
0011
,
0001
1000
0020
2030
,
3002
0203
0310
1000
,
0001
0000
1000
0001
0000
0000
0100
0000
0010
1000
0000
0000
,
0001
0010
0001
1000
,
0001
0000
0100
0010
0000
0000
1000
0000
0001
1000
0000
0000
,
0001
0000
1000
0001
0000
0000
2002
0000
0000
0000
0000
0000
,
0000
0000
0000
0000
,
3003
0000
0000
0000
;

//---------------dance-single - demicore----------------
#NOTES:
     dance-single:
     demicore:
     Hard:
     14:
     0.751711,0.842476,0.317212,0.205255,0.382520,564.000000,530.000000,34.000000,22.000000,0.000000,0.000000,0.751711,0.842476,0.317212,0.205255,0.382520,564.000000,530.000000,34.000000,22.000000,0.000000,0.000000:
0000
0000
0000
0000
,
0000
0000
0000
0000
,
0000
0000
0000
0000
,
0000
0000
0000
0000
,
1000
0000
0010
0100
0000
0001
1000
0100
,
1000
0000
0010
0100
0000
0001
1000
0100
,
0010
0000
0001
0100
0000
0001
1000
0010
,
1000
0000
0000
0010
0000
0000
0001
0000
0010
0000
0001
0000
1000
0000
0001
0000
,
0011
0000
0100
0010
1010
1000
0001
0000
,
0110
0000
0100
0001
1001
1000
0010
0100
,
0101
0000
0001
1000
0000
0010
1000
0000
,
0001
0000
1000
0000
0010
0000
0100
0000
0001
1000
0001
1000
0001
0000
0000
0000
,
0100
0010
1000
0001
0000
0100
0001
1000
,
0010
1000
0000
0010
0100
0000
1010
0000
,
2000
0010
3000
0002
0010
0003
0200
0010
,
0300
0020
1000
0030
1000
0001
0010
0001
,
0000
0000
0000
0000
0000
0000
0000
0000
0000
0000
0000
0000
0000
0000
1000
0010
,
1000
0000
0001
0000
0010
0000
0001
0000
0100
0000
0100
0000
0000
0000
0001
1000
,
0001
0000
0010
0000
0001
0000
0100
0000
0010
0000
0010
0000
0000
0000
1000
0001
,
1000
0001
0010
0001
1000
0010
0100
0010
,
1000
1000
0001
0001
0010
0001
0100
0001
,
1000
0000
0010
0000
0100
0000
0010
0000
1000
0000
1000
0000
0000
0000
0001
0010
,
0001
0000
0100
0000
0001
0000
1000
0000
0100
0000
0100
0000
0000
0000
0010
0001
,
0010
0001
1000
0001
0000
1000
0010
0000
,
1000
0000
0001
0000
0010
0000
0001
0000
0100
0001
0100
0001
0100
0000
0000
0000
,
0001
1000
0100
0000
1000
0010
0100
0000
,
0001
0100
0001
0000
1000
0010
0100
0001
,
0010
0001
1000
0000
0001
0100
0010
0000
,
1010
1000
1001
0000
0011
0001
0101
0000
,
1000
0001
0020
0000
0031
0100
0020
0000
,
1030
0010
2000
0000
3001
0010
0001
0100
,
0010
1000
0002
0000
0013
0001
0200
0000
,
0310
1010
1001
0011
,
0010
0000
1010
1000
0001
0010
0001
0100
,
0020
1000
0100
1030
,
0001
0000
0101
0100
0010
1000
0001
0010
,
0001
0000
1000
0010
0000
0100
0010
0000
,
1000
0000
1010
1000
0010
0100
0001
0010
,
0002
0000
1003
0010
0100
0010
1000
0000
,
0011
0000
0100
0110
0000
0001
1001
0000
,
0010
1000
0010
0000
0000
0000
0100
0010
0100
0000
0000
0000
0001
0010
0001
0000
,
0000
0000
0100
0001
0100
0000
0000
0000
0010
0000
0100
0000
0010
0000
0100
0000
,
0001
1000
0001
1000
0001
0000
0000
0000
0220
0000
0000
0000
0000
0000
0000
0000
,
0330
0000
0000
0000
,
1000
0010
1000
0000
0010
0000
0100
0001
0100
0000
0010
0000
1000
0001
1000
0000
,
0001
0000
0010
0001
0010
0000
0001
0000
1000
0000
0010
0000
0100
0000
0010
0000
,
1000
0000
0000
1000
0000
0000
0001
0000
0000
0010
0000
0000
0001
0000
0000
0000
,
1000
0000
0010
1000
0010
0000
0100
0000
0002
0000
0000
0000
0003
0000
0000
0000
,
0001
0100
0001
0000
1000
0000
0010
0100
0010
0000
1000
0000
0100
0010
0100
0000
,
0001
0000
0010
0001
0010
0000
0001
0000
0100
0000
0001
0000
1000
0000
0010
0000
,
0100
0000
0000
0001
0000
0000
1000
0000
0000
0000
0010
0000
0100
0000
0001
0000
,
0200
0000
0000
0000
0020
0000
0000
0000
0330
0000
0000
0000
0000
0000
0001
1000
,
0001
0000
1000
0010
1000
0000
0010
0000
0100
0000
0100
0000
0000
0000
0001
0010
,
0001
0000
1000
0001
1000
0000
0001
0000
0010
0000
0010
0000
0000
0000
0001
1000
,
0001
0100
0010
1000
0001
1000
0010
0100
,
0001
0010
1000
0010
0001
1000
0001
0100
,
0010
0000
1000
0010
1000
0000
0001
0000
0100
0000
0100
0000
0000
0000
0010
1000
,
0010
0000
0100
0010
0100
0000
0001
0000
1000
0000
1000
0000
0000
0000
0001
0010
,
0001
1000
0001
0010
0000
0100
1000
0000
,
0001
0000
1000
0000
0010
0000
0100
0000
0001
1000
0001
1000
0001
0000
0000
0000
,
0000
0000
0000
0000
1000
0010
0100
0010
,
1000
0001
0010
0001
0000
1000
0010
0000
,
0100
0001
0000
1000
0001
0000
1010
0000
,
1000
0001
0010
0001
0000
1000
0010
0000
,
2000
0000
3001
0000
0100
0010
1000
0010
,
0100
0001
0000
1001
0000
1100
0000
0010
,
0001
0100
0001
0000
1000
1010
0000
1001
,
0000
0001
0100
0000
0002
0000
2003
0000
,
3010
0000
0000
0100
0000
0000
0000
0000
0000
0000
0000
0000
1000
0000
0000
0000
0010
0000
1000
0000
0000
0000
0000
0000
,
0001
0000
0100
0001
0000
0000
0100
0000
0010
0100
0000
0000
,
0001
0000
1000
0001
0000
0010
0001
0000
0000
0100
0000
0010
,
1000
0000
0000
0010
0000
0100
0001
0000
0000
0100
0000
0000
,
1010
0000
0000
1001
0000
0000
0010
0000
0100
0010
0000
1000
,
0001
0000
0010
0001
0000
1000
0100
0000
0000
0010
0000
0001
,
0100
0000
0000
0010
0000
2000
0000
3000
0001
0100
0000
0001
,
1000
0000
0010
0100
0000
0010
1000
0000
0000
1010
0000
0000
,
1001
0000
0000
0011
0000
0000
1000
0000
1000
0010
0000
0010
,
0100
0000
0100
0010
0000
0010
1000
0000
1000
0010
0000
0010
,
0001
0000
0001
0010
0000
0010
0100
0000
0100
0001
0000
0001
,
1000
0000
1000
0010
0000
0010
0100
0000
0000
0101
0000
0000
,
1001
0000
0000
1010
0000
0000
0100
0010
1000
0010
0000
0000
,
0100
0000
0001
0010
0000
0000
0001
0000
1000
0010
0000
0000
,
0100
0000
0010
1000
0000
0000
0001
0000
0001
0100
0000
0100
,
0010
0000
0010
1000
0000
1000
0001
1000
0010
1000
0000
0000
,
0001
0100
0001
1000
0000
0000
2002
0000
0000
0000
0000
0000
,
0000
0000
0000
0000
,
3003
0000
0000
0000
;

//---------------dance-single - demicore----------------
#NOTES:
     dance-single:
     demicore:
     Challenge:
     18:
     1.022274,1.323892,0.653083,0.662412,0.928310,767.000000,697.000000,70.000000,71.000000,0.000000,0.000000,1.022274,1.323892,0.653083,0.662412,0.928310,767.000000,697.000000,70.000000,71.000000,0.000000,0.000000:
// measure 0
0000
0000
0000
0000
,  // measure 1
0000
0000
0000
0000
,  // measure 2
0000
0000
0000
0000
,  // measure 3
0000
0000
0000
0000
,  // measure 4
1000
0000
1001
0000
0001
0100
0010
1000
,  // measure 5
0010
0000
0101
0000
1000
0010
0001
0010
,  // measure 6
1000
0000
0011
0000
0001
1000
0010
1000
,  // measure 7
0100
0000
0000
1000
0000
0000
0001
0000
0100
0000
0010
0000
1010
0000
0000
0000
,  // measure 8
1000
0000
0001
0100
0001
0000
0010
0000
0001
0000
1000
0100
1000
0000
0010
0000
,  // measure 9
0100
0000
0010
1000
0010
0000
0100
0000
0001
1000
0001
0000
0010
0001
0010
0000
,  // measure 10
0001
0000
1000
0010
0100
0000
0001
1000
0001
0000
0100
0001
0010
0000
0001
0000
,  // measure 11
1000
0000
0010
0000
0100
0000
0010
0000
1000
0001
0010
0001
0100
0000
0000
0000
,  // measure 12
1020
1000
0130
0002
0000
0013
0020
0100
,  // measure 13
0130
0002
0000
1003
1001
0000
0110
0000
,  // measure 14
1000
0100
0002
0000
0003
0000
1000
0010
0002
0000
0003
0000
0001
0010
2000
0000
,  // measure 15
3000
0000
0010
0001
0200
0000
0300
0000
0001
1000
0010
1000
0100
0010
0001
0200
,  // measure 16
0020
0000
0000
0000
0000
0000
0000
0000
0330
0000
0000
0000
0000
0000
0100
0001
,  // measure 17
1000
0000
0010
1000
0010
0100
0001
0000
0100
0000
0110
0000
0000
0000
0001
1000
,  // measure 18
0100
0000
1000
0010
0100
0010
1000
0000
0001
0000
1001
0000
0000
0000
0010
0001
,  // measure 19
0100
0000
0010
1000
0020
0000
0230
0000
0302
0000
0023
0000
0230
0000
2300
0000
,  // measure 20
3002
0010
0203
0010
0302
2003
3020
0230
,  // measure 21
0301
0000
1000
0010
1000
0000
0001
0100
0001
0000
0011
0000
0000
0000
0100
0010
,  // measure 22
1000
0000
0001
0100
0001
1000
0010
0000
0100
0000
0101
0000
0000
0000
1000
0001
,  // measure 23
0100
0000
0001
0010
0002
0000
1003
0000
0000
0000
1010
0000
1100
0000
0000
0000
,  // measure 24
1000
0000
0010
0000
0100
0010
0100
0010
1000
0001
0010
0001
0100
0000
0000
0000
,  // measure 25
1010
1000
1001
0001
0011
0101
1010
1000
,  // measure 26
0110
0010
1010
1000
0002
0010
2003
0010
,  // measure 27
3001
1000
1010
0010
0110
0101
0011
0001
,  // measure 28
2000
3020
0230
0320
2030
3200
0320
0032
,  // measure 29
1003
0010
1010
1000
0110
1010
1001
0001
,  // measure 30
0011
0010
1001
0001
0200
0010
0302
0010
,  // measure 31
0103
0010
1010
1000
1010
1100
0110
0010
,  // measure 32
1000
0010
0000
0000
0001
0100
0000
0000
0010
0100
0000
0000
1000
0001
0000
0000
,  // measure 33
1000
0000
1010
0010
0100
0001
0011
0001
,  // measure 34
1000
0010
0100
0000
0001
0000
1000
0000
0010
0100
0001
0000
0010
0000
0001
0000
,  // measure 35
0011
0000
1010
1000
0001
0100
0101
0001
,  // measure 36
1000
0010
0100
0000
0001
0000
0100
0010
1000
0000
0001
0010
0001
0000
0000
0000
,  // measure 37
1001
0000
0110
0010
1000
0001
0101
0100
,  // measure 38
0010
1000
0001
0000
0010
0000
0001
0000
1000
0010
0100
0000
0001
0000
1000
0000
,  // measure 39
1100
0000
0011
0001
0100
0010
1010
1000
,  // measure 40
0001
0100
0010
0000
1000
0000
0001
0100
0010
0000
1000
0000
0010
0100
0001
0000
,  // measure 41
1000
0000
0100
0010
0001
0000
1000
0000
0010
0000
1000
0000
0001
0000
0100
0000
,  // measure 42
0010
1000
0001
0100
0010
1000
0010
0100
0001
0000
0000
0000
1001
0000
1001
0000
,  // measure 43
0000
0000
0001
0100
0010
0000
2000
0000
0002
0000
0000
0000
3000
0000
0003
0000
,  // measure 44
1000
0010
0100
0010
1000
0100
0010
0001
0100
0001
0010
0001
1000
0100
0010
1000
,  // measure 45
0010
0100
1000
0001
0100
0010
0100
0001
1000
0010
1000
0001
0010
0001
0100
0010
,  // measure 46
0100
0000
0010
1000
0000
0001
1000
0000
0001
0010
0000
0000
0000
0000
0000
0000
,  // measure 47
0010
0000
1000
0001
0010
0000
0002
0000
0200
0000
0000
0000
0003
0000
0300
0000
,  // measure 48
0001
1000
0010
1000
0100
0010
0001
0100
0010
0100
0001
1000
0010
0100
0010
0001
,  // measure 49
0010
0100
0010
1000
0001
0100
0001
0010
0001
1000
0010
0100
0010
1000
0100
0010
,  // measure 50
0001
1000
0000
0001
1000
0000
0010
1000
0000
0001
0100
0000
0000
0000
0000
0000
,  // measure 51
2000
0000
0000
0000
0002
0000
0000
0000
0000
0000
0000
0000
3003
0000
0010
0100
,  // measure 52
0001
0000
1000
0010
0100
0000
0001
0010
0001
0000
0101
0000
0000
0000
1000
0010
,  // measure 53
0100
0000
0001
1000
0010
0000
0100
0010
0100
0000
0110
0000
0000
0000
0100
0010
,  // measure 54
1000
0000
0001
0100
0002
0000
2003
0000
3002
0000
0100
0000
2003
0000
0001
0000
,  // measure 55
3020
0230
2300
3200
0320
0230
0302
2003
,  // measure 56
3010
0000
0100
0001
1000
0000
0001
0010
0100
0000
1001
0000
0000
0000
0100
0010
,  // measure 57
1000
0000
0001
0010
0001
0000
1000
0001
0010
0000
0011
0000
0000
0000
0001
1000
,  // measure 58
0010
0000
0100
0001
1000
0001
0100
0000
0000
0000
0010
1000
0001
0000
0000
0000
,  // measure 59
2000
0000
3002
0000
0103
0010
1000
0001
0010
0001
0100
0010
1000
0000
0000
0000
,  // measure 60
0000
0000
0000
0000
2000
0010
3200
0010
,  // measure 61
2300
0001
3001
0100
0020
1030
0001
0200
,  // measure 62
0301
1000
0002
0013
0200
0010
0302
1000
,  // measure 63
0203
0010
0310
0001
1000
0010
0100
0000
,  // measure 64
1001
0000
0001
0100
0011
0001
1001
0100
,  // measure 65
1010
1100
1000
1001
0000
0110
0000
0011
,  // measure 66
0101
0100
0110
0000
2000
0001
3010
0002
,  // measure 67
0100
0013
0200
0000
0310
0000
1010
0000
,  // measure 68
2002
0000
0000
3003
0000
0000
1000
0000
1000
0001
0000
0001
,  // measure 69
0010
0000
0010
0001
1000
0010
0100
0000
0100
0010
0000
0010
,  // measure 70
1000
0000
1000
0001
0000
0110
0000
0000
1000
0001
0000
0001
,  // measure 71
0100
0000
0010
1000
0000
1000
0001
0000
0000
0101
0000
0000
,  // measure 72
1001
0000
0000
1010
0000
1000
0001
0000
0100
0001
0000
0010
,  // measure 73
1000
0000
0100
0010
0000
0100
0001
0000
1000
0001
0000
0001
,  // measure 74
0100
0000
0010
1000
0000
1010
0000
0000
0100
0001
0000
0001
,  // measure 75
1000
0000
0000
0000
0000
0000
0000
0000
0010
0000
0000
0000
0100
0000
0000
0000
0000
0000
0000
0000
0001
0000
0000
0000
1000
0000
0000
0010
0000
0000
1000
0000
0000
0010
0000
0000
0100
0000
0000
0001
0000
0000
1000
0000
0000
0001
0000
0000
,  // measure 76
0010
0000
0000
1001
0000
0000
1000
0000
0010
0100
0000
0001
,  // measure 77
1000
0001
0010
0100
0000
1000
0010
0000
1000
0001
0000
0010
,  // measure 78
0001
0000
0010
0100
0000
1000
0001
0000
0100
0001
0000
1000
,  // measure 79
0010
0100
0001
1000
0000
0010
0100
0001
1000
0010
0000
0100
,  // measure 80
0001
1000
0010
0100
0000
0001
1000
0100
0010
0001
0000
0100
,  // measure 81
0010
1000
0100
0010
0000
0001
0100
0001
1000
0010
0100
0010
,  // measure 82
1000
0100
0010
0001
0100
0001
0010
0001
1000
0001
0100
0010
,  // measure 83
1000
0010
1000
0001
0010
0001
1000
1000
1000
0001
0001
0001
,  // measure 84
0100
0010
1000
0001
0010
0001
2002
0000
0000
0000
0000
0000
,  // measure 85
0000
0000
0000
0000
,  // measure 86
3003
0000
0000
0000
;
