#TITLE:Speed King;
#SUBTITLE:;
#ARTIST:David Kane;
#TITLETRANSLIT:;
#SUBTITLETRANSLIT:;
#ARTISTTRANSLIT:;
#GENRE:;
#CREDIT:;
#MUSIC:speedking.ogg;
#BANNER:speedking-bn.png;
#BACKGROUND:speedking-bg.png;
#CDTITLE:;
#SAMPLESTART:36.806;
#SAMPLELENGTH:13.252;
#SELECTABLE:YES;
#OFFSET:0.004;
#BPMS:0.000=163.000;
#STOPS:;
#BGCHANGES:;
#FGCHANGES:;

//--------------- dance-single - demicore ----------------
#NOTES:
     dance-single:
     demicore:
     Beginner:
     2:
     0,0,0,0,0:
0000
0000
0000
0000
,
0000
0000
0000
0000
,
0000
0000
0000
0000
,
0000
0000
0000
0000
,
1000
1000
1000
0000
,
0010
0010
0010
0000
,
0100
0000
0001
0000
,
0010
0000
0001
0100
,
0010
0000
0010
0000
,
1000
0000
0001
0000
,
0200
0000
0300
0000
,
0020
0000
0030
0000
,
0100
0000
0100
0000
,
0010
0000
1000
0000
,
0002
0000
0003
0000
,
2000
0000
3000
0000
,
0110
0000
0001
0000
,
1001
0000
1000
0000
,
0010
0010
0010
0000
,
0100
0010
0100
0000
,
0101
0000
0001
0000
,
1001
0000
1000
0000
,
0200
0000
0320
0000
,
0032
0000
2003
0000
,
3000
0000
0000
0000
,
0001
1000
0000
0000
,
0010
0000
0100
0000
,
0001
0000
0001
0000
,
1000
0000
1000
0000
,
0001
0010
0000
0000
,
0001
0000
0100
0000
,
0010
0000
0010
0000
,
1000
0001
1000
0000
,
0010
1000
0000
0000
,
0001
0000
0100
0000
,
0010
0000
0010
0000
,
1000
0000
1000
0000
,
0010
0100
0000
0000
,
0001
0000
1000
0000
,
0020
0000
0000
0000
,
0130
0000
0110
0000
,
2000
0000
3000
0000
,
0002
0000
0003
0000
,
0200
0000
0300
0000
,
0020
0000
0030
0000
,
2001
0000
3000
0000
,
0120
0000
0030
0000
,
0012
0000
0003
0000
,
0210
0000
0300
0000
,
0101
0000
0001
0000
,
1010
0000
1000
0000
,
0001
0001
0001
0000
,
0010
0001
0010
0000
,
0011
0000
0100
0000
,
1100
0000
1000
0000
,
0002
0000
0203
0000
,
0320
0000
2030
0000
,
3000
0000
0000
0000
,
0001
0010
0000
0000
,
0001
0000
0100
0000
,
0010
0000
0010
0000
,
1000
0000
1000
0000
,
0010
0100
0000
0000
,
0001
0000
0100
0000
,
0001
0000
0001
0000
,
0100
0010
0100
0000
,
0010
1000
0000
0000
,
0001
0000
0010
0000
,
0100
0000
0100
0000
,
1000
0000
1000
0000
,
0010
0100
0000
0000
,
0001
0000
1000
0000
,
0002
0000
0000
0000
,
0103
0000
1001
0000
;

//--------------- dance-single - demicore ----------------
#NOTES:
     dance-single:
     demicore:
     Easy:
     5:
     0,0,0,0,0:
0000
0000
0000
0000
,
0000
0000
0000
0000
,
0000
0000
0000
0000
,
0000
0000
0000
0000
,
1000
0010
1000
0000
,
0001
0100
0001
0000
,
0200
0000
0320
0000
,
1030
0010
0100
0010
,
0000
0100
0100
0000
,
0001
0000
1000
0010
,
0200
0000
0302
0000
,
1003
1000
0010
0010
,
0100
0001
0010
0000
,
0001
1000
0010
1000
,
0200
0000
2300
0000
,
3001
0001
0100
0100
,
0110
0000
0001
1000
,
1001
0000
1000
0010
,
0010
0100
0001
0010
,
0001
1000
0100
0100
,
1100
0000
0001
0010
,
0011
0000
0100
0010
,
0110
0000
1001
0000
,
0011
0000
1100
0000
,
0020
0000
0230
0000
,
0301
0001
0000
1000
,
0010
0100
0010
1000
,
0002
0100
0103
0000
,
2000
0010
3010
0000
,
0001
1000
0000
0001
,
0100
0010
1000
0010
,
0100
0001
0101
0000
,
2000
3020
0230
0302
,
1003
0100
0000
1000
,
0010
0100
0001
0010
,
0200
0010
0310
0000
,
2000
0010
3010
0000
,
0100
0001
0000
0010
,
0001
1000
0010
0100
,
0020
0000
0230
0000
,
0301
1000
0010
0110
,
2000
0000
3002
0000
,
1003
0010
0100
0001
,
0020
0000
0032
0000
,
0103
0010
1000
0100
,
0020
0000
0230
0000
,
1300
0001
0010
0001
,
2000
0000
3020
0000
,
0130
0001
1001
0000
,
0110
0000
0001
0100
,
0110
0000
1000
0010
,
0100
0001
0010
0100
,
1000
0010
0100
0001
,
1001
0000
0010
1000
,
1001
0000
0100
0001
,
1001
0000
1100
0000
,
0011
0000
0101
0000
,
2000
0000
3020
0000
,
0130
0001
0000
1000
,
0001
0010
0100
1000
,
0002
0100
1003
0000
,
0200
0010
0301
0000
,
0100
0010
0000
0100
,
0001
1000
0010
0100
,
0010
1000
1001
0000
,
0002
0023
0230
2300
,
3001
0100
0000
0010
,
1000
0001
0010
0001
,
2000
0100
3010
0000
,
0002
0010
0103
0000
,
0010
1000
0000
0001
,
0100
0010
1000
0100
,
0020
0000
0032
0000
,
1003
0010
1000
1100
;

//--------------- dance-single - demcore ----------------
#NOTES:
     dance-single:
     demcore:
     Medium:
     9:
     0,0,0,0,0:
0000
0000
0000
0000
,
0000
0000
0000
0000
,
0000
0000
0000
0000
,
0000
0000
0000
0000
,
1000
0001
1000
0000
0010
0000
0010
0000
,
0100
0001
0100
0000
0001
0000
0001
0000
,
1000
0001
0010
0100
,
1000
0100
1000
0000
0010
0100
0010
0000
,
0100
0000
0001
0000
0010
0000
0001
1000
,
0000
0001
1000
0000
0010
0100
0010
0000
,
2000
0000
0000
3002
0000
0000
0003
0000
,
0010
0001
0010
0000
0001
0100
0000
0000
,
0000
0010
1000
0000
0001
0000
0100
0001
,
0000
0100
0010
0000
1000
0001
1000
0000
,
0020
0000
0000
0230
0000
0000
0300
0000
,
0001
1000
0001
0000
1000
0010
0000
0000
,
1001
0000
1000
0000
0010
0000
0100
0001
,
0000
0100
0001
0000
1000
0000
0001
0000
,
0100
0010
0100
0000
0010
1000
0000
1001
,
0000
0001
0010
0000
0001
0000
0100
0000
,
0101
0000
0001
0000
1000
0000
0010
1000
,
0000
0010
1000
0000
0001
0000
0100
0000
,
0020
1030
0200
0301
,
1000
0001
1000
0000
0001
0100
0010
0000
,
2000
3002
2003
3002
,
0103
0000
0110
0000
0000
0010
0100
0010
,
0000
0100
0001
1000
,
1010
0000
0010
0000
0100
0001
0000
0100
,
0000
0001
0100
0000
0020
0000
2030
0000
,
3001
0000
0101
0000
0000
0100
0010
0100
,
0000
0000
0001
0000
1000
0000
0010
1000
,
0000
0000
0100
0010
0100
0010
0000
0000
,
0002
0203
0320
2030
,
3001
0000
1001
0000
0000
1000
0010
1000
,
0000
0010
0100
0001
,
0011
0000
0001
0000
1000
0100
0000
1000
,
0000
0100
1000
0000
0020
0000
0230
0000
,
0301
0000
0011
0000
0000
0001
0100
0001
,
0000
0000
0100
0000
0010
0000
1000
0002
,
0000
0010
0000
0013
,
0001
0100
0001
0000
1000
0010
1000
0000
,
0001
0001
0100
0010
,
1000
1000
0100
0010
,
0001
0100
0010
1000
,
0100
0001
0100
1000
,
0010
0100
0001
0010
,
0001
0100
0010
1000
,
0002
0100
0100
0103
,
0010
0100
0010
0000
0110
0000
0000
0000
,
0101
0000
0001
0000
1000
0000
0100
1000
,
0000
0100
1000
0000
0010
0000
0100
0000
,
0001
0100
0001
0000
1000
0010
0000
0110
,
0000
0010
0100
0000
0001
0000
0010
0000
,
0011
0000
0001
0000
1000
0000
0010
0100
,
0000
0010
0100
0000
0001
0000
0010
0000
,
0002
0103
2000
3010
,
0100
0010
0100
0000
0001
1000
0001
0000
,
0200
0320
0230
0320
,
0130
0000
0101
0000
0000
0001
1000
0001
,
0000
1000
0010
0100
,
0110
0000
0010
0000
1000
0001
0000
1000
,
0000
0010
0100
0000
0002
0000
0023
0000
,
0031
0000
1001
0000
0000
0010
0100
0010
,
0000
0000
0100
0000
0001
0000
1000
0010
,
0000
0000
0100
0001
0100
0001
0000
0000
,
0020
0032
2003
3020
,
0130
0000
0110
0000
0000
0001
1000
0001
,
0000
0100
0010
1000
,
1100
0000
0100
0000
0010
0001
0000
0010
,
0000
0001
0100
0000
0020
0000
2030
0000
,
3001
0000
1001
0000
0000
0001
0100
0001
,
0000
0000
1000
0000
0001
0000
0100
0020
,
0000
1000
0000
1030
,
0010
0100
0010
0000
1000
0010
1000
0000
;

//--------------- dance-single - demicore ----------------
#NOTES:
     dance-single:
     demicore:
     Hard:
     13:
     0,0,0,0,0:
0000
0000
0000
0000
,
0000
0000
0000
0000
,
0000
0000
0000
0000
,
0000
0000
0000
0000
,
1000
0000
0001
0200
0000
0000
0310
0000
0100
0000
0001
0000
1000
0001
1000
0000
,
0010
0000
0100
0002
0000
0000
1003
0000
0010
0000
1000
0000
0010
0100
0010
0000
,
0100
0000
0001
2000
0000
0000
3010
0000
0100
0000
0001
0000
0010
0000
0010
0000
,
0001
1000
0001
0000
1000
0000
0010
0000
0100
0000
0001
0100
0001
0000
0000
0000
,
0010
0001
1000
0010
0100
0010
1000
1100
,
0000
0010
0001
0100
0010
0100
0001
0000
,
2000
0000
3010
0200
1000
0000
0301
0000
,
0020
0001
0031
1000
0010
0110
0000
0000
,
0101
0001
1000
0010
0100
0010
0001
0010
,
0000
1000
0001
0010
0001
0100
0010
0000
,
2000
0000
3001
0020
0100
0000
0031
0000
,
2000
0010
3010
0100
0001
0011
0000
0000
,
1020
0000
1030
0001
0010
0001
0100
0120
,
0000
0130
0001
0010
0100
1000
1010
0000
,
0011
0001
0100
0010
0110
1010
0000
1001
,
0000
0011
0010
0001
0100
0000
0110
0000
,
0102
0000
1003
0010
0100
0010
1000
2100
,
0000
3001
0100
1000
0100
0001
0011
0000
,
1010
0000
0000
1000
0010
0000
0000
0010
0001
0000
0000
0001
0100
0000
0000
0100
,
1000
0000
0001
0000
0010
0000
0001
0000
1000
0001
1000
0001
1000
0000
0000
0000
,
0001
0000
0000
0100
0010
0000
0000
0100
0010
0000
0010
0000
1000
0000
0000
0000
,
1001
0000
0011
0000
0100
0010
1000
0102
,
0000
0013
0001
0001
1000
0010
0100
0000
,
0101
0000
0110
0000
1010
0010
0000
1000
,
0001
0100
0001
0000
1000
0000
0010
0000
2000
0000
0100
0000
3100
0000
0000
0000
,
1010
0000
0101
0000
0010
0001
1000
0010
,
0000
1000
0001
0010
1000
0010
0001
0100
,
0000
0010
1010
1000
0001
0011
0000
0100
,
0020
0000
0000
0000
1030
0000
0000
0000
0001
1000
0001
0000
0010
0000
0001
0000
,
0101
0000
0110
0000
1000
0001
1000
1200
,
0000
0310
0001
1000
0010
0100
0001
0000
,
0011
0000
0110
0000
1100
1000
0000
0001
,
0100
0010
0100
0000
0001
0000
1000
0000
0020
0000
0100
0000
0130
0000
0000
0000
,
0011
0000
1100
0000
1000
0010
0100
0102
,
0000
0013
0100
0000
1000
0010
0100
0002
,
0010
1000
0100
1003
,
0010
0010
1000
0001
0100
0010
0110
0000
,
1000
0001
0100
0020
0000
1000
0000
0001
,
0000
0130
0001
0100
0010
1000
0000
1001
,
0000
0001
1000
0200
0000
0001
0000
1000
,
0000
0000
0310
0000
0001
0000
1000
0000
0010
0000
0100
0000
0001
1000
0001
1000
,
0010
0100
0001
2000
0000
0001
0000
0100
,
0000
3010
0100
0001
1000
0010
0100
0010
,
2000
3200
0302
0023
,
1030
1000
0001
0100
0110
0000
0000
0000
,
2001
0000
3010
1000
0001
0100
0001
0021
,
0000
0031
1000
0010
0100
0001
1001
0000
,
1010
1000
0001
0010
0011
0110
0000
1001
,
0000
1100
0010
0001
0101
0000
0110
0000
,
1020
0000
0130
0001
0010
0100
1000
2100
,
0000
3010
0100
0001
0010
0001
0101
0000
,
0110
0000
0000
0100
0001
0000
0000
0001
1000
0000
0000
1000
0100
0000
0000
0100
,
0010
0000
0001
0000
1000
0000
0010
0000
1000
0100
1000
0100
1000
0000
0000
0000
,
0001
0000
0000
1000
0010
0000
0000
1000
0100
0000
0100
0000
0010
0000
0000
0000
,
0011
0000
1001
0000
1000
0010
0100
0102
,
0000
1003
0100
0001
0100
1000
0010
0000
,
1100
0000
0011
0000
0110
0010
0000
1000
,
0001
0100
0001
0000
1000
0000
0010
0000
0200
0000
0001
0000
0301
0000
0000
0000
,
0110
0000
1001
0000
1000
0010
0100
0020
,
0000
0031
0010
1000
0001
0100
0010
1000
,
0000
0001
0011
0010
0001
1001
0000
1000
,
0020
0000
0000
0000
0130
0000
0000
0000
0001
1000
0001
0000
0010
0000
0001
0000
,
0101
0000
0110
0000
1000
0010
0100
0201
,
0000
0310
1000
0010
0001
0010
0100
0000
,
0101
0000
1001
0000
1010
1000
0000
0001
,
0010
0001
0100
0001
0010
0000
0001
0000
2000
0000
0100
0000
3100
0000
0000
0000
,
0011
0000
1001
0000
1000
0001
1000
2100
,
0000
3010
0100
0000
0001
0100
0010
2000
,
0100
0001
0010
3001
,
0100
0001
1000
0010
0001
0010
1010
0000
;
