#TITLE:See;
#SUBTITLE:;
#ARTIST:Doin;
#TITLETRANSLIT:;
#SUBTITLETRANSLIT:;
#ARTISTTRANSLIT:;
#GENRE:;
#CREDIT:;
#MUSIC:see.mp3;
#BANNER:seebanner.jpg;
#BACKGROUND:;
#CDTITLE:;
#SAMPLESTART:27.230;
#SAMPLELENGTH:14.744;
#SELECTABLE:YES;
#OFFSET:-0.404;
#BPMS:0.000=293.000;
#STOPS:;
#BGCHANGES:;
#FGCHANGES:;

//--------------- dance-single - demicore - "level 0" ----------------
#NOTES:
     dance-single:
     demicore - "level 0":
     Beginner:
     3:
     0,0,0,0,0:
0000
0000
0000
0000
,
0000
0000
0000
0000
,
0000
0000
0000
0000
,
0000
0000
0000
0000
,
0000
0000
0000
0000
,
0000
0000
0000
0000
,
0000
0000
0000
0000
,
0000
0000
0000
0000
,
0002
0000
0000
0000
,
0003
0000
0000
0000
,
0200
0000
0000
0000
,
0300
0000
0000
0000
,
0020
0000
0000
0000
,
0030
0000
0000
0000
,
2000
0000
0000
0000
,
3000
0000
0000
0000
,
0001
0000
0000
0100
,
0000
0000
0002
0000
,
0003
0000
0000
0000
,
1001
0000
0000
0000
,
1000
0000
0000
0010
,
0000
0000
2000
0000
,
3000
0000
0000
0000
,
1010
0000
0000
0000
,
0010
0000
0000
0100
,
0000
0000
0020
0000
,
0030
0000
0000
0000
,
0110
0000
0000
0000
,
0100
0000
0000
0001
,
0000
0000
0100
0000
,
0000
0010
0000
0000
,
1000
0000
0000
0000
,
0000
0000
0000
0000
,
0000
0001
0000
0001
,
0000
0100
0000
0100
,
0000
0010
0000
0010
,
0000
1000
0000
0000
,
0010
0000
0000
0010
,
0000
0100
0000
0100
,
0000
0001
0000
0001
,
0000
0001
0000
0000
,
0000
1000
0000
1000
,
0000
0010
0000
0010
,
0000
0100
0000
0100
,
0000
0010
0000
0000
,
0000
0100
0000
0100
,
0000
0001
0000
0001
,
0000
0010
0000
0010
,
0000
0010
0000
0000
,
0000
0001
0000
1000
,
0000
0000
0000
0010
,
0000
0010
0000
0100
,
0000
0000
0000
0000
,
0000
0010
0000
1000
,
0000
0000
0000
0001
,
0000
0001
0000
0100
,
0000
0000
0000
0000
,
0000
0001
0000
1000
,
0000
0000
0000
0100
,
0000
0100
0000
1000
,
0000
0000
0000
0000
,
0000
0010
0000
1000
,
0000
0000
0000
0010
,
0000
0010
0000
0200
,
0000
0000
0300
0000
,
0020
0000
0000
0000
,
0030
0000
0000
0000
,
2000
0000
0000
0000
,
3000
0000
0000
0000
,
0020
0000
0000
0000
,
0030
0000
0000
0000
,
0200
0000
0000
0000
,
0300
0000
0000
0000
,
0010
0000
0000
0010
,
0000
0000
0100
0000
,
0100
0000
0000
0000
,
0001
0000
1000
0000
,
0001
0000
0000
0001
,
0000
0000
1000
0000
,
0000
1000
0000
0000
,
0001
0000
0100
0000
,
0001
0000
0001
0000
,
1000
0000
1000
0000
,
0010
0000
0100
0000
,
0001
0000
0010
0000
,
0001
0000
0001
0000
,
1000
0000
1000
0000
,
0010
0000
0000
0000
,
0110
0000
0000
0000
,
1000
0000
0001
0000
,
0010
0000
0001
0000
,
0100
0000
0001
0000
,
1000
0000
0000
0000
,
0001
0000
1000
0000
,
0100
0000
1000
0000
,
0010
0000
1000
0000
,
0001
0000
0000
0000
,
0100
0000
0000
0100
,
0000
0000
0010
0000
,
0000
0010
0000
0000
,
0100
0000
0000
0000
,
0001
0000
0000
1000
,
0000
0000
0001
0000
,
0000
1000
0000
0000
,
0010
0000
0000
0000
,
0220
0000
0000
0000
,
0330
0000
0000
0000
,
0000
0001
0000
0001
,
0000
0000
0000
1000
,
0000
0001
0000
0010
,
0000
0000
0000
0000
,
0000
0001
0000
0100
,
0000
0000
0000
0010
,
0000
1000
0000
0010
,
0000
0000
0000
0000
,
0000
0100
0000
0100
,
0000
0010
0000
0010
,
0000
1000
0000
0001
,
0000
0010
0000
0001
,
0000
0100
0000
0100
,
0000
0010
0000
0010
,
0000
0100
0000
0001
,
0000
1000
0000
0001
,
0000
0001
0000
0100
,
0000
0100
0000
0010
,
0000
1000
0000
0010
,
0000
0100
0000
0010
,
0000
0010
0000
1000
,
0000
1000
0000
0001
,
0000
0010
0000
0001
,
0000
1000
0000
0000
,
0020
0000
0000
0000
,
0030
0000
0000
0000
,
0000
0100
0000
0001
,
0000
1000
0000
0001
,
0000
0010
0000
0001
,
0000
0100
0000
0002
,
0000
0000
0000
0003
;

//--------------- dance-single - demicore - "level 37" ----------------
#NOTES:
     dance-single:
     demicore - "level 37":
     Easy:
     5:
     0,0,0,0,0:
0000
0000
0000
0000
,
0000
0000
0000
0000
,
0000
0000
0000
0000
,
0000
0000
0000
0000
,
0000
0000
0000
0000
,
0000
0000
0000
0000
,
0000
0000
0000
0000
,
0000
0000
0000
0000
,
0002
0000
0000
0000
,
1003
0000
0000
0000
,
2000
0000
0000
0000
,
3010
0000
0000
0000
,
0020
0000
0000
0000
,
0130
0000
0000
0000
,
0200
0000
0000
0000
,
0301
0000
0000
0000
,
0001
0000
0000
1000
0000
0000
0001
0000
,
0000
1000
0000
0000
0002
0000
0000
0000
,
0003
0000
1000
0000
,
1000
0000
0001
0000
,
0100
0000
0000
0001
0000
0000
0100
0000
,
0000
0001
0000
0000
0200
0000
0000
0000
,
0300
0000
0001
0000
,
0001
0000
0000
0000
,
1000
0000
0000
0001
0000
0000
1000
0000
,
0000
0001
0000
0000
2000
0000
0000
0000
,
3000
0000
0010
0000
,
0010
0000
0100
0000
,
0010
0000
0000
1000
0000
0000
0010
0000
,
0000
1000
0000
0000
0010
0000
0000
0000
,
0000
0110
0000
0000
,
1001
0000
0000
0020
,
0000
0000
0030
0000
,
0100
0100
0000
0001
,
1000
0001
0000
0100
,
0000
0010
0000
1000
,
0000
0001
0001
0000
,
1000
1000
0000
0010
,
1000
0010
0000
0100
,
0000
0001
0000
0010
,
0000
0001
0001
0000
,
1000
0010
0000
0100
,
0010
0100
0000
0001
,
0000
1000
0000
0010
,
0000
0100
0100
0000
,
0001
0010
0000
0001
,
1000
0001
0000
1000
,
0000
0010
0000
0100
,
0000
0020
0000
0030
,
0000
0100
0000
0001
,
0000
1000
0000
0010
,
0000
1000
0010
1000
,
0000
0001
0010
0000
,
0000
0001
0000
0100
,
0000
0010
0000
1000
,
0000
0001
0000
0100
,
0000
0010
0100
0000
,
0010
0100
0000
0001
,
0000
0100
0000
0001
,
1000
0001
0000
0100
,
0000
0010
1000
0000
,
0000
0010
0000
0100
,
0000
0001
0000
1000
,
0000
0010
0000
0100
,
0000
0000
0000
0010
0000
0000
0000
0000
,
0200
0000
0000
0000
,
0301
0000
0000
0000
,
0002
0000
0000
0000
,
1003
0000
0000
0000
,
2000
0000
0000
0000
,
3010
0000
0000
0000
,
0020
0000
0000
0000
,
0130
0000
0000
0000
,
0001
0000
0000
1000
0000
0000
0001
0000
,
0000
1000
0000
0000
0001
0000
0000
0000
,
0000
0000
0100
0000
,
0110
0000
0000
0000
,
1000
0000
0000
0010
0000
0000
1000
0000
,
0000
0010
0000
0000
1000
0000
0000
0000
,
0000
0000
0001
0000
,
0101
0000
0000
0000
,
0001
0000
0000
0100
0000
0000
0001
0000
,
0000
0100
0000
0000
0001
0000
0000
0000
,
0000
0000
1000
0000
,
1001
0000
0000
0000
,
0100
0000
0000
0001
0000
0000
0100
0000
,
0000
0001
0000
0000
0100
0000
0000
0000
,
0000
0110
0000
0000
,
1001
0000
0000
0000
,
1000
0010
1000
0000
,
0010
0000
0100
0000
,
0001
0000
0001
0000
,
1000
0000
1000
0000
,
0001
0010
0001
0000
,
0100
0000
0010
0000
,
1000
0000
1000
0000
,
0100
0000
0100
0000
,
1000
0010
1000
0000
,
0001
1000
0001
0000
,
0010
0000
0010
0000
,
0001
0000
0001
0000
,
0100
0010
0100
0000
,
0010
1000
0010
0000
,
0000
1001
0000
0000
,
0110
0000
0000
2002
,
0000
0000
0000
0000
,
3003
0000
0000
0000
,
0100
0010
0000
1000
,
0000
0001
0000
0010
,
0000
0001
0000
0100
,
0000
0010
1000
0000
,
0010
1000
0000
0010
,
0000
0100
0000
0001
,
0000
0010
0000
0001
,
0000
1000
0001
0000
,
0100
0100
0010
0010
,
0000
1000
0000
0001
,
0000
0010
0001
0000
,
0000
0100
0100
0000
,
0001
0001
1000
1000
,
0000
0010
0000
0100
,
0000
0001
0000
1000
,
0000
0010
0010
0000
,
0000
0110
0000
1001
,
0000
1000
0000
0001
,
0000
0010
0000
0001
,
0000
0100
0100
0000
,
0000
0101
0000
1010
,
0000
1000
0000
0010
,
0000
0100
0000
0001
,
0000
1000
1000
0000
,
2002
0000
0000
0000
,
3003
0000
0000
0000
,
0001
0001
0100
0100
,
0000
0010
0000
0000
,
0100
0100
0000
0010
,
0000
0100
0000
0220
,
0000
0000
0000
0330
;

//--------------- dance-single - demicore - "level fun" ----------------
#NOTES:
     dance-single:
     demicore - "level fun":
     Medium:
     9:
     0,0,0,0,0:
0000
0000
0000
0000
,
0000
0000
0000
0000
,
0000
0000
0000
0000
,
0000
0000
0000
0000
,
0000
0000
0000
0000
,
0000
0000
0000
0000
,
0000
0000
0000
0000
,
0000
0000
0000
0000
,
0002
0000
0003
1000
,
0001
0000
0000
0100
,
0020
0000
0030
1000
,
0010
0000
0000
0000
,
0002
0000
0003
1000
,
0010
0000
0000
1000
,
0200
0000
0300
0010
,
0002
0000
1003
0000
,
0010
0000
0000
1000
0000
0000
0001
0000
,
0000
0010
0000
0000
0001
0000
0000
0000
,
0100
0010
0100
0000
,
0010
0100
0010
0000
,
1000
0000
0000
0001
0000
0000
0100
0000
,
0000
0001
0000
0000
1000
0000
0000
0000
,
0010
0100
0001
0000
,
1000
0010
2000
3000
,
0010
0000
0000
1000
0000
0000
0010
0000
,
0000
0100
0000
0000
0001
0000
0000
0000
,
1000
0001
1000
0000
,
0010
0100
0010
0010
,
1000
0000
0000
0001
0000
0000
0010
0000
,
0000
0001
0000
0000
0100
0000
0000
0010
,
0000
0000
1000
0000
0000
0001
0000
0000
,
0100
0000
0000
0002
0000
0000
2000
0000
,
0000
0000
3003
0000
,
1000
0010
1000
0001
,
0100
0001
0000
1000
,
0001
1000
0000
0010
,
0000
0110
0000
0100
,
0001
0100
0001
1000
,
0001
1000
0000
0010
,
0100
0010
0000
1000
,
0000
1001
0000
0001
,
0010
0001
1000
0010
,
1000
0010
0000
0100
,
0010
0100
0000
0010
,
0000
1010
0000
1000
,
0001
1000
0010
1000
,
0010
1000
0000
0001
,
0100
0001
0000
1000
,
0000
1001
0000
0000
,
1000
0010
0100
0002
,
0003
0010
0001
0200
,
0300
0010
1000
0001
,
0010
0001
0000
1000
,
0010
0100
0010
2000
,
3000
0001
0010
0001
,
1000
0001
0100
0010
,
0100
0010
0000
1000
,
0001
0010
0001
0200
,
0300
0010
1000
0010
,
0010
0100
0001
1000
,
0001
0010
0001
0000
,
1000
0010
0100
0020
,
0030
1000
0001
1000
,
0010
0100
0001
1000
,
0001
0000
0100
0000
,
0002
0000
0003
1000
,
0001
0000
0000
0010
,
0002
0000
0003
1000
,
0001
0000
0000
0000
,
2000
0000
3000
0010
,
1000
0000
0000
0010
,
0200
0000
0300
0001
,
1000
0000
1001
0000
,
0010
0000
0000
0010
0000
0000
0100
0000
,
0000
0100
0000
0000
0001
0000
0000
0001
,
0000
0000
1000
0000
0000
1000
0000
0000
,
0001
0000
0000
0100
0000
0000
0001
0000
,
1000
0000
0000
1000
0000
0000
0010
0000
,
0000
0010
0000
0000
0100
0000
0000
0100
,
0000
0000
0001
0000
0000
0001
0000
0000
,
1000
1000
0001
0001
,
0010
0000
0011
0000
,
0001
1000
0001
0000
,
0100
0010
0100
0000
,
0001
1000
0010
1000
,
0001
0000
0101
0000
,
1000
0000
0001
0000
1000
0000
0000
0001
,
0000
0000
0010
0000
0000
0001
0000
0000
,
0100
0000
0000
0010
0000
0000
1000
0000
,
0010
0100
0010
0000
,
1000
0001
1000
0000
,
0001
0000
0101
0000
,
1000
0010
0100
0000
,
0001
1000
0001
0000
,
1000
0010
1000
0000
,
0010
0000
0110
0000
,
1000
0010
1000
0010
,
0100
0000
0001
0000
,
1000
0001
1000
0000
,
0010
0000
0110
0000
,
0001
1000
0010
0000
,
0100
0001
0100
0000
,
0001
1000
0002
0000
,
0003
0000
0100
0000
0000
0010
0000
0000
,
0100
0000
0000
0010
0000
0000
2000
0000
,
0000
0000
0000
0000
,
0000
0000
3000
0000
,
0001
1000
0001
2000
,
3000
0010
0100
0020
,
0030
1000
0001
0010
,
0000
0011
0000
0000
,
0001
1000
0010
0200
,
0300
0001
1000
0002
,
0003
0100
0010
1000
,
0010
1000
0000
0000
,
0001
1000
0001
0020
,
0030
0001
1000
0200
,
0300
1000
0001
0010
,
0001
0100
0000
0000
,
0001
1000
0010
0200
,
0300
0010
1000
0002
,
0003
1000
0001
0010
,
0001
0100
0000
0000
,
0010
1000
0010
2000
,
3000
0001
0100
0002
,
0003
0010
0001
1000
,
0001
0010
0000
0000
,
0001
1000
0001
0020
,
0030
0001
1000
0200
,
0300
1000
0010
1000
,
0010
0200
0300
0000
,
2002
0000
0000
0000
,
3003
0000
0000
0000
,
0100
0010
0100
0010
,
0000
0110
0000
0000
,
1000
1000
0001
0001
,
0000
0010
0000
0220
,
0000
0000
0000
0330
;

//--------------- dance-single - demicore - "level !" ----------------
#NOTES:
     dance-single:
     demicore - "level !":
     Hard:
     14:
     0,0,0,0,0:
0000
0000
0000
0000
,
0000
0000
0000
0000
,
0000
0000
0000
0000
,
0000
0000
0000
0000
,
0000
0000
0000
0000
,
0000
0000
0000
0000
,
0000
0000
0000
0000
,
0000
0000
0000
0000
,
2000
0000
0000
3001
,
0100
0010
1000
1000
,
0000
0000
0001
1000
0001
0000
0100
0000
,
0010
1000
0000
0001
,
1000
1000
0001
0001
,
0010
0000
0001
0000
0000
0000
0100
0010
,
0100
0010
0000
1000
,
0001
0000
0010
0000
0001
0000
1000
0001
,
1000
0000
1000
0010
0000
0000
0100
0000
,
0100
0001
0000
0000
0200
0000
0000
0000
,
0310
0000
1010
1000
,
0001
0000
0100
0001
0100
0000
0010
0000
,
0100
0000
0100
0001
0000
0000
0001
0000
,
0001
1000
0000
0000
0020
0000
0000
0000
,
0030
0000
1001
1000
,
0001
0000
0100
0000
0010
0100
0010
0000
,
1000
0000
0000
0101
0000
0000
0010
0000
,
0000
1010
0000
0000
2000
0000
0000
0000
,
3000
0000
0001
0100
0001
0000
0100
0000
,
0010
0000
1000
0000
0001
0100
0001
0100
,
0001
0000
0000
1001
0000
0000
1000
0000
,
0000
0110
0000
0000
0020
0000
0000
2030
,
0000
0000
3002
0000
0000
0023
0000
0000
,
0032
0000
0000
2003
0000
0000
3020
0000
,
0130
0000
0001
1000
0001
0000
0100
0000
,
0010
0010
1000
1000
,
0001
0100
0001
0000
0100
0000
0010
0000
,
0010
1000
0001
0100
,
0001
1000
0002
0003
,
0100
0010
0010
1000
,
1000
0000
0001
0100
0001
0000
1000
0000
,
0010
0100
0010
0000
1000
0000
0001
0000
,
0100
0001
0020
0030
,
0001
1000
1000
0010
,
0010
0000
1000
0100
1000
0000
0001
0000
,
0100
0000
0001
0000
0100
0010
0100
0000
,
0001
1000
0020
0030
,
0100
0001
0001
1000
,
1000
0000
0010
0100
0010
0000
1000
0000
,
0001
1000
0001
0000
0010
0000
0001
0000
,
0000
2002
3003
0000
,
1000
0010
0100
0101
,
0000
0001
1000
1010
,
0000
0100
0001
0010
,
0001
1000
0001
0000
1000
0010
1000
0000
,
0001
0100
0010
1010
,
0000
0000
0100
0000
0001
0000
1000
0001
,
1000
0000
0010
0000
0100
0000
0001
0010
,
0001
1000
0002
0003
,
0100
0010
1000
1001
,
0000
0001
0100
0010
,
0100
0000
0001
0000
1000
0010
1000
0000
,
0001
0100
1000
0100
,
0001
1000
0010
1010
,
0000
0000
0100
0000
0001
0000
0100
0010
,
0100
0001
1000
0001
,
1000
0000
0010
0000
0000
0100
0000
0000
,
0220
0000
0000
0000
,
0330
0000
0000
0001
,
1000
0010
1000
0001
,
0010
0001
0001
0000
,
0100
0001
1000
0001
,
0100
0010
0100
0000
0000
0000
0001
1000
,
0001
0100
0010
0000
0000
0000
0100
0000
,
0110
0000
0001
0000
1000
0000
0001
0010
,
0001
0000
0001
1000
0000
1000
0010
0000
,
0010
0100
0000
0000
0001
0000
0000
1000
,
0000
1000
0001
0000
0001
0010
0000
0010
,
0100
0000
0100
1000
0000
0000
0001
0100
,
0001
0000
0001
1000
0000
1000
0010
0000
,
0010
0100
0000
0100
0010
0000
0000
0100
,
0000
0000
0001
0000
0001
1000
0000
1000
,
0010
1000
0001
0010
,
0011
0000
0000
0000
1001
0000
0010
1000
,
0010
0100
0001
1000
,
0101
0000
1001
0000
,
1000
0010
1000
0010
1000
0000
0000
0000
,
0001
1000
0010
0100
,
0001
0010
0001
0000
1000
0000
0000
1010
,
0000
0000
0001
0000
0000
0101
0000
0000
,
0200
0320
0230
0320
,
1030
0000
0001
0000
0010
0000
0001
1000
,
0001
0100
0010
1000
,
0001
0000
0001
0000
1000
0010
1000
0000
,
0001
0000
0100
0010
0000
0000
1000
0010
,
1000
0001
0010
0001
,
0100
0010
1000
1000
,
0010
1000
0010
0000
0100
0000
0001
0000
,
2000
3200
0320
0032
,
0103
0010
1000
0001
,
0010
0000
0001
0000
1000
0001
1000
0000
,
0010
0000
0100
0000
0010
1000
0010
0000
,
0100
0001
0100
0001
0100
0000
0000
0000
,
0010
1000
0001
0010
,
0001
0100
0001
0000
0100
0000
0000
0110
,
0000
0000
0002
0000
0000
2003
0000
0000
,
3020
0000
0000
0230
0000
0000
0002
0000
,
0000
0000
0000
0000
,
0000
0000
0303
0000
,
1001
1000
0010
0200
,
0000
0301
1000
0002
,
0000
0013
0001
0010
,
0001
1000
0001
0000
1000
0000
0010
0000
,
0100
0001
1000
0002
,
0000
0000
0103
0000
0010
0000
1000
0010
,
1000
0000
0010
0000
0100
0000
0001
1000
,
0001
0010
0001
0100
,
0101
0001
1000
1001
,
0000
0100
0010
1010
,
1000
0001
0010
0001
,
0100
0001
0100
0000
0001
0000
1000
0000
,
0010
0100
0010
0110
,
0000
0000
1000
0000
0001
0000
1000
0010
,
1000
0001
0010
0002
,
0000
2000
0000
3003
,
0010
0100
0001
1001
,
0000
1000
0010
1010
,
0000
0001
0100
0101
,
0001
0010
0001
0000
1000
0001
1000
0000
,
0001
0100
0010
0110
,
0000
0000
0100
0000
0001
0000
1000
0001
,
1000
0010
0100
0001
,
0100
0010
1000
0000
,
0220
0000
0000
0000
,
0000
0330
0000
0000
,
0010
0100
0010
0000
0100
0001
0100
0000
,
0001
1000
0010
0100
,
0001
0010
0001
0011
,
0000
1000
0100
2200
,
0000
0000
0000
3300
;

//--------------- dance-single - demicore - "level the end?" ----------------
#NOTES:
     dance-single:
     demicore - "level the end?":
     Challenge:
     17:
     0,0,0,0,0:
0000
0000
0000
0000
,
0000
0000
0000
0000
,
0000
0000
0000
0000
,
0000
0000
0000
0000
,
0000
0000
0000
0000
,
0000
0000
0000
0000
,
0000
0000
0000
0000
,
0000
0000
0000
0000
,
2000
0000
0000
3001
,
0010
0000
0001
1000
0010
0000
0100
0000
,
0000
0000
0001
1000
0001
0000
0100
0000
,
0010
0000
1000
0001
1000
0000
0001
0000
,
0010
0001
1000
0001
,
1001
0000
1000
0000
0000
0000
0010
0100
,
0010
1000
0001
0000
0000
0000
0100
0000
,
0101
0000
0010
1000
0010
0100
0001
1000
,
0002
0000
0103
0020
0000
1030
0200
0000
,
0301
2000
0000
3010
0002
0000
0103
0000
,
0010
0000
1000
0001
0010
0000
0001
0000
,
0110
0001
1000
0010
,
2000
0000
3010
0200
0000
0310
0002
0000
,
0013
2000
0000
3100
0020
0000
0000
0000
,
0031
0000
1000
0010
0100
0000
0001
0000
,
1001
0000
0000
0000
1010
0000
1000
0001
,
0200
0000
0301
0020
0000
0031
2000
0000
,
3001
0200
0000
0301
0020
0000
0031
0000
,
1000
0000
0010
0100
0010
0000
1000
0000
,
1001
0000
0100
0000
0010
0100
0010
0100
,
0002
0000
1003
0020
0000
1030
0200
0000
,
1300
0020
0000
0130
0002
0000
0003
0200
,
0000
0300
2020
0000
3030
0002
0000
0003
,
0220
0000
0330
0002
0000
0003
2000
0000
,
3010
0000
0100
0000
0010
0000
1000
0000
0000
0001
0000
0000
0010
0000
0000
0001
0000
0000
0100
0000
0000
0010
0000
0000
,
2000
0010
3001
0110
,
0001
1000
0010
1000
0001
0010
0002
0000
,
1000
0000
0000
0013
0000
0000
0100
0001
0100
0010
0000
0000
,
1000
0010
0100
0000
1001
0000
0100
0000
,
0020
1000
0031
0100
,
0010
1000
0001
0010
1000
0010
0001
0000
,
1000
0000
0001
0000
0010
0000
0001
0000
0000
0000
0000
0000
1000
0000
0000
0010
0000
0000
0100
0000
0000
0000
0000
0000
,
0001
0000
0000
0000
0000
0000
1000
0000
0000
0001
0000
0000
0010
0000
0000
0001
0000
0000
0100
0000
0010
0000
0100
0000
,
0002
0010
1003
1010
,
1000
0001
0010
0001
0100
0010
0100
0000
,
0001
0000
0000
1000
0000
0000
0010
0100
0010
1000
0000
0000
,
0001
0010
0100
0000
1000
0001
0010
0000
,
0200
0010
1300
0001
,
1000
0010
1000
0001
0010
0100
1000
0000
,
0001
0000
0010
0000
0001
0000
0100
0000
0000
0000
0000
0000
0001
0000
0000
1000
0000
0000
0010
0000
0000
0000
0000
0000
,
0100
0000
0001
1000
0010
0100
0001
1000
,
0020
2030
3002
0023
,
0031
0100
0001
1000
0010
0100
0002
0000
,
1003
0000
0000
0100
0000
0000
0001
1000
0010
1000
0000
0000
,
0001
0100
0010
0100
1000
0100
0001
0000
,
2000
3020
0230
0302
,
1003
0010
1000
0001
0100
0010
1000
0000
,
0001
0000
0100
0000
0010
0000
1000
0000
0000
0000
0000
0000
0001
0000
0000
0010
0000
0000
0001
0000
0000
0000
0000
0000
,
1000
0010
0100
0001
0010
0001
1000
0000
,
0120
2030
3002
0203
,
0310
1000
0010
0001
1000
0100
0001
0000
,
1000
0000
0000
1001
0000
0000
0010
0100
0001
0100
0000
0000
,
0001
1000
0010
0100
0010
1000
0001
0000
,
1002
0023
0230
2300
,
3001
0100
0010
1000
0010
0100
0001
0000
,
1000
0000
0100
0000
0010
0000
0001
0000
0000
0000
0000
0000
0100
0000
0000
0010
0000
0000
1000
0000
0000
0000
0000
0000
,
0001
0000
0000
0000
1000
0000
0000
0010
0000
0000
0100
0000
0000
0010
0000
0000
,
2000
0000
0000
0000
,
3001
0000
0000
0100
,
0001
0000
1000
0001
1000
0000
0010
0000
,
0110
0000
0001
1000
0010
1000
0001
0000
,
0010
0001
1000
0100
,
1000
0010
0100
0000
0000
0000
0001
1000
,
0001
0100
0010
0000
1000
0001
0010
0001
,
0100
0000
0010
1000
0010
0100
0001
1000
,
0002
0000
1003
0200
0000
0310
0002
0000
,
1003
0020
0000
0130
0002
0000
0013
0200
,
0000
1300
0020
0000
1030
0002
0000
0103
,
0010
0000
1000
0001
0000
0010
0001
0000
,
2000
0000
3100
0020
0000
0031
0200
0000
,
0310
2000
0000
3001
0020
0000
0031
2000
,
0000
3010
0002
0000
0013
0200
0000
0310
,
2000
3002
0023
0032
,
0103
0010
1000
0000
1001
0000
0001
0010
,
0001
0000
0110
0000
1000
0001
0010
0001
,
1000
0000
1010
0000
0100
0001
0010
0000
,
0011
0000
0001
1000
1001
0000
0100
0010
,
1000
0000
0001
0100
0001
0000
0110
0000
,
1000
0000
0010
0000
0100
0000
0010
0000
0000
1000
0000
0000
0010
0000
0000
0000
0000
0000
0000
0000
0000
1001
0000
0000
,
0000
0000
1010
0000
0000
0011
0000
0000
,
0101
0000
1000
0010
0100
0010
0001
0010
,
1000
0001
0100
0000
0110
0000
1000
0001
,
0010
0001
0100
0000
1001
0000
0010
1000
,
0001
0010
0001
0100
0010
0000
1000
0001
,
0100
0000
0010
1000
0010
0000
0100
0001
,
0010
0000
0001
1000
0001
0000
0110
0000
,
1000
0010
0100
0000
1001
0000
1000
0001
,
0010
0100
1000
0000
1000
0100
0010
0000
,
0002
0203
0320
2030
,
3001
0100
0010
0000
0110
0000
1000
0001
,
0010
0000
0011
0000
0001
1000
0010
1000
,
0001
0000
0000
0110
0000
0000
0001
1000
0010
1000
0000
0000
,
0001
0100
0010
1000
0100
0010
0000
0001
,
0100
0000
0010
1000
0001
0000
1001
0000
,
1000
0000
0000
0010
0000
0000
0100
0000
0000
0000
0000
0000
0001
0000
1000
0000
0001
0000
0020
0000
0000
0000
0000
0000
,
0030
0000
0002
0000
0000
2003
0000
0000
,
3020
0000
0000
2030
0000
0000
0002
0000
,
0000
0000
0000
0000
,
3003
0000
0000
0000
,
1020
2030
3002
0023
,
0000
0032
2003
3200
,
0000
0000
2300
0000
3020
0000
0130
0001
,
0010
0001
2000
0000
3010
0100
0002
0000
,
2003
3020
2030
3002
,
0000
0000
0023
0000
0032
0000
1003
0010
,
0200
0000
0302
0000
2003
0000
3010
0100
,
0020
2030
3002
0103
,
1010
1001
0110
0101
,
0001
1000
0010
0100
0001
0010
0001
0000
,
1010
0000
0000
0000
0000
0000
1000
0000
0000
0000
0000
0000
0001
0000
1000
0000
0010
0000
0100
0000
0000
0001
0000
0000
,
0010
0000
0011
0000
0001
1000
0010
0000
,
0110
1010
1001
0011
,
0001
1000
0010
0100
0010
1000
0100
0000
,
1000
0000
0010
0000
0100
0000
0010
0000
0000
0000
0000
0000
1000
0000
0000
0001
0000
0000
0010
0000
0000
0001
0000
0000
,
0100
0000
0101
0000
0010
1000
0001
0000
,
1001
1100
0101
0110
,
0010
1000
0001
0010
0001
0100
0010
0000
,
1000
0000
0000
0001
0000
0000
0010
0000
0000
0000
0000
0000
0001
0000
1000
0000
0001
0000
0100
0000
0000
0000
0000
0000
,
0010
0100
0001
0000
1000
0001
0010
0001
,
0101
0110
1010
1100
,
1000
0001
0010
0001
1000
0010
0100
0000
,
0001
0000
0100
0000
0001
0000
0100
0000
0000
0000
0000
0000
0010
0000
0000
1000
0000
0000
0100
0000
0000
0010
0000
0000
,
0001
0000
0100
0010
1000
0010
0100
0000
,
2002
0000
0000
0000
,
3003
0000
0000
0000
,
1001
0000
0000
1000
0000
0000
0010
0000
0000
0000
0000
0000
0100
0000
0000
0001
0000
0000
0010
0000
0001
0000
0100
0000
,
0001
0000
1000
0010
0100
0001
0100
0000
,
1010
1001
0011
0202
,
0303
0110
1010
2002
,
0000
0000
0000
3003
;
