#TITLE:POSSESSION(EDP Live Mix);
#SUBTITLE:;
#ARTIST:TAG underground;
#TITLETRANSLIT:;
#SUBTITLETRANSLIT:;
#ARTISTTRANSLIT:;
#GENRE:;
#CREDIT:;
#BANNER:POSSESSION(EDP Live Mix).png;
#BACKGROUND:POSSESSION(EDP Live Mix)-bg.png;
#LYRICSPATH:;
#CDTITLE:;
#MUSIC:POSSESSION(EDP Live Mix).ogg;
#OFFSET:0.000000;
#SAMPLESTART:33.649998;
#SAMPLELENGTH:15.000000;
#SELECTABLE:YES;
#DISPLAYBPM:185.000000;
#BPMS:0.000000=185.000000
;
#STOPS:
;
#BGCHANGES:;
#KEYSOUNDS:;
#ATTACKS:;

//---------------dance-single - ----------------
#NOTES:
     dance-single:
     :
     Challenge:
     18:
     1.048001,1.053701,1.169771,0.698235,1.051887,809.000000,680.000000,129.000000,77.000000,104.000000,0.000000,1.048001,1.053701,1.169771,0.698235,1.051887,809.000000,680.000000,129.000000,77.000000,104.000000,0.000000:
// measure 0
0000
0000
0000
0000
,  // measure 1
0000
0000
0000
0000
,  // measure 2
0000
0000
0000
0000
,  // measure 3
0000
0000
0000
0000
,  // measure 4
0000
0000
0000
0000
,  // measure 5
0000
0000
0000
0000
,  // measure 6
1000
0001
0100
0010
1000
0010
1000
0001
,  // measure 7
0010
0100
1000
0010
0100
0010
1000
0001
,  // measure 8
0010
0001
1000
0010
0100
1000
0001
0010
,  // measure 9
0100
0001
1000
0100
1000
0010
0100
0001
,  // measure 10
1000
0010
2000
0100
3010
0002
0010
1003
,  // measure 11
0200
1000
0310
0002
0010
2003
0010
3002
,  // measure 12
0100
0013
0200
1000
0310
0002
1000
0103
,  // measure 13
0020
0001
0130
0002
1000
0203
0320
2030
,  // measure 14
3010
0100
0020
1000
0031
0200
0001
1300
,  // measure 15
0020
1000
0130
2000
0001
3020
0100
2030
,  // measure 16
3001
0010
0200
0010
1300
0001
0000
1000
,  // measure 17
1100
0010
0100
0011
0000
1001
0000
0010
,  // measure 18
0110
0000
1000
0000
1000
0000
0001
0100
0010
0000
1000
0000
0010
0100
0001
0000
,  // measure 19
1000
0100
0010
0000
0001
0000
0100
0010
1000
0000
0001
0000
0010
0000
0101
0000
,  // measure 20
1001
0000
1000
0000
0010
0000
0110
0000
1000
0001
0010
0000
0001
0100
0010
0000
,  // measure 21
1000
0100
0001
0000
0100
0000
1000
0010
0100
0000
0001
0000
1000
0000
0010
0000
,  // measure 22
0100
0000
0100
0000
0001
0000
1000
0010
0100
0010
0001
0000
0010
0000
0100
0001
,  // measure 23
0010
0000
0001
0000
1000
0000
0010
0100
0001
0000
1000
0000
0010
0000
0110
0000
,  // measure 24
1010
1000
0001
0011
0000
1000
1001
0010
,  // measure 25
0100
0110
0000
1000
1001
0010
0011
0100
,  // measure 26
0001
1000
0010
0000
0100
0000
0010
1000
0100
0000
1000
0000
0001
0010
0100
0000
,  // measure 27
0001
0100
1000
0000
0010
0000
0100
0001
2000
0000
3020
0000
0230
0000
2300
0000
,  // measure 28
3001
0010
0100
0000
0001
0000
1000
0010
0100
0000
0010
0000
1000
0100
0010
0000
,  // measure 29
0001
0010
0100
0000
1000
0000
0010
0100
0002
0000
0023
0000
0032
0000
2003
0000
,  // measure 30
3010
0100
0001
0000
0010
0000
0001
1000
0100
0000
1000
0000
0010
0100
0001
0000
,  // measure 31
1000
0100
0001
0000
1000
0000
0010
0001
0200
0000
0320
0000
2030
0000
3020
0000
,  // measure 32
0130
0001
0010
0000
0001
0000
1000
0100
0010
0000
0100
0000
1000
0001
0010
0000
,  // measure 33
0001
1000
0010
0000
0100
0000
0001
0010
2000
0000
3020
0000
0032
0000
0103
0000
,  // measure 34
0101
0000
1010
0000
1001
0000
0110
0000
0011
0000
MMMM
0000
,  // measure 35
1100
0000
1001
0000
0011
0000
0110
0000
1010
0000
MMMM
0000
,  // measure 36
1100
0000
0101
0000
0011
0000
1010
0000
1001
0000
MMMM
0000
,  // measure 37
1100
0000
0101
0000
0011
0000
1010
0000
1100
0000
MMMM
0000
,  // measure 38
0110
0000
1010
0000
1001
0000
0011
0000
0110
0000
1001
MMMM
,  // measure 39
0110
0000
0011
0000
1010
0000
1001
0000
1100
0000
0011
MMMM
,  // measure 40
0101
0000
1010
0000
1100
0000
0011
0000
0110
0000
1001
MMMM
,  // measure 41
0110
0000
0000
0000
0000
0000
0000
0000
1100
0000
0000
0000
0000
0000
0000
0000
0011
0000
0000
0000
0000
0000
0000
0000
0110
0000
0000
0000
0000
0000
0100
0000
0000
0000
0000
0000
0001
0000
0000
1000
0000
0000
0001
0000
0000
1000
0000
0000
,  // measure 42
0010
0100
0002
0010
0103
0020
0001
0130
,  // measure 43
0002
1000
0013
0200
0001
1300
0010
0100
,  // measure 44
0001
1000
0200
1000
0310
2000
0010
3100
,  // measure 45
0002
0010
1003
0020
0100
0031
0200
0310
,  // measure 46
1000
0000
0001
0000
0100
0000
0001
1000
0010
0000
0100
0000
0010
1000
0001
0000
,  // measure 47
0100
0000
0010
1000
0100
0000
0010
0000
0001
0100
0010
0000
1000
0000
0010
0100
,  // measure 48
0001
1000
0100
1000
0010
0100
1000
0100
0010
0100
0001
1000
0001
0010
0001
1000
,  // measure 49
0200
0000
0000
0000
0300
0000
1000
0001
0010
0000
0000
0001
0000
0000
1000
0000
,  // measure 50
0010
0100
0001
0000
1010
0000
0100
0001
1000
0000
0110
0000
0100
0001
0010
0000
,  // measure 51
0001
1000
0010
0000
1010
0000
0100
0001
2000
0000
3020
0000
0230
0000
0320
0000
,  // measure 52
1030
0001
0010
0000
0011
0000
1000
0010
0100
0000
1010
0000
0001
1000
0100
0000
,  // measure 53
1000
0010
0100
0000
0011
0000
1000
0010
2000
0000
3020
0000
0032
0000
0023
0000
,  // measure 54
0130
0001
0010
0000
0011
0000
0100
0010
1000
0000
1001
0000
1000
0001
0010
0000
,  // measure 55
0001
0100
0010
0000
0110
0000
0010
1000
0200
0000
0302
0000
0203
0000
2300
0000
,  // measure 56
3010
0100
0001
0000
1001
0000
1000
0001
0010
0000
0011
0000
0001
0100
0010
0000
,  // measure 57
1000
0100
1000
0000
1010
0000
0001
0100
0020
0000
2030
0000
3002
0000
0023
0000
,  // measure 58
0031
1000
0100
1000
0001
0000
1000
0100
0010
0001
1000
0000
0001
0100
0010
0000
,  // measure 59
1000
0001
0100
0010
1000
0000
0010
0100
0002
0000
0023
0000
0230
0000
2300
0000
,  // measure 60
3010
0100
0001
0010
0100
0000
1000
0010
0100
1000
0100
0000
0001
1000
0010
0000
,  // measure 61
0100
0001
0010
0100
1000
0000
0010
0100
0002
0000
0023
0000
0032
0000
2003
0000
,  // measure 62
3001
0010
0010
1000
0001
0000
1000
0100
0100
0001
1000
0000
0010
0100
0001
0000
,  // measure 63
1000
0100
0100
0010
1000
0000
0001
0100
0020
0000
2030
0000
3002
0000
0203
0000
,  // measure 64
0310
1000
1000
0100
0001
0000
0100
0001
0001
0010
1000
0000
0010
0100
0001
0000
,  // measure 65
1000
0001
0001
0010
0100
0000
0001
0100
0020
0000
2030
0000
3020
0000
0130
0000
,  // measure 66
0101
0000
1010
0000
1001
0000
0011
0000
0110
0000
0011
MMMM
,  // measure 67
1100
0000
1001
0000
0011
0000
0110
0000
0011
0000
1010
MMMM
,  // measure 68
0110
0000
0011
0000
1100
0000
1010
0000
0101
0000
0110
MMMM
,  // measure 69
1010
0000
1100
0000
0101
0000
0011
0000
0110
0000
1001
MMMM
,  // measure 70
0011
0000
0110
0000
1001
MMMM
1001
0000
0110
0000
0011
MMMM
,  // measure 71
0110
0000
1010
0000
1100
MMMM
1001
0000
0101
0000
0011
MMMM
,  // measure 72
0110
0000
1100
0000
0011
MMMM
1010
0000
1100
0000
0110
MMMM
,  // measure 73
0011
0000
0101
0000
1001
MMMM
0110
0000
1100
0000
0011
MMMM
,  // measure 74
1010
1000
0001
0100
1000
0100
0001
0000
1010
0000
MMMM
0000
,  // measure 75
0110
0100
0001
1000
0010
0100
0001
0000
1010
0000
MMMM
0000
,  // measure 76
0011
1000
0100
0010
1000
0010
0001
0000
1010
0000
MMMM
0000
,  // measure 77
0110
0100
0001
0010
1000
0010
0100
0000
1010
0000
MMMM
0000
,  // measure 78
1010
1000
0001
0010
0001
0100
0010
0001
0010
1000
0001
MMMM
,  // measure 79
0110
0010
1000
0100
0001
1000
0010
0001
0100
0010
1000
MMMM
,  // measure 80
0011
0001
1000
0010
0100
0001
0010
0100
1000
0001
0010
MMMM
,  // measure 81
1100
0000
0000
0000
0010
0000
0000
0000
0100
0000
0000
0000
0001
0000
0000
0000
0010
0000
0000
0000
0001
0000
0000
0000
1001
0000
0000
0000
0000
0000
1000
0000
0000
0000
0000
0000
0001
0000
0000
0010
0000
0000
0100
0000
0000
0010
0000
0000
,  // measure 82
0002
0000
0000
0000
,  // measure 83
1003
0000
0000
0000
;
