#TITLE:ONIGOROSHI;
#SUBTITLE:;
#ARTIST:m1dy;
#TITLETRANSLIT:;
#SUBTITLETRANSLIT:;
#ARTISTTRANSLIT:;
#GENRE:;
#CREDIT:demicore;
#BANNER:ONIGOROSHI.png;
#BACKGROUND:;
#LYRICSPATH:;
#CDTITLE:;
#MUSIC:ONIGOROSHI.ogg;
#OFFSET:-0.094000;
#SAMPLESTART:19.893999;
#SAMPLELENGTH:10.800000;
#SELECTABLE:YES;
#BPMS:0.000000=400.000000
;
#STOPS:
;
#BGCHANGES:0.000=ONIGOROSHI.mp4=1.000=0=0=1=====,
99999=-nosongbg-=1.000=0=0=0 // don't automatically add -songbackground-
;
#KEYSOUNDS:;
#ATTACKS:;

//---------------dance-single - demicore----------------
#NOTES:
     dance-single:
     demicore:
     Challenge:
     18:
     0.963635,1.215050,0.472347,0.414339,0.024860,814.000000,757.000000,57.000000,50.000000,0.000000,0.000000,0.963635,1.215050,0.472347,0.414339,0.024860,814.000000,757.000000,57.000000,50.000000,0.000000,0.000000:
// measure 0
0000
0000
0000
0000
,  // measure 1
0000
0000
0000
0000
,  // measure 2
0000
0000
0000
0000
,  // measure 3
0000
0000
0000
0000
,  // measure 4
0000
0000
0000
0000
,  // measure 5
0000
0000
0000
0000
,  // measure 6
0000
0000
0000
0000
,  // measure 7
0000
0000
0000
0000
,  // measure 8
0000
0000
0000
0000
,  // measure 9
0000
0000
0000
0000
,  // measure 10
0000
0000
0000
0000
,  // measure 11
0000
0000
0000
0000
,  // measure 12
0000
0000
0000
0000
,  // measure 13
0000
0000
0000
0000
,  // measure 14
0000
0000
0000
0000
,  // measure 15
0000
0000
0000
0000
,  // measure 16
0000
0000
0000
0000
,  // measure 17
0000
0000
0000
0000
,  // measure 18
2001
0000
3010
0000
,  // measure 19
0100
0001
0000
0001
0000
0001
1000
0000
,  // measure 20
1020
0000
0130
0000
,  // measure 21
0001
1000
0000
1000
0000
1000
0001
0000
,  // measure 22
0012
0000
1003
0000
,  // measure 23
0010
0100
0000
0100
0000
0100
0010
0000
,  // measure 24
0210
0000
0301
0000
,  // measure 25
0010
0001
0000
1001
0000
1000
0010
0000
,  // measure 26
0210
0000
0301
0000
,  // measure 27
0010
0001
0000
0001
0000
0001
1000
0000
,  // measure 28
1020
0000
0130
0000
,  // measure 29
0001
1000
0000
1000
0000
1000
0001
0000
,  // measure 30
0012
0000
0103
0000
,  // measure 31
0010
0100
0000
0100
0000
0100
0001
0000
,  // measure 32
0101
0000
0000
0000
,  // measure 33
0000
0000
0000
0000
,  // measure 34
1000
0001
1000
0000
0010
0000
0100
0000
,  // measure 35
0001
0010
0000
0001
0000
0001
1000
0000
,  // measure 36
0010
1000
0010
0000
0100
0000
0001
0000
,  // measure 37
1000
0010
0000
0100
0000
0100
0001
0000
,  // measure 38
0010
0001
0100
0000
0010
0000
1000
0000
,  // measure 39
0001
1000
0000
0010
0000
0010
0100
0000
,  // measure 40
0001
1000
0100
1000
0010
0000
0100
0000
,  // measure 41
0001
0010
0000
0011
0000
0001
0100
0000
,  // measure 42
0001
1000
0010
0000
0100
0000
0001
0000
,  // measure 43
1000
0010
0000
0110
0000
0100
0001
0000
,  // measure 44
0010
0001
0200
0000
0301
0000
1000
0000
,  // measure 45
0010
1000
0000
1010
0000
1000
0001
0000
,  // measure 46
0010
0001
1000
0000
0010
0000
1000
0000
,  // measure 47
0100
0010
0000
0011
0000
0001
0100
0000
,  // measure 48
0020
0000
0130
0100
,  // measure 49
0001
0010
0000
0001
0000
0100
0020
0000
,  // measure 50
1030
0000
0001
0010
0001
0000
0100
0000
,  // measure 51
0010
1000
0001
0010
0000
0001
0100
0000
,  // measure 52
0001
0000
0100
0010
1000
0000
0001
0000
,  // measure 53
0010
0001
0100
0001
0000
0100
0010
0000
,  // measure 54
0100
0000
0001
1000
0001
0000
1000
0000
,  // measure 55
0010
1000
0100
1000
0000
0001
0010
0000
,  // measure 56
0002
0100
0100
0103
,  // measure 57
0001
0100
0000
0110
0000
0010
1000
0000
,  // measure 58
0001
0000
0100
0001
0010
0000
0001
0000
,  // measure 59
1000
0000
0010
0100
0010
0000
1000
0000
,  // measure 60
0001
0000
0100
0010
1000
0000
0001
0000
,  // measure 61
1000
0000
0010
0100
0001
0000
0020
0000
,  // measure 62
0002
0000
0000
0000
,  // measure 63
0000
0000
0000
0000
,  // measure 64
0000
0000
0000
0000
,  // measure 65
0033
0000
0000
0000
0010
0001
0010
0000
,  // measure 66
0001
0000
1000
0001
0010
0000
0001
0100
,  // measure 67
0000
0010
0100
0000
0010
1000
0100
0000
,  // measure 68
0010
0000
0001
1000
0100
0000
1000
0010
,  // measure 69
0000
0100
0010
0000
0100
0001
0010
0000
,  // measure 70
0001
0000
1000
0001
0010
0000
0001
0100
,  // measure 71
0000
0010
0100
0000
0001
1000
0100
0000
,  // measure 72
0010
0001
0100
0000
0001
1000
0020
1000
,  // measure 73
0000
1030
0000
1000
0001
0000
0011
0000
,  // measure 74
0010
0001
1000
0000
0010
0000
1000
0100
,  // measure 75
0000
0001
0100
0000
1000
0010
0100
0000
,  // measure 76
0001
0100
0010
0000
0100
0000
0001
0010
,  // measure 77
0000
1000
0010
0000
0001
0100
0010
0000
,  // measure 78
1000
0001
0010
0000
0001
0000
1000
0100
,  // measure 79
0000
0010
0100
0000
1000
0001
0010
0000
,  // measure 80
0000
0000
0000
0000
,  // measure 81
1000
0001
0000
1001
0000
1000
0001
0000
,  // measure 82
0010
0001
0100
0001
0010
0000
0001
1000
,  // measure 83
0000
0010
1000
0000
0010
0000
0100
0000
,  // measure 84
0001
1000
0010
1000
0100
0000
0010
0001
,  // measure 85
0000
0100
0010
0000
1000
0000
0001
0000
,  // measure 86
1000
0100
0001
0100
1000
0000
0010
0100
,  // measure 87
0000
0001
0100
0000
0010
0000
1000
0000
,  // measure 88
0001
0100
1000
0100
0001
0000
0010
0001
,  // measure 89
0000
1000
0001
0000
0100
0010
0100
0000
,  // measure 90
0001
0000
0001
0000
1000
0010
1000
0000
,  // measure 91
0100
0000
0100
0000
0010
0001
0010
0000
,  // measure 92
0001
0000
0001
0000
0100
0010
1000
0000
,  // measure 93
0010
0000
0010
0000
0100
0001
0010
0000
,  // measure 94
0101
0000
0000
0000
1010
0000
0000
0000
1001
0000
0000
0000
,  // measure 95
0011
0000
0000
0000
0110
0000
0000
0000
1100
0000
0000
0000
,  // measure 96
1001
0000
0000
0000
,  // measure 97
0000
0000
0000
0000
,  // measure 98
2000
0000
0000
0000
,  // measure 99
0000
0000
0000
0000
,  // measure 100
3002
0000
0000
0000
,  // measure 101
0000
0000
0000
0000
,  // measure 102
0023
0000
0000
0000
,  // measure 103
0000
0000
0000
0000
,  // measure 104
0230
0000
0000
0000
,  // measure 105
0000
0000
0000
0000
,  // measure 106
1300
0000
0000
1000
0000
0000
0001
0000
,  // measure 107
0000
0001
0000
0000
0010
0000
0001
0000
,  // measure 108
0100
0000
0000
0100
0000
0000
0010
0000
,  // measure 109
0000
0010
0000
0000
1000
0000
0000
0000
,  // measure 110
0001
0000
0000
0001
0000
0000
0100
0000
,  // measure 111
0000
0100
0000
0000
0010
0000
1000
0000
,  // measure 112
0100
0000
0000
0100
0000
0000
0010
0000
,  // measure 113
0000
0010
0000
0000
0001
0000
0000
0000
,  // measure 114
2001
0000
0000
3100
0000
0000
0012
0000
,  // measure 115
0000
0103
0000
0000
0010
0000
0100
0000
,  // measure 116
0201
0000
0000
0310
0000
0000
1020
0000
,  // measure 117
0000
0130
0000
0000
0001
0000
0100
0000
,  // measure 118
0120
0000
0000
0031
0000
0000
0210
0000
,  // measure 119
0000
1300
0000
0000
0010
0000
1000
0000
,  // measure 120
1020
0000
0000
0130
0000
0000
0021
0000
,  // measure 121
0000
0130
0000
0000
1100
0000
0000
0000
,  // measure 122
1200
0000
0000
0310
0000
0000
0012
0000
,  // measure 123
0000
0103
0000
0000
0010
0000
1000
0000
,  // measure 124
2010
0000
0000
3001
0000
0000
0012
0000
,  // measure 125
0000
0103
0000
0000
0110
0000
0100
0000
,  // measure 126
0102
0000
0000
0013
0000
0000
2010
0000
,  // measure 127
0000
3001
0000
0000
0010
0000
0001
1000
,  // measure 128
0001
0000
0000
0000
,  // measure 129
0000
0000
0000
0000
,  // measure 130
1010
0000
1000
0001
0010
0000
0001
0100
,  // measure 131
0000
0001
0010
0000
0001
1000
0010
1000
,  // measure 132
0001
0000
0010
0001
0100
0000
0001
1000
,  // measure 133
0000
0010
1000
0000
0001
1000
0001
0010
,  // measure 134
0100
0000
1000
0010
0100
0000
0001
0100
,  // measure 135
0000
0001
1000
0000
0010
1000
0010
0001
,  // measure 136
0010
0000
0100
0001
0000
0010
0001
0000
,  // measure 137
1000
0001
1000
0001
1000
0000
0000
0000
,  // measure 138
0001
0000
0010
0001
0100
0000
0001
1000
,  // measure 139
0000
0010
1000
0000
0010
1000
0001
0010
,  // measure 140
0100
0000
0010
0001
1000
0000
0010
1000
,  // measure 141
0000
0001
1000
0000
0001
0100
0010
0100
,  // measure 142
1000
0000
0100
0010
1000
0000
0001
1000
,  // measure 143
0000
0001
0010
0000
0001
0100
0001
1000
,  // measure 144
0010
0000
0100
0001
1000
0000
0010
0100
,  // measure 145
0001
0000
0010
0000
0100
0000
1000
0000
0000
0000
0000
0000
,  // measure 146
0101
0000
0100
0001
0010
0000
0001
1000
,  // measure 147
0000
0010
1000
0000
0001
1000
0010
0100
,  // measure 148
0010
0000
0100
0001
0010
0000
0001
1000
,  // measure 149
0000
0100
1000
0000
0010
1000
0100
0010
,  // measure 150
0001
0000
0100
0010
0100
0000
0001
0010
,  // measure 151
0000
0100
1000
0000
0001
1000
0100
1000
,  // measure 152
0010
0000
0100
0001
0000
0010
0001
0000
,  // measure 153
1000
0100
0010
0001
0200
0000
0000
0000
,  // measure 154
0310
0000
0100
0001
0010
0000
0001
1000
,  // measure 155
0000
0100
1000
0000
0010
1000
0001
0010
,  // measure 156
0100
0000
1000
0100
0010
0000
0001
0100
,  // measure 157
0000
0010
0100
0000
0001
1000
0100
1000
,  // measure 158
0010
0000
0000
1010
0000
0000
1001
0000
,  // measure 159
0000
0011
0000
0000
0100
0001
0010
0001
,  // measure 160
2000
0000
0000
0000
,  // measure 161
3001
0000
0010
1000
0100
0000
0000
0000
,  // measure 162
0010
0001
0100
0010
2000
0000
3001
0000
,  // measure 163
0010
0001
0000
0001
0000
0001
0100
0000
,  // measure 164
0010
1000
0100
1000
0002
0000
0013
0000
,  // measure 165
0001
0100
0000
0100
0000
0100
0010
0000
,  // measure 166
0100
0001
0010
0001
2000
0000
3010
0000
,  // measure 167
0100
0001
0000
0001
0000
0001
1000
0000
,  // measure 168
0020
0000
0100
0000
0230
0000
0010
0300
,  // measure 169
0010
1000
0000
1001
0000
0001
0010
0000
,  // measure 170
0001
1000
0100
0010
0002
0000
0103
0000
,  // measure 171
0010
1000
0000
1010
0000
0010
0100
0000
,  // measure 172
0001
1000
0100
1000
0020
0000
0130
0000
,  // measure 173
0001
0100
0000
0110
0000
0010
1000
0000
,  // measure 174
0100
1000
0010
1000
0200
0000
0310
0000
,  // measure 175
0001
0100
0000
0101
0000
0001
0010
0000
,  // measure 176
0001
0100
0010
0100
0001
0000
0000
0000
,  // measure 177
1000
0001
1000
0001
1000
0001
1000
0001
,  // measure 178
0100
0010
1000
0001
0200
0000
0310
0000
,  // measure 179
1000
0001
0000
0011
0000
0001
1000
0000
,  // measure 180
0010
0100
0001
0100
0020
0000
1030
0000
,  // measure 181
0010
1000
0000
1100
0000
1000
0010
0000
,  // measure 182
0100
0001
0010
0100
2000
0000
3010
0000
,  // measure 183
0100
0010
0000
0110
0000
0010
1000
0000
,  // measure 184
0001
0100
0000
0001
0100
0000
0001
0100
,  // measure 185
0010
0100
0000
0110
0000
0100
0001
0000
,  // measure 186
2000
0000
3001
0000
0100
0001
0010
0001
,  // measure 187
0200
0000
0310
0000
1000
0100
0010
0001
,  // measure 188
0020
0000
0031
0000
0100
0010
1000
0001
,  // measure 189
0010
0001
0010
0001
1000
0100
1000
0200
,  // measure 190
0020
0000
0000
0000
,  // measure 191
0000
0000
0000
0000
,  // measure 192
0000
0000
0000
0000
,  // measure 193
0330
0000
0000
0000
,  // measure 194
0110
0000
0000
1001
0000
0000
1100
0000
,  // measure 195
0000
0110
0011
0000
;
