#TITLE:Neo Catharsis;
#SUBTITLE:;
#ARTIST:TAG underground overlay;
#TITLETRANSLIT:;
#SUBTITLETRANSLIT:;
#ARTISTTRANSLIT:;
#GENRE:;
#CREDIT:;
#MUSIC:neocatharsis.ogg;
#BANNER:neocatharsis.png;
#BACKGROUND:;
#CDTITLE:;
#SAMPLESTART:31.340;
#SAMPLELENGTH:12.000;
#SELECTABLE:YES;
#OFFSET:-0.115;
#BPMS:0.000=200.000
,32.000=170.000
,36.000=120.000
,38.000=130.000
,40.000=140.000
,42.000=145.000
,44.000=150.000
,46.000=155.000
,48.000=160.000
,50.000=165.000
,52.000=170.000
,54.000=175.000
,56.000=180.000
,58.000=185.000
,60.000=190.000
,62.000=195.000
,64.000=200.000
,136.000=190.000
,140.000=175.000
,144.000=150.000
,148.000=120.000
,152.000=128.000
,156.000=136.000
,160.000=144.000
,164.000=152.000
,168.000=160.000
,172.000=166.000
,176.000=172.000
,180.000=178.000
,184.000=181.000
,188.000=184.000
,192.000=187.000
,196.000=190.000
,200.000=193.000
,204.000=196.000
,208.000=198.000
,212.000=200.000
,216.000=209.000
,220.000=218.000
,224.000=226.000
,228.000=235.000
,232.000=245.000
,236.000=257.000
,240.000=271.000
,244.000=285.000
,248.000=300.000
,252.000=210.000
,268.000=420.000
,395.000=215.000
,399.000=220.000
,403.000=225.000
,407.000=230.000
,411.000=235.000
,415.000=240.000
,419.000=420.000
,420.000=210.000
,424.000=194.000
,425.000=177.000
,426.000=160.000
,427.000=560.000
,428.000=280.000
;
#STOPS:268.000=0.143
,419.000=0.143
,427.000=0.321
;
#DISPLAYBPM:120.000:420.000;
#BGCHANGES:;
#FGCHANGES:;

//--------------- dance-single - XXXG-00W0 demicore Zero ----------------
#NOTES:
     dance-single:
     XXXG-00W0 demicore Zero:
     Beginner:
     3:
     0,0,0,0,0:
0000
0000
0000
0000
,
0000
0000
0000
0000
,
0000
0000
0000
0000
,
0000
0000
0000
0000
,
0000
0000
0000
0000
,
1000
0000
0001
0000
,
0100
0000
0010
0000
,
0100
0000
0010
0000
,
0220
0000
0330
0000
,
0100
0100
0100
0000
,
0010
0010
0010
0000
,
1000
0010
1000
0000
,
0010
0100
0010
0000
,
0100
0000
0001
0000
,
0010
0000
0001
0000
,
1000
0000
0010
0000
,
0220
0000
0330
0000
,
0100
0000
0001
0000
,
0010
0000
0001
0000
,
1000
0000
0010
0000
,
0100
0000
0010
0010
,
0010
0000
0100
0000
,
0001
0000
1000
0000
,
0010
0000
0100
0000
,
2002
0000
3003
0000
,
1000
0010
0000
0010
,
0000
0100
0000
0001
,
0000
0010
0000
0001
,
0000
1000
1000
1000
,
0000
0010
0000
0100
,
0000
0001
0000
0010
,
0000
0001
0000
1000
,
0000
0010
0000
0100
,
0010
0000
0100
0000
,
0010
0000
1000
0000
,
0001
0001
1000
1000
,
0020
0000
0000
0030
,
0100
0000
0001
0000
,
0010
0000
0001
0000
,
1000
0000
0010
0000
,
1000
0000
0100
0000
,
0010
0000
0001
0000
,
0100
0000
0010
0000
,
1000
0000
0001
0000
,
0010
0000
0001
0000
,
0010
0000
0001
0000
,
0100
0000
0001
0000
,
1000
0000
0010
0000
,
0100
0000
0010
0000
,
1000
0000
0001
0000
,
0010
0000
0001
0000
,
0100
0000
0010
0000
,
1000
0000
0001
0000
,
1001
0000
0000
0000
,
1010
0000
0000
0000
,
0110
0000
0000
0000
,
0101
0000
0000
0000
,
1001
0000
0000
0000
,
1100
0000
0000
0000
,
0011
0000
0000
0000
,
0110
0000
0000
0000
,
1001
0000
0000
0000
,
1010
0000
0000
0000
,
0220
0000
0000
0000
,
0000
0000
0000
0000
,
0000
0000
0000
0330
,
0100
0010
0100
0010
,
0000
0000
0000
1000
,
0000
0000
0000
0001
,
0000
0000
0000
0010
,
0000
0000
0000
0001
,
0000
0000
0000
0100
,
0000
0000
0000
0010
,
0000
0000
0000
1000
,
0000
1000
0000
1000
,
0000
0000
0000
0001
,
0000
0000
0000
0010
,
0000
0000
0000
0001
,
0000
0000
0100
0000
,
0000
0000
0000
0010
,
0000
0000
0000
1000
,
0000
0010
0000
1000
,
0000
0000
0000
0001
,
0000
0000
0000
0010
,
0000
0000
0000
0001
,
0000
0000
0000
0100
,
0000
0000
0000
0020
,
0000
0000
0000
0030
,
0000
0100
0000
0010
,
0000
0000
0000
1000
,
0000
0000
0000
0001
,
0000
0000
0000
0010
,
0000
0000
0000
0001
,
0000
0000
0000
0100
,
0000
0000
0000
0010
,
0000
0010
0000
0010
,
0000
0000
0000
0100
,
0000
0100
0000
0100
,
0000
0000
0000
0110
,
0000
0000
0000
0101
,
0000
0000
0000
1001
,
0000
0000
0000
1100
,
0000
0000
0000
0110
,
0000
0000
0000
0101
,
0000
0000
0000
2002
,
3003
0000
0000
0100
,
0010
0200
0020
0000
,
0330
0000
0000
0000
,
0000
0000
0000
0000
,
0000
0000
0000
0000
,
0000
0000
0110
0000
,
0000
0000
1001
0000
,
0000
0000
0220
0000
,
0000
0000
0000
0000
,
0000
0000
0330
0000
;

//--------------- dance-single - RX-0 demicore ----------------
#NOTES:
     dance-single:
     RX-0 demicore:
     Easy:
     8:
     0,0,0,0,0:
0000
0000
0000
0000
,
0000
0000
0000
0000
,
0000
0000
0000
0000
,
0000
0000
0000
0000
,
0000
0000
0000
0000
,
1000
0001
0010
0001
,
1000
0010
0100
0010
,
1000
0010
0100
0010
,
2002
0000
0000
3003
,
1000
1000
0010
0010
,
0100
0001
0010
0100
,
0010
0010
0001
0001
,
1000
0010
0100
0010
,
1000
0001
1000
0001
,
0100
0010
1000
0001
,
0010
0001
0010
0001
,
2000
0000
0002
3003
,
0010
0010
0100
0100
,
0001
1000
0100
1000
,
0001
0001
1000
1000
,
0010
0100
0010
1000
,
0100
0100
0010
0010
,
0001
1000
0010
0100
,
0001
0010
0100
1000
,
2002
0000
0000
3003
,
1000
0010
0000
0110
,
0000
0100
0001
0010
,
0001
1000
0000
1010
,
0000
0010
0100
0001
,
0100
0010
0000
0110
,
0000
0100
0001
0010
,
0001
1000
0000
1001
,
0000
1000
0010
0100
,
0110
0000
0101
0000
,
1001
0000
1010
0000
,
0100
0001
0010
0001
,
0200
0000
0000
0300
,
0010
0000
0010
0000
0100
0001
0100
0000
,
0001
0000
0001
0000
1000
0010
1000
0000
,
0100
0000
0100
0000
0010
0001
0010
0000
,
0001
0000
0001
0000
1000
0010
1000
0000
,
0010
0000
0010
0000
0100
0010
0100
0000
,
0001
0000
0001
0000
1000
0100
1000
0000
,
0010
0000
0010
0000
0100
0001
0100
0000
,
0020
0030
2002
3003
,
1000
0001
0010
0001
,
0100
0010
0100
0001
,
1001
1000
0010
0100
,
0001
0000
1000
0000
0001
0000
0000
1000
,
0010
0100
0001
0010
,
0001
1000
0010
0100
,
0001
1000
0100
1000
,
0010
0000
0000
1000
0000
0001
0000
1000
,
0010
0000
0000
0100
0000
0010
0000
0000
,
0100
0000
0000
0010
0000
0100
0000
0000
,
0010
0000
0100
0100
,
0100
0000
0001
1000
,
0010
0000
0110
0000
,
0100
0000
0101
0000
,
0001
0001
1000
1000
,
0010
0010
0100
0100
,
0002
0003
0200
0300
,
0020
0030
0200
0000
,
0020
0000
0000
0000
,
0000
0000
0000
0000
,
0000
0000
0000
0330
,
0100
0000
0000
0001
0000
0000
1000
0000
,
0001
0000
0000
1000
,
0000
0010
0000
0100
,
0000
0001
0000
1000
,
0000
0010
0000
1000
,
0000
0000
0001
0000
,
0000
1000
0000
0010
,
0000
0100
0000
0001
,
0000
0001
0000
1000
,
0000
0000
0001
0000
,
0000
0010
0000
0001
,
0000
0100
0000
0010
,
0000
1000
0000
0010
,
0000
0010
0000
0100
,
0000
0100
0000
0001
,
0000
1000
0000
0010
,
0000
0100
0000
0010
,
0000
0000
1000
0000
,
0000
0001
0000
0010
,
0000
0001
0000
1000
,
0000
0010
0000
0200
,
0000
0300
0000
0001
,
0000
1000
0002
0000
,
0000
0003
0000
0100
,
0000
0100
0000
0010
,
0000
1000
0000
0001
,
0000
0010
0000
0001
,
0000
1000
0000
0010
,
0000
0100
0000
0010
,
0000
0010
0000
0100
,
0000
0100
0000
0001
,
0000
0001
0000
1000
,
0000
1000
0000
0010
,
0000
0100
0000
0001
,
0000
1000
0000
0010
,
0010
0100
0100
0001
,
1000
0010
1000
0001
,
0001
1000
1000
0001
,
0100
0010
0200
0300
,
0000
0000
0000
0001
,
1000
0010
0100
0000
,
0220
0000
0000
0000
,
0000
0330
0100
0100
,
0001
0001
1000
1000
,
0010
0010
0220
0000
,
0330
0000
2020
0000
,
3030
0000
2002
0000
,
0000
0000
0000
0000
,
0000
0000
3003
0000
;

//--------------- dance-single - GF13-017NJII demicore ----------------
#NOTES:
     dance-single:
     GF13-017NJII demicore:
     Medium:
     13:
     0,0,0,0,0:
0000
0000
0000
0000
,
0000
0000
0000
0000
,
0000
0000
0000
0000
,
0000
0000
0000
0000
,
0000
0000
0000
0000
,
0010
1010
0100
0101
,
0001
1001
1000
1100
,
0010
0000
0000
0101
0000
0000
0001
0000
0001
1000
0000
1000
,
0020
0000
0000
0030
,
1000
0011
0001
0110
,
0100
1010
1000
0011
,
0001
1100
0100
0110
,
0010
0101
0010
1100
,
1000
0000
0001
0010
0000
0000
0001
0000
0000
0101
0000
0000
,
0010
0000
1000
0001
0000
0000
0010
0000
0000
0011
0000
0000
,
0002
0103
2000
3010
,
0200
0302
2003
3020
,
0130
0000
0000
0101
0000
0000
0001
0000
1000
0010
0000
0000
,
0100
0000
0000
0110
0000
0000
0010
0000
1000
0100
0000
0000
,
0010
0000
0000
0011
0000
0000
0001
0000
1000
0010
0000
0000
,
1000
0000
0000
1010
0000
0000
0010
0000
0100
0001
0000
0010
,
0001
0000
0000
0100
0000
0010
1000
0000
0000
0001
0000
0010
,
0001
0000
0000
0100
0000
0010
1000
0000
0000
0001
0000
0000
,
0011
0010
0110
0100
,
0020
0032
2003
3020
,
0130
0000
0001
0100
0000
0001
1000
0001
,
0000
1000
0010
1000
0100
0000
0010
0000
,
0001
0000
1000
0010
0000
0100
0010
0100
,
0000
0010
1000
0010
0100
0000
0001
0000
,
1001
0000
1000
0010
0000
0100
0010
0100
,
0000
0001
0100
0001
1000
0000
0010
0000
,
1010
0000
1000
0001
0000
0010
0001
0100
,
0020
1030
0200
0310
,
0202
0300
0003
0000
2020
0030
3000
0000
,
0220
0300
0030
0000
2002
0003
3000
0000
,
0001
0100
0010
1000
0010
0100
0001
1000
,
0020
0000
0000
0130
,
1001
0000
0010
0000
0100
0001
0000
0000
0100
0000
0000
0010
0000
0000
1000
0000
,
0010
0000
0100
0000
0001
1000
0000
0000
0001
0000
0000
0010
0000
0000
0001
0000
,
0100
0000
0010
0000
1000
0010
0000
0000
1000
0000
0000
0001
0000
0000
0100
0000
,
0010
0000
0100
0000
0001
0010
0000
0000
0100
0000
0000
1000
0000
0000
0010
0000
,
0100
0000
0001
0000
1000
0010
0000
0000
0100
0000
0000
0001
0000
0000
0010
0000
,
0001
0000
0100
0000
0010
0100
0000
0000
0010
0000
0000
1000
0000
0000
0001
0000
,
0010
0000
0001
0000
0100
0010
0000
0000
0100
0000
0000
0001
0000
0000
1000
0000
,
0010
0000
0000
0010
0000
0000
0010
0000
0100
0000
0000
0100
0000
0000
0100
0000
,
0001
1000
0100
1000
0001
0010
0000
0001
,
0100
0001
1000
0010
0000
0100
0001
1000
,
1010
0000
0100
0001
0010
0001
0000
1000
,
0001
0000
0010
0000
0001
0000
0100
0000
0010
0000
0000
1010
0000
0000
1000
0000
,
0001
0100
0010
0000
1000
0010
0000
0010
,
0100
0001
0010
0001
0000
1000
0010
0100
,
0010
0000
1010
0000
1000
0001
0000
0010
,
0001
0000
1000
0010
0000
1000
0001
0010
,
0002
0000
0000
0100
0000
0100
0003
0000
,
2010
0000
0000
0001
0000
0001
3000
0000
,
0120
0030
0101
1001
,
0120
0030
0201
0300
,
0001
0001
1000
1000
,
0010
0100
0001
0010
,
0001
0001
0100
0100
,
0010
1000
0001
0010
,
0001
0100
0001
0100
,
0010
0100
0010
0000
0100
0010
0100
0000
,
0020
0000
0000
0000
,
0000
0000
0000
0000
,
0000
0000
0000
0030
,
1000
0000
0000
0001
0000
0000
1000
0000
0010
0000
0000
0100
0000
0000
0010
0000
,
0000
0100
0001
0010
,
0001
1000
0010
0100
,
0000
0010
0000
0000
0100
0000
0001
0000
,
0000
1001
0000
1000
,
0000
0010
0000
0000
0100
0000
0001
0000
,
0010
0001
0100
0010
,
0000
0100
0000
0000
0001
0000
1000
0000
,
0000
0010
0000
0000
1000
0000
0001
0000
,
0000
0100
0000
0000
0010
0000
0100
0000
,
0001
1000
0010
1000
,
0000
0010
0000
0000
0100
0000
0010
0000
,
0000
0110
0000
2000
,
0000
0010
0000
3002
,
0000
0010
0000
0203
,
0000
1000
0000
0302
,
0000
0010
0000
0103
,
0000
0010
0000
0000
1000
0000
0001
0000
,
0010
0001
0100
0010
,
0000
1000
0000
0000
0010
0000
0100
0000
,
0000
0110
0000
2001
,
0000
0000
3010
0100
,
0001
0010
0002
0000
,
1003
0010
0100
0010
,
0000
0110
0000
0100
,
0001
0100
0010
0000
,
1000
0010
0000
1000
,
0001
1000
0010
0000
,
0100
0001
0000
0100
,
0010
0010
0010
1000
,
0001
1000
0001
0010
,
0001
0100
0000
0010
,
1000
0100
0000
0010
,
0000
0011
0000
0001
,
0000
0000
0000
0101
0000
0000
0000
0000
0000
1000
0000
0010
,
1000
0000
0000
0001
0000
0000
0010
0000
0000
0001
0000
0100
,
0001
0000
0000
0100
0000
0000
0010
0000
0000
1000
0000
0010
,
0100
0000
0000
0001
0000
0000
0010
0000
0000
0001
0000
0100
,
0001
0100
0010
0000
,
2002
0000
0000
0000
0000
0000
3003
0000
0000
1000
0000
1000
,
0001
0000
0001
0100
0000
0100
0010
0000
0010
0000
0000
0000
,
2002
0000
0000
0000
,
0000
0000
3003
0000
1000
0001
1000
0000
,
0010
0100
0010
0000
0100
0001
0100
0000
,
0010
1000
0010
0000
2020
0000
0000
0000
,
3030
0000
0220
0000
,
0330
0000
2002
0000
,
0000
0000
0000
0000
,
0000
0000
3003
0000
;

//--------------- dance-single - 00 Qan[demicore] ----------------
#NOTES:
     dance-single:
     00 Qan[demicore]:
     Hard:
     16:
     0,0,0,0,0:
0000
0000
0000
0000
,
0000
0000
0000
0000
,
0000
0000
0000
0000
,
0000
0000
0000
0000
,
0000
0000
0000
0000
,
1010
0000
1000
0010
0000
0000
0101
0000
0001
0100
0000
0000
,
0011
0000
0001
0010
0000
0000
1001
0000
1000
0010
0000
0000
,
0100
0000
0001
1000
0000
0010
0100
0001
0100
0010
2000
0020
,
0000
0000
0000
3030
,
1010
1001
0011
0110
,
0101
1001
1010
0110
,
1100
0011
0101
0110
,
1010
0000
0000
1100
0000
0000
0011
0000
0001
0100
0000
0010
,
1000
1001
1010
0011
,
0110
0101
1001
1100
,
0012
1003
2010
3001
,
0210
1000
0001
0310
,
0100
0000
0100
0001
0000
0001
1000
0000
1000
0010
0000
0000
,
0110
0000
0100
0001
0000
0001
1000
0000
1000
0010
0000
0000
,
0101
0000
0001
1000
0000
1000
0010
0000
0010
1000
0000
0000
,
1010
0000
1000
0001
0000
0001
0010
0000
0010
0001
0000
0010
,
0001
0000
0000
1000
0010
1000
0100
0000
0000
0010
0001
0100
,
0001
0000
0000
1000
0010
0100
0001
0000
0000
0100
0010
1000
,
0100
0110
0011
1001
,
1000
0010
1000
0001
0100
0001
1000
0010
0100
0001
0100
0010
,
0100
0001
1000
2010
0000
3001
0100
0120
,
0000
0130
0001
1000
1010
0010
0110
1000
,
0101
0001
1000
0020
0000
0130
0001
2001
,
0000
3010
0100
0001
0011
0001
1100
1000
,
1010
0010
0100
0002
0000
1003
0010
0120
,
0000
0130
0001
1000
1010
0010
0101
0100
,
0110
0010
1000
0200
0000
0310
0001
0100
,
0110
0010
1000
0001
0011
0010
0001
0100
,
0220
0330
2200
3300
,
0022
0033
0220
0330
,
1000
0000
0001
0000
0010
0000
0001
0000
1000
0010
0100
0010
1000
0100
0010
0001
,
0200
0000
0000
0000
0000
0010
0310
0000
,
1001
0000
0001
0000
0100
0010
0000
1000
0100
0000
1000
0010
0000
0100
0010
0000
,
0100
0000
0001
0000
1000
0001
0000
0010
0001
0000
0100
0010
0000
0100
0001
0000
,
1000
0000
0010
0000
0100
0001
0000
1000
0001
0000
0100
0010
0000
0100
0001
0000
,
1000
0000
0010
0000
0100
0010
0000
1000
0001
0000
0010
0001
0000
0100
0010
0000
,
0100
0000
0001
0000
0100
0010
0000
1000
0100
0000
0100
1000
0000
0001
0010
0000
,
0001
0000
0100
0000
0010
1000
0000
0100
1000
0000
0001
0010
0000
0001
0100
0000
,
0010
0000
1000
0000
0001
0100
0000
0010
1000
0000
0001
1000
0000
1000
0010
0000
,
1010
0000
0000
1001
0000
0000
0011
0000
0101
0000
0000
0110
0000
0000
1010
0000
,
1000
0000
0001
0000
0010
0000
0001
0000
0100
0001
0010
0000
0001
0000
0100
0000
,
0010
0000
1000
0000
0100
0010
0001
0000
0100
0000
0010
0000
1000
0000
0001
0000
,
0011
0000
0010
0000
0001
0000
1000
0000
0010
1000
0100
0000
0010
0000
0001
0000
,
0100
0000
0001
0000
1000
0000
0010
0000
1000
0010
1000
0001
0100
0001
0010
0000
,
0001
0000
0100
0000
0010
0000
1000
0000
0001
1000
0001
0000
0100
0000
0001
0000
,
0010
0000
0001
0000
1000
0000
0001
0000
0100
0010
1000
0000
0010
0000
0100
0000
,
0110
0000
0010
0000
1000
0000
0001
0000
0100
0001
0010
0000
0001
0000
1000
0000
,
1010
0000
0010
0101
0000
0100
1010
0010
,
2001
0000
0010
0001
0000
0100
3000
0010
,
0120
0000
1000
0100
0000
0001
0030
1000
,
2100
0000
0010
3001
0100
0010
1000
0010
,
0110
0000
0000
0000
0100
0000
0010
0000
1010
0000
0000
0000
1000
0010
1000
0000
,
0001
0000
0100
0001
0100
0000
0001
1000
,
0010
0000
0100
0001
0010
0000
0001
1000
,
0010
1010
0100
0110
,
0001
1001
0100
0101
,
0001
1000
0010
0100
0001
1000
0010
1000
,
0100
0010
0001
0100
0001
1000
0010
0200
,
0002
0000
0000
0000
,
0000
0000
0000
0000
,
0000
0000
0000
0303
,
1010
0000
0000
0101
0000
0000
0010
0000
0110
0000
0000
1010
0000
0000
1000
0000
,
2002
3003
0000
0000
1000
0000
0000
0000
0010
0000
0000
0000
0100
0000
0000
0000
,
0001
1000
0001
0000
0010
0001
0100
0000
,
0000
0101
0000
0000
0001
0000
1000
0000
,
0010
1000
0010
0000
1000
0001
1000
0000
,
0001
0010
0001
0100
,
0010
1000
0010
0000
1000
0001
1000
0000
,
0000
1001
0000
0000
0001
0000
0100
0010
,
0100
0001
0000
0001
0100
0000
0010
0000
,
0100
0001
1000
0010
,
0100
0001
0100
0000
0001
1000
0001
0000
,
0000
1001
0000
0000
1000
0000
0010
0000
,
0100
0001
0100
0000
0001
1000
0010
0000
,
0100
0000
0001
0000
0010
0001
0100
0000
,
0001
0000
0010
0000
0100
1000
0010
0000
,
0100
0001
0000
1000
0010
0000
0100
0000
,
0001
0100
0000
0010
1000
0000
0001
0000
,
0100
0010
1000
0001
,
0010
0001
0100
0000
0010
1000
0010
0000
,
0000
1010
0000
0000
1000
0000
0001
0000
,
1000
0010
1000
0000
0001
1000
0002
0000
,
0000
0000
0013
0000
0001
1000
0010
0000
,
0100
0001
2001
0000
,
3010
0000
0100
0000
0001
0000
1000
0010
,
1000
0001
0000
0100
0010
0000
0200
0000
,
0300
0000
0001
1000
0020
0000
0030
0000
,
0100
0001
0020
0000
0030
0000
0001
0000
,
1000
0000
0010
1000
0010
0000
0100
0000
,
0001
1000
0001
0000
0010
0000
0001
0000
,
0001
0100
0010
1000
,
1000
0000
0001
0000
0010
0000
0001
0100
,
0001
0000
0100
0000
0010
0000
1000
0010
,
1000
0001
0100
0101
,
0001
1010
1000
1001
,
0001
0000
0000
0110
0000
0000
0100
0000
0000
1010
0000
1000
,
0010
0000
0010
0100
0000
0100
0001
0000
0001
1000
0000
1000
,
0001
0000
0001
0010
0000
0010
0001
0000
0001
0100
0000
0001
,
1000
0000
0010
0100
0000
0001
0010
0000
0001
1000
0000
0100
,
1000
0000
1000
0010
0000
0100
0001
0000
0100
0000
0000
0000
,
2002
0000
0000
0000
0000
0000
3003
0000
0000
1000
0001
0010
,
0001
0100
0010
1000
0001
0100
0010
1000
0001
0010
0000
0000
,
2002
0000
0000
0000
,
0000
0000
3003
0000
1000
0001
0010
0001
,
0100
0010
1000
0001
0100
0010
1000
0100
,
0010
0001
0100
0010
2000
0000
0000
0000
,
0000
3000
0220
0000
,
0000
0330
2002
0000
,
0000
0000
0000
0000
,
0000
0000
3003
0000
;

//--------------- dance-single - Turn A demicore ----------------
#NOTES:
     dance-single:
     Turn A demicore:
     Challenge:
     18:
     0,0,0,0,0:
0000
0000
0000
0000
,
0000
0000
0000
0000
,
0000
0000
0000
0000
,
0000
0000
0000
0000
,
0000
0000
0000
0000
,
1000
0000
1000
0001
0000
0001
0100
0000
0100
0010
0000
0010
,
1000
0000
0001
0010
0000
0001
1000
0000
0010
0100
0000
0001
,
0010
0001
1000
0100
0010
0001
1000
0010
1000
0001
0100
0002
,
2000
0000
0000
3003
,
1010
0000
0000
1001
0000
0001
0100
0000
0000
0110
0000
0010
,
1000
0000
0000
0101
0000
1000
0010
0000
0000
0110
0000
0001
,
0100
0000
0000
1001
0000
1000
0010
0000
0000
0110
0000
0010
,
1000
0000
0000
0101
0000
0001
1000
0000
0010
0100
0000
0001
,
0010
0000
0000
0101
0000
1000
0010
0000
0000
1100
0000
0001
,
0010
0000
0000
0101
0000
1000
0010
0000
0000
0110
0000
0001
,
1000
0000
0000
1010
0000
0000
1001
0000
1000
0010
0000
0100
,
0020
1000
0001
0130
,
0101
0000
0001
1000
0000
0010
0100
0000
0001
1000
0000
0100
,
1000
0000
0001
0010
0000
0001
1000
0000
0010
0100
0000
1000
,
0010
0000
0100
0001
0000
1000
0001
0000
0100
0010
0000
1000
,
0010
0000
0100
0001
0000
1000
0010
0100
0001
0010
0001
1000
,
0010
0000
0100
0010
0000
0000
0101
0000
0001
1000
0000
0000
,
1010
0000
1000
0001
0000
0000
0110
0000
0100
0001
0000
0000
,
0110
0000
0010
1000
0000
0010
0100
0000
0100
0001
0000
1000
,
0001
0100
0010
0100
0001
1000
0010
0100
0001
1000
0100
0010
,
0001
0100
0020
1000
0130
0001
2000
0010
,
3001
0100
0002
1000
0013
0200
0310
0002
,
1003
0010
0200
0010
0301
1000
0020
0100
,
1030
0001
2000
0010
3001
0200
0310
0002
,
0103
0010
2000
0001
3010
0001
0020
0100
,
0031
1000
0002
0010
0103
0020
0130
2000
,
3001
0100
0020
1000
0130
0001
2000
0001
,
3010
0001
0020
0100
0031
1000
0001
0100
,
0220
0330
2002
3003
,
2020
3030
0202
0303
,
1000
0001
0010
0000
0001
0100
0010
0000
1000
0001
0010
0001
0100
0010
1000
0100
,
0020
0000
0000
0000
0000
0001
0031
0000
,
1001
0000
1000
0000
0010
1000
0000
0001
1000
0000
0001
0010
0000
0001
0100
0010
,
0100
0000
0001
0000
1000
0010
0000
0100
0001
0000
1000
0100
0000
0010
0001
0100
,
0010
0000
0010
0000
1000
0001
0000
0010
0001
0000
1000
0010
0000
0100
0001
0010
,
0100
0000
0001
0000
0100
1000
0000
0001
0010
0000
0001
0100
0000
0010
0100
0010
,
1000
0000
0001
0000
0010
0001
0000
0100
0010
0000
0100
0001
0000
1000
0001
0010
,
0001
0000
0010
0000
1000
0010
0000
0001
1000
0000
0100
0010
0000
0001
1000
0010
,
0100
0000
0010
0000
1000
0010
0000
0100
0001
0000
1000
0001
0000
0100
0010
1000
,
0010
0000
0000
1001
0000
0000
1000
0001
0010
0000
0000
0011
0000
0000
0001
0100
,
0010
0000
1000
0000
1001
0000
0001
0000
0100
0010
1000
0000
0001
0000
0010
0000
,
0001
1000
0010
0000
0100
0000
0010
1000
0100
0000
0010
0000
0001
0100
0010
0000
,
1000
0000
0001
0000
0011
0000
0010
0000
0001
1000
0010
0000
0100
0000
0001
0000
,
1000
0010
0100
0000
0001
0000
1000
0000
0001
1000
0100
1000
0010
0100
0001
1000
,
0010
0000
0100
0000
0101
0000
0001
0000
1000
0010
0100
0000
0001
0000
0100
0000
,
0001
1000
0010
0000
0100
0000
0010
1000
0001
0000
0100
0010
0000
1000
0001
0000
,
0100
0000
0001
0000
1001
0000
1000
0000
0010
1000
0001
0000
0100
0001
1000
0010
,
1000
0000
0001
0000
0100
0000
0001
0000
1000
0010
0100
0000
0001
1000
0010
0100
,
0001
0000
0100
0110
0000
1010
0000
1001
,
0001
0000
0001
0101
0000
0110
0000
1010
,
1000
0000
0000
0000
0001
0000
0100
0000
0010
1000
0001
0000
0100
0010
1000
0000
,
1001
0000
0000
0000
0100
0000
0001
0000
1001
0000
0000
0000
1000
0001
0100
0001
,
1000
0000
0010
1000
1100
0000
0010
0001
,
0101
0000
0010
0100
1010
0000
0100
0010
,
1001
1100
0110
0101
,
1010
1000
0001
0100
0110
0010
1000
0001
,
0100
0010
1000
0001
0010
0001
1000
0010
,
1000
0010
1000
0001
0100
0010
1000
0100
0010
0001
0100
0020
,
2000
0000
0000
0000
,
0000
0000
0000
0000
,
3030
0000
0000
0000
,
1010
0000
0000
1001
0000
0000
0110
0000
0101
0000
0000
1001
0000
0000
1100
0000
,
2000
3001
0100
0010
,
1000
0001
0100
0010
1000
0100
0010
0000
,
0001
0100
0000
0010
1000
0000
0001
0000
,
1000
0001
0010
0000
0001
1000
0100
0000
,
1000
0010
0000
0000
1000
0000
0001
0000
,
0100
0010
1000
0100
1000
0001
0100
0000
,
0001
1000
0000
0010
1000
0001
0010
0000
,
0000
0101
0000
0000
1000
0010
0100
0000
,
0001
1000
0000
0010
1000
0001
0010
0000
,
0001
1000
0100
0010
0001
0100
0010
0000
,
1000
0001
0000
0010
0001
0000
0100
0010
,
0100
0000
0001
1000
0010
0000
0100
0001
,
1000
0010
0100
0000
0001
0000
1000
0100
,
0010
0001
0100
0010
1000
0001
0010
0000
,
0010
0000
0001
0000
1000
0000
0020
0230
,
0301
0000
1001
0000
1000
0001
0010
0000
,
0001
1000
0000
0010
1000
0000
0001
0000
,
1000
0010
0100
0001
1000
0001
0100
0000
,
0010
1000
0000
0001
1000
0000
0020
0000
,
0130
2000
3001
0200
,
0000
0000
0310
0000
1000
0001
0010
0001
,
1000
0010
0200
0000
0302
0000
0000
0000
,
1003
0000
0010
0000
0100
0000
0001
1000
,
0100
1000
0001
0100
0010
0000
1000
0000
,
0001
0100
1000
0000
1001
0000
1000
0100
,
0001
0000
1001
0000
0100
0001
1000
0000
,
0010
1000
0000
0001
1000
0000
0001
0000
,
0100
0001
0000
1000
0001
0000
0100
0001
,
1000
0001
1000
0010
0100
0010
0100
0010
,
1000
0001
0100
0010
0100
0001
1000
0000
,
0010
1000
0000
0001
1000
0000
0001
0000
,
0100
0010
0000
1000
0001
0000
0110
0000
,
1010
0101
1001
0110
,
1001
0000
0000
1010
0000
0000
0101
0000
0000
1000
0000
0001
,
0100
0000
0001
1000
0000
0010
1000
0010
0100
0001
0000
1000
,
0001
0000
0010
0001
0000
0100
0001
1000
0001
0010
0001
1000
,
0010
1000
0001
0010
0001
0100
0010
1000
0001
0010
0001
1000
,
0100
0010
0001
0100
0010
1000
0001
0010
0001
0000
0000
0000
,
2002
0000
0000
0000
0000
0000
3003
0000
0000
1000
0010
0100
,
0001
0010
0001
1000
0100
0010
0001
0100
0010
1000
0000
0000
,
2002
0000
0000
0000
,
0000
0000
0000
3003
0000
0000
1000
0001
0010
0001
1000
0100
,
0010
0001
0100
0010
1000
0001
0010
0001
0010
0100
1000
0001
,
0100
0010
1000
0001
0100
0001
2002
0000
0000
0000
0000
0000
,
3003
0000
2020
0000
,
3030
0000
0220
0000
,
0000
0000
0000
0000
,
0000
0000
0330
0000
;
