#VERSION:0.83;
#TITLE:NICE TYPE;
#SUBTITLE:;
#ARTIST:KIRA feat. monii;
#TITLETRANSLIT:;
#SUBTITLETRANSLIT:;
#ARTISTTRANSLIT:;
#GENRE:;
#CREDIT:;
#MUSIC:nicetype.ogg;
#BANNER:banner.png;
#BACKGROUND:;
#CDTITLE:;
#SAMPLESTART:47.351;
#SAMPLELENGTH:14.545;
#SELECTABLE:YES;
#OFFSET:-0.078;
#BPMS:0.000=132.000
,104.000=264.000
,105.000=132.000
,224.000=264.000
,225.000=132.000
;
#STOPS:104.000=0.227
,224.000=0.227
;
#DISPLAYBPM:132.000;
#BGCHANGES:;
#FGCHANGES:;

//--------------- dance-single - demicore ----------------
#NOTEDATA:;
#STEPSTYPE:dance-single;
#DESCRIPTION:demicore;
#DIFFICULTY:Beginner;
#METER:3;
#RADARVALUES:0,0,0,0,0;
#NOTES:
0000
0000
0000
0000
,
0000
0000
0000
0000
,
0000
0000
0000
0000
,
0000
0000
0000
0000
,
0001
0000
0001
0000
,
1000
0000
1000
0000
,
0010
0000
0010
0000
,
0100
0000
0100
0000
,
1001
0000
1000
0000
,
0010
0000
0100
0000
,
0001
0001
0001
0000
,
1000
1000
1000
0000
,
0010
0000
0100
0000
,
0010
0000
1000
0000
,
0001
0000
0010
0000
,
0001
0000
0100
0000
,
0110
0000
1000
0000
,
0001
0000
0010
0000
,
0001
0000
0100
0000
,
0010
0010
0010
0000
,
2000
0000
0000
0000
,
3002
0000
0000
0000
,
0203
0000
0000
0000
,
0320
0000
0000
0000
,
1030
1000
1000
0000
,
0010
0100
0010
0000
,
0000
0000
0000
0100
,
0100
0000
0010
0000
,
1000
0000
0001
0000
,
0010
0001
0010
0000
,
0001
0000
1000
0000
,
0100
0100
0100
0000
,
1000
0000
0001
0000
,
0010
0010
0010
0000
,
1001
0000
0000
0000
,
0000
0000
0000
0000
,
0100
0000
0010
0000
,
1000
0000
0010
0000
,
0100
0000
0001
0000
,
0010
0000
0001
0000
,
1000
0000
0010
0000
,
0100
0100
0200
0300
,
0001
0000
1000
0000
,
0010
0100
0010
0000
,
1000
0000
0001
0000
,
0010
0001
0010
0000
,
0001
0000
1000
0000
,
0010
1000
0010
0000
,
0100
0000
0001
0000
,
1000
1000
1000
1000
,
0002
0000
0000
0000
,
2003
0000
0000
0000
,
3020
0000
0000
0000
,
0230
0000
0000
0000
,
0301
0001
0001
0000
,
0100
0010
0100
0000
,
0000
0000
0000
0010
,
0010
0000
1000
0000
,
0001
0000
0100
0000
,
0010
1000
0010
0000
,
0100
0000
0001
0000
,
0010
0010
0010
0000
,
0001
0000
1000
0000
,
0010
0100
0010
0000
,
1001
0000
1000
0000
,
0010
0000
0100
0000
,
0001
0010
0001
0000
,
1000
0001
1000
0000
,
0010
0000
0100
0000
,
0001
0000
0100
0000
,
0001
0100
0001
0000
,
1000
0010
1000
0000
,
1001
0000
0000
0000
;

//--------------- dance-single - demicore ----------------
#NOTEDATA:;
#STEPSTYPE:dance-single;
#DESCRIPTION:demicore;
#DIFFICULTY:Easy;
#METER:5;
#RADARVALUES:0,0,0,0,0;
#NOTES:
0000
0000
0000
0000
,
0000
0000
0000
0000
,
0000
0000
0000
0000
,
0000
0000
0000
0000
,
1000
0010
1000
0000
,
0100
0100
0100
0000
,
0001
1000
0001
0000
,
0010
0001
0010
0000
0001
0000
0000
0000
,
0100
0100
0010
0010
,
1000
0001
0100
0010
,
0110
0000
1001
0000
,
0000
0001
0100
0000
0010
0000
1000
0000
,
0002
0010
0000
1003
,
2000
0100
0000
3010
,
0001
0000
0100
0000
0010
1000
0010
0000
,
0100
0000
0010
0010
,
0200
0001
0010
0310
,
0020
0100
1000
1030
,
0010
0100
0001
1000
,
0001
0001
1000
1000
,
0020
0000
0230
0000
,
0302
0000
0023
0000
,
0032
0000
2003
0000
,
3020
0000
0230
0000
,
0301
0001
1000
1000
,
0010
0100
0010
0100
,
0000
0000
0001
1000
,
0010
0000
0010
0000
1000
0010
1000
0000
,
0000
0110
0000
0001
,
1000
0000
0010
0000
1000
0100
1000
0000
,
0002
0003
0200
0300
,
0010
1000
0001
1000
,
0110
0000
1001
0000
,
0001
1000
0001
0000
0100
0001
0100
0000
,
0020
0000
0100
0000
,
2030
0000
0001
0000
,
3001
0000
0000
0000
0100
0000
0001
1000
,
0001
0100
0010
0010
,
1000
0100
0010
0001
,
0100
0001
1000
1000
,
0010
0000
0110
0000
,
1001
0000
1010
0000
,
0100
0001
1000
1000
,
0010
0100
0001
0001
,
1000
0000
0000
0010
0100
0000
0001
0000
,
1000
0020
0100
0130
,
0100
0000
0000
0001
1000
0000
0010
0000
,
1000
0000
0000
1000
0001
0000
0100
0000
,
0010
0000
0100
0010
,
1000
1000
0001
0001
,
2000
0000
0002
3003
,
0020
0000
0200
0330
,
0200
0000
0002
0303
,
0002
0000
2000
3003
,
1000
1000
0010
0010
,
0100
0001
1000
0001
,
0000
0000
0100
0001
,
1000
0000
0001
0000
0100
0001
0100
0000
,
0000
1001
0000
0001
,
1000
0000
0010
0000
1000
0001
1000
0000
,
0002
0003
2000
3000
,
0010
0100
0001
1000
,
1010
0000
0101
0000
,
0010
0100
0010
0000
1000
0010
1000
0000
,
2002
0000
3003
0000
,
0100
0001
1000
1000
,
0010
0100
0001
0010
,
0001
0000
1000
0001
1000
0000
0010
0000
,
0100
0100
0001
1000
,
0010
0100
0001
0010
,
0001
1000
0010
1000
,
0001
0000
0100
0000
0001
1000
0001
0000
,
1001
0000
0000
0000
;

//--------------- dance-single - demicore ----------------
#NOTEDATA:;
#STEPSTYPE:dance-single;
#DESCRIPTION:demicore;
#DIFFICULTY:Medium;
#METER:9;
#RADARVALUES:0,0,0,0,0;
#NOTES:
0000
0000
0000
0000
,
0000
0000
0000
0000
,
0000
0000
0000
0000
,
0000
0000
0000
0000
,
0100
0000
0001
0000
0010
0001
1000
0000
,
0001
0000
0000
0001
0000
0000
0001
0000
0100
0000
0000
0000
0110
0000
0000
0000
,
0001
0000
1000
0000
0010
0100
0010
0000
,
1000
0001
1000
0000
0001
0000
1001
0000
,
0001
0000
0001
1000
0010
0000
0010
0100
,
0010
0000
1000
0010
1000
0000
0010
0000
,
0001
0100
0001
0000
0101
0000
0000
0100
,
0000
0010
1000
0010
0100
0000
0001
0000
,
1000
0000
0100
0001
0100
0000
0001
1000
,
0001
0000
0100
0000
0100
0000
0010
1000
,
0020
0000
0230
0000
0300
0001
2000
0000
,
3002
0000
0103
0000
0001
1000
0001
0000
,
0000
0000
0100
0001
0000
1000
0010
0100
,
0000
0000
0001
1000
0000
0001
1000
0010
,
0200
0302
2003
3020
,
0130
0100
0001
1000
,
1001
0000
1010
0000
,
1001
0000
0110
0000
,
0000
1000
0001
1000
0001
0000
0010
0000
,
0002
0203
0302
2003
,
3001
0000
0001
0000
0100
0010
0100
0010
,
0100
0000
0100
0000
0010
1000
0010
1000
,
0020
0000
0130
0000
0000
0001
0100
0001
,
0000
0100
0010
0000
1000
0000
0001
0000
,
0000
0000
1001
0000
0000
1000
0010
1000
,
0000
0001
0100
0000
0110
0000
1010
0000
,
1000
0010
1000
0000
0001
0100
0001
0000
,
0000
1000
0010
0100
0010
0000
0000
2000
,
0000
3001
0010
0110
,
1000
0001
1000
0000
0010
0000
0110
0000
,
1010
0000
0000
0000
,
0000
0000
0000
0002
,
0103
0000
0010
1000
0010
0000
0100
0000
,
0001
0010
0001
0000
1000
0000
0010
0000
,
0200
0000
0000
0301
1000
0000
1010
0000
,
0001
0000
0100
0010
1000
0000
0001
0000
,
0100
0001
0010
0000
0001
1000
0001
0000
,
1000
0010
1000
0000
0020
0000
0030
0000
,
0101
0000
0000
0001
1000
0001
1000
0000
,
0010
0000
0100
0001
0010
0000
0001
0000
,
2000
3000
0000
0010
0100
0010
0100
0000
,
0001
1001
0010
0110
,
0100
0010
0000
1000
0001
0000
0100
0000
,
0010
1000
0000
0001
0010
0000
0001
0000
,
1000
0001
0000
0100
0010
0000
1000
0000
,
0010
1010
1000
1001
,
0010
0000
0110
0000
,
1010
0000
1001
0000
,
0000
0010
1000
0010
1000
0000
0001
0100
,
0002
2003
3020
2030
,
3001
0000
0001
0000
1000
0100
1000
0100
,
0010
0000
0010
0000
0001
0100
0001
0100
,
0002
0000
1003
0000
0000
0010
1000
0010
,
0000
1000
0001
0000
0100
0000
0110
0000
,
0000
0000
1001
0000
0000
1000
0010
0100
,
0000
0001
1000
0010
1000
0000
1001
0000
,
0001
1000
0010
0000
0100
0001
1000
0001
,
0000
0100
0010
0000
0110
0000
0000
0002
,
0000
1003
0010
0000
0100
0000
0110
0000
,
0001
1000
0001
0000
1000
0010
1000
0000
,
2010
0010
0001
3001
,
0000
0010
0100
0010
0100
0000
1001
0000
,
0001
0000
0000
0001
0000
0000
0001
0000
0100
0000
0010
0000
1000
0000
0000
0000
,
0001
0100
0110
0000
,
0210
0010
0001
0301
,
0000
1000
0010
1000
0010
0000
1010
0000
,
0100
0000
0000
0100
0000
0000
0100
0000
0001
0000
1000
0000
0010
0000
0000
0000
,
0100
0001
0100
0000
0010
0000
0010
0000
,
1001
0000
0000
0000
;

//--------------- dance-single - demicore ----------------
#NOTEDATA:;
#STEPSTYPE:dance-single;
#DESCRIPTION:demicore;
#DIFFICULTY:Hard;
#METER:13;
#RADARVALUES:0,0,0,0,0;
#NOTES:
0000
0000
0000
0000
,
0000
0000
0000
0000
,
0000
0000
0000
0000
,
0000
0000
0000
0000
,
1000
0001
0100
0100
0001
0010
0100
1000
,
0001
0000
1000
0010
0000
1000
0010
0000
0100
0000
0002
0000
1003
0000
0000
0000
,
0000
0100
0010
0010
1000
0001
0010
0001
,
0200
0010
0310
1000
0001
0100
0101
0000
,
2000
0000
0000
3010
0000
0000
0100
0000
0020
0000
0000
1030
0000
0000
0001
0000
,
0001
0000
0010
0000
0001
0000
0100
0000
0110
0000
0000
1001
0000
0000
0010
0000
,
0100
0001
0100
1000
0100
0110
0000
2000
,
0000
3001
0010
0010
0001
0100
0010
1000
,
1001
0000
0020
1000
0130
0000
2000
0001
,
3010
0000
0000
0000
0002
0000
0100
0000
1003
0000
0000
0010
1000
0000
0010
0000
,
0200
0000
0302
0000
1003
0010
2000
0000
,
3002
0000
0103
0100
0001
0010
0100
1000
,
0001
0000
1000
0010
0100
0000
0100
0000
0001
0000
1000
0001
0010
0000
0010
0000
,
0001
0000
0100
0010
1000
0000
1000
0000
0010
0000
0100
0001
0010
0000
0010
0000
,
0001
0001
1000
1000
0010
0100
0001
0010
,
0011
1001
1010
0101
,
0200
0010
0010
0010
0000
0001
0001
0000
,
0302
0010
0010
0010
0000
1000
1000
0000
,
0003
0100
0010
1000
0100
0010
0001
0100
,
0110
1010
0101
1001
,
0100
0100
0001
0001
1000
1000
0010
0010
,
1000
0010
0100
0001
1000
0001
0010
0001
,
0200
0300
0000
0000
0000
0000
0000
0000
1001
0000
0000
0000
0000
0000
0000
0000
1000
0000
0000
0000
0010
0000
0000
0000
0001
0000
0000
0000
0010
0000
0000
0000
,
0000
0100
0001
1000
0010
0010
1000
0001
,
0010
0000
0011
0000
1000
0010
0001
0010
,
1000
0010
0100
0001
1001
0000
1010
0000
,
2000
3010
0100
0001
0020
0031
0100
0020
,
0000
1030
0001
0100
0010
0010
0000
2001
,
0000
3010
0010
0100
0001
1000
0002
0000
,
0013
0001
1000
0010
0100
0001
1001
0000
,
0110
0000
0000
0000
,
0000
0000
0000
0000
0000
0000
0000
0000
0000
0000
0000
0000
1000
0001
1000
0001
,
0020
0000
0031
1000
0001
0010
0001
1000
,
0020
1000
1030
0010
0200
0001
0001
0301
,
1002
0000
0000
0000
0003
0000
0100
0000
0010
1000
0000
0001
1000
0000
0001
0000
,
1000
0020
0000
0000
0130
0000
0001
0000
1001
0000
0000
0000
0010
0000
0010
0000
,
0100
0001
0010
0001
2000
3010
0002
0103
,
0010
1000
0001
0010
0102
0000
1003
0000
,
1010
1000
0000
0001
0100
0010
1000
0010
,
0100
0010
0001
0010
0100
0001
1000
0001
,
0020
0000
0031
0100
0010
0010
1000
1000
,
0010
1010
1001
0110
,
0001
0001
1000
0010
0100
0001
0100
0010
,
1000
0002
0000
1003
0010
0100
0010
1000
,
0001
0020
0000
0031
1000
1000
0001
0001
,
1000
0010
1010
0000
1001
0000
0101
0000
,
2000
0001
0001
0001
0000
0010
0010
0000
,
3002
0100
0100
0100
0000
1000
1000
0000
,
0003
0100
0001
1000
0001
0010
0100
1000
,
0001
0101
1010
1001
,
0100
0100
0010
0010
1000
1000
0001
0001
,
0010
0000
0001
0000
0100
0000
0010
0000
1000
0001
0000
0000
0100
0000
0010
0000
,
0000
0000
1001
0000
1000
0001
0010
0001
,
0100
0000
0010
1000
0010
0000
1000
0001
1000
0000
0010
0000
0100
0000
0001
0000
,
0010
0000
0000
0000
1010
0000
0000
0000
1000
0000
0001
0100
0001
0000
1000
0001
,
1000
0010
0100
0001
1001
0000
0110
0000
,
1000
1000
0001
0010
0001
0100
0010
2000
,
0000
3001
0010
0002
0100
0103
0000
0020
,
0000
1030
0001
0010
0001
0100
0020
0000
,
1030
0100
0010
0001
0100
0010
0110
0000
,
1010
0000
1000
0010
0100
0010
1000
0001
,
0000
0000
0001
0000
0100
0000
0010
0000
1000
0000
0010
0100
0010
0000
0000
0000
,
1000
0000
0010
1000
0000
0001
0100
0000
0001
0000
0001
0000
0100
0000
0010
0000
,
0100
0001
1000
0010
0200
0001
0010
0301
,
0100
0000
1010
1000
0001
0010
0001
0100
,
0010
1000
0100
0010
0001
0100
0010
0000
,
1000
0000
0001
0010
0000
0100
1000
0000
0001
0000
0001
0000
1000
0000
0010
0000
,
0100
0100
0010
0010
1000
0001
0110
0000
,
2002
0000
0000
0000
,
3003
0000
0000
0000
;

//--------------- dance-single - demicore ----------------
#NOTEDATA:;
#STEPSTYPE:dance-single;
#DESCRIPTION:demicore;
#DIFFICULTY:Challenge;
#METER:16;
#RADARVALUES:0,0,0,0,0;
#NOTES:
0000
0000
0000
0000
,
0000
0000
0000
0000
,
0000
0000
0000
0000
,
0000
0000
0000
0000
,
0100
0000
0001
0000
1000
0000
0001
0000
0100
0010
1000
0000
0001
0100
0001
0000
,
1000
0000
0010
1000
0000
0010
0100
0000
0001
0000
1000
0000
0101
0000
MMMM
0000
,
1001
0000
1000
0000
0010
0000
0100
0000
0010
1000
0001
0000
0100
0010
1000
0000
,
0101
0000
0110
0000
1010
0000
1000
0000
0001
0100
0010
0000
1000
0000
MMMM
0000
,
1000
0000
0010
0100
0000
0001
0010
0000
0001
0000
1000
0010
0000
1000
0001
0000
,
0101
0000
0001
0000
1000
0000
0010
0000
1000
0000
0001
0100
0000
0010
1000
0000
,
1002
1003
0210
0310
0102
0103
MMMM
0110
,
0000
0000
1000
0001
0010
0000
0001
0100
0010
0000
0100
0000
0001
0000
1000
0000
,
1001
MMMM
1000
0010
0100
MMMM
1000
0001
,
0010
0000
MMMM
0000
0100
0000
0001
0000
1000
0000
MMMM
0010
0001
0000
0100
0000
,
0002
0100
1003
0000
1010
1000
0102
0100
,
0013
0000
0000
0000
1000
0000
0001
0000
0010
0001
0100
0000
0010
1000
0001
0000
,
0110
0000
MMMM
0100
0001
0000
1000
0000
0001
0000
MMMM
0010
0100
0000
0001
0000
,
0010
0000
MMMM
0100
0010
0000
1000
0000
0001
0000
MMMM
0000
0010
0000
0100
0000
,
1001
0010
0001
0100
0110
1000
0001
0010
,
0011
0000
MMMM
0000
1001
0000
MMMM
0000
1010
0000
0000
0100
0010
0000
1000
0000
,
MMMM
1000
0001
0010
MMMM
0100
0100
0000
,
MMMM
0001
1000
0100
MMMM
0001
0001
0000
,
MMMM
0000
1000
0000
0010
0000
0100
0000
0001
1000
0010
0000
0100
0010
1000
0000
,
0002
0023
0032
1003
,
1010
1000
0101
0001
0110
0100
1010
0010
,
0110
0100
0001
0010
1001
0001
0100
0010
,
MMMM
0000
0000
0000
1001
0000
0000
0000
1000
0000
0010
1000
0001
0000
0100
0001
,
0010
0000
0001
1000
0001
0000
0100
0000
0010
1000
0010
0100
0001
0000
0100
0000
,
MMMM
0000
0000
0000
1010
0000
0000
0000
0010
0000
0100
0001
0010
0000
0001
0000
,
1000
0000
0001
0100
0001
0000
1000
0000
1010
0000
0010
0000
0101
0000
MMMM
0000
,
1000
0010
1000
0000
0001
0000
0100
0000
0010
1000
0010
0000
0100
0000
0001
0000
,
MMMM
0001
1000
0010
0110
0110
MMMM
2001
,
0000
0000
3010
0000
1000
0001
0100
0000
0001
0100
0010
0000
0110
0000
0000
0000
,
1010
1000
0001
0010
0011
0001
0100
0010
,
1001
0000
2000
3020
0230
0302
2003
3001
,
MMMM
0000
0000
0000
0002
0000
0203
0000
0302
0000
2003
0000
3010
0100
0001
1000
,
0020
0000
0030
0100
0101
0001
1001
1000
,
0110
0000
0101
0000
1001
0000
1000
0000
0001
0000
1000
0001
0100
0000
0010
1000
,
0001
0000
0000
0000
MMMM
0000
0001
1000
0001
0100
0000
0100
0010
0000
1000
0000
,
0001
0100
0001
0000
1000
0010
0100
0000
0101
0000
0000
0000
MMMM
0000
0000
0000
,
1000
0010
0100
0000
0010
1000
0001
0000
0010
0000
0010
0000
0001
0000
1000
0010
,
0100
0000
0001
0010
0001
0000
1000
0000
1001
0000
0000
0000
MMMM
0000
0000
0000
,
1001
0000
1000
0010
0100
1000
0100
0010
1000
0000
0001
0000
0100
0000
0010
0000
,
1010
1000
1001
0001
0100
0010
1000
0001
,
MMMM
0000
0001
0100
0010
0001
0010
0100
0001
0000
1000
0000
0010
0000
0010
0000
,
2001
3000
0101
MMMM
1001
MMMM
1100
MMMM
,
0110
0000
0100
0000
0001
0000
1000
0000
0010
1000
0010
0000
1000
0001
0010
0000
,
0001
0100
0020
0000
0000
0000
0130
0001
1000
0000
0010
0100
0010
0000
1000
0001
,
0100
0000
0002
0000
0000
0000
1003
0000
0010
0000
0100
0000
0001
1000
0010
0000
,
1010
1000
1001
MMMM
0101
MMMM
0110
MMMM
,
0000
0010
1000
0001
MMMM
0001
0100
0000
,
MMMM
1000
0001
0010
MMMM
0100
0001
0000
,
MMMM
0000
0001
0000
1000
0010
0100
0000
0001
1000
0001
0000
0100
0010
1000
0000
,
0002
0203
0320
1030
,
0010
0001
0010
0000
0001
1000
0001
0000
1000
0010
1000
0000
0010
0100
0010
0000
,
0100
0001
0010
0100
1000
0001
0100
0001
1000
0000
1000
0000
0001
0000
0001
0000
,
MMMM
0000
0000
0000
1001
0000
0000
0000
1000
0000
0010
0100
0001
0000
0010
0001
,
1000
0000
0010
0000
0100
0000
0100
0000
0001
1000
0010
0100
0001
0000
0100
0000
,
MMMM
0000
0000
0000
0110
0000
0000
0000
1000
0000
0001
0010
0001
0000
0100
0010
,
1000
0000
0001
0100
0001
0000
0100
0000
0011
0000
0010
0000
1010
0000
MMMM
0000
,
1000
0010
1000
0000
0001
0100
0010
0000
1000
0100
0010
0000
0001
0000
1000
0000
,
MMMM
1000
0010
0100
1010
1010
MMMM
0102
,
0000
0000
1003
0000
0001
1000
0010
0000
0100
0001
1000
0000
1010
0000
0000
0000
,
1001
0001
0101
0100
0110
0010
1010
MMMM
,
1001
0000
0000
0000
1000
0001
0010
0000
0001
0100
0010
0000
1000
0100
0010
0001
,
0100
0000
0001
1000
0010
0000
0100
0000
0110
0000
0110
0000
1001
0000
MMMM
0000
,
0001
1000
0010
1000
0001
0100
0001
0000
1000
0010
1000
0001
0010
0000
0001
0000
,
0100
0010
1000
0000
0001
1000
0001
0000
0100
0000
0010
0000
MMMM
0000
0000
0000
,
1001
0000
0000
0000
0001
0100
0001
0000
1000
0010
0100
0000
0001
0100
0001
0000
,
0100
0000
0010
1000
0001
0100
0010
0000
1001
0000
1010
0000
0101
0000
MMMM
0000
,
1000
0010
0100
0001
0100
0010
1000
0000
0001
0100
0010
1000
0001
0000
0010
0000
,
0101
0010
1001
0100
1010
0001
1001
MMMM
,
0110
0000
0000
0000
;
