#TITLE:Mesmerizer;
#SUBTITLE:;
#ARTIST:32ki feat. Hatsune Miku & Kasane Teto;
#TITLETRANSLIT:;
#SUBTITLETRANSLIT:;
#ARTISTTRANSLIT:;
#GENRE:;
#CREDIT:;
#BANNER:;
#BACKGROUND:;
#LYRICSPATH:;
#CDTITLE:;
#MUSIC:mesmerizer.mp3;
#OFFSET:-0.071000;
#SAMPLESTART:44.827999;
#SAMPLELENGTH:16.216000;
#SELECTABLE:YES;
#DISPLAYBPM:185.000000;
#BPMS:0.000000=185.000000
,280.000000=92.500000
,282.000000=46.250000
,284.000000=92.500000
,286.000000=185.000000
;
#STOPS:290.000000=0.649000
;
#BGCHANGES:0.500=mesmerizer.mp4=1.000=0=0=1=====,
99999=-nosongbg-=1.000=0=0=0 // don't automatically add -songbackground-
;
#KEYSOUNDS:;
#ATTACKS:;

//---------------dance-single - demicore----------------
#NOTES:
     dance-single:
     demicore:
     Challenge:
     15:
     0.806023,0.931339,0.305670,0.757807,0.725967,886.000000,838.000000,48.000000,119.000000,0.000000,0.000000,0.806023,0.931339,0.305670,0.757807,0.725967,886.000000,838.000000,48.000000,119.000000,0.000000,0.000000:
// measure 0
0000
0000
0000
0000
,  // measure 1
0000
0000
0000
0000
,  // measure 2
0000
0000
0000
0000
,  // measure 3
2000
0000
0000
3001
0000
0000
0010
0000
0002
0000
0000
0000
1003
0010
0100
0010
,  // measure 4
1000
0100
0000
0010
0000
0001
0100
0010
2000
0000
0000
3010
0000
0000
0100
0000
,  // measure 5
0020
0000
0000
1030
0000
0000
0001
0000
0200
0000
0000
0000
0310
1000
0001
0100
,  // measure 6
0001
0000
0000
0010
0000
0000
0001
0200
0000
0000
0310
0000
1000
0000
0001
0000
,  // measure 7
0012
0000
0000
0103
0000
0000
0010
0000
2000
0000
0000
0000
3001
0100
0010
1000
,  // measure 8
0100
0010
0000
0100
0000
1000
0001
0100
0002
0000
0000
0013
0000
0000
0001
0000
,  // measure 9
1010
0000
1000
0000
1001
0000
0000
0011
0000
0000
0100
0000
0010
0000
1000
0000
,  // measure 10
0001
1000
0010
0000
0100
0000
0001
0010
0000
0001
0100
0010
0100
0000
0010
0000
,  // measure 11
2000
0000
0000
0000
3010
0000
0100
0010
0000
1000
0000
0001
0010
0000
0011
0000
,  // measure 12
0000
0001
0100
0010
1000
0100
0010
0100
,  // measure 13
0000
0002
0000
0203
0000
2300
3010
0100
,  // measure 14
0001
0010
0100
1000
0001
0000
0110
0000
,  // measure 15
0200
0000
0000
0000
0301
0000
1000
0001
0000
0010
0000
0001
0100
0000
0101
0000
,  // measure 16
0000
0200
0302
0023
0230
2300
3020
0230
,  // measure 17
0300
0001
1000
0010
0100
0010
1000
1100
,  // measure 18
0000
0000
0000
0101
0000
0100
0001
0010
,  // measure 19
0001
0100
0010
1000
0000
0000
0100
0010
0001
0000
1000
0000
0010
0100
0010
1000
,  // measure 20
0100
0010
0001
1001
0000
1000
0010
0100
,  // measure 21
0010
0000
1000
0001
0010
0001
0000
1000
0010
1000
0100
0010
0001
0100
0010
1000
,  // measure 22
0100
1000
0001
0101
0000
0100
0010
0100
,  // measure 23
1000
0000
0100
0010
1000
0010
0100
0001
1000
0000
0010
0000
0100
0001
0010
0001
,  // measure 24
1000
0010
1000
1001
0000
0001
0100
0010
,  // measure 25
0100
0001
0010
0100
1000
0000
0010
1000
0100
0000
1000
0000
0001
0000
0020
0000
,  // measure 26
0000
0031
0100
0100
0010
1000
0010
0100
,  // measure 27
0101
0000
0000
0001
1000
0100
1000
0010
,  // measure 28
0200
0000
1000
0000
0301
0100
0010
1000
,  // measure 29
1100
0000
0000
0010
0001
0100
1000
0100
,  // measure 30
0002
0000
0010
0000
0103
0010
1000
0100
,  // measure 31
0110
0000
0000
0100
1000
0010
0100
0001
,  // measure 32
2000
0000
0010
0000
3100
0010
0001
0100
,  // measure 33
1000
0100
0001
1000
0010
0100
0001
0100
,  // measure 34
0020
0000
0030
0000
1001
0000
1000
0010
,  // measure 35
0120
0000
1030
0001
0012
0000
0103
0010
,  // measure 36
2010
0000
3200
0000
0302
0000
0103
1000
,  // measure 37
0010
0100
0001
0100
1000
0100
0000
0020
,  // measure 38
0000
0001
0100
0001
0130
0000
0001
1000
,  // measure 39
1200
0000
0310
0001
0102
0000
1003
0010
,  // measure 40
0200
0000
2300
0000
3200
0000
0301
1000
,  // measure 41
0010
1000
0001
0100
0010
1000
0000
1001
,  // measure 42
0000
0000
0001
0000
0100
0001
0100
0000
0010
0000
1000
0100
0010
0000
0001
0000
,  // measure 43
0200
0000
0310
1000
1002
0000
0013
0001
,  // measure 44
0200
0000
0320
0000
2030
0000
3001
0100
,  // measure 45
1000
0100
0010
1000
0100
0010
0000
0002
,  // measure 46
0000
0100
1000
0100
1003
0000
0010
1000
,  // measure 47
1002
0000
0103
0010
2010
0000
3001
0100
,  // measure 48
0020
0000
0032
0000
0023
0000
0130
0001
,  // measure 49
1000
0010
0100
0001
0010
0001
0000
1001
,  // measure 50
0000
0000
1000
0000
0010
0100
0010
0000
1000
0000
0001
1000
0100
0000
0010
0000
,  // measure 51
0011
0000
0000
0000
,  // measure 52
1000
0010
1000
0000
0001
1000
0100
0000
0010
0001
1000
0010
0100
0000
0000
0000
,  // measure 53
1002
0000
0000
0103
0000
0000
0010
0000
2000
0000
0000
0000
3100
0010
0001
0100
,  // measure 54
0010
1000
0000
0001
0000
0010
0001
0100
0020
0000
0000
1030
0000
0000
0001
0000
,  // measure 55
0020
0000
0000
0031
0000
0000
1000
0000
0020
0000
0000
0000
0130
0001
1000
0010
,  // measure 56
1000
0000
0000
0001
0000
0000
0100
0020
0000
0000
1030
0000
0001
0000
0100
0000
,  // measure 57
0120
0000
0000
1030
0000
0000
0001
0000
0200
0000
0000
0000
0310
1000
0100
0010
,  // measure 58
0001
1000
0000
0010
0000
0100
0010
1000
0002
0000
0000
0013
0000
0000
0001
0000
,  // measure 59
0110
0000
0010
0000
1010
0000
0000
1001
0000
0000
0010
0000
0001
0000
1000
0000
,  // measure 60
0010
0100
0010
0000
1000
0000
0001
0010
0000
0100
1000
0010
0100
0000
0010
0000
,  // measure 61
1000
0001
0010
0002
0000
0103
0010
1000
0010
0200
0000
0301
,  // measure 62
1000
0010
0001
0020
0000
0130
0001
0010
0100
2000
0000
0000
,  // measure 63
3001
0100
0010
0200
0000
0301
1000
0100
0010
0002
0000
0103
,  // measure 64
0010
0100
0001
0010
0001
1000
0010
0100
0001
0010
0000
0001
,  // measure 65
0100
0010
0100
0002
0000
1003
0100
0010
0100
2000
0000
3010
,  // measure 66
0000
0100
0001
0020
0000
0031
1000
0010
1000
0200
0000
0310
,  // measure 67
0001
0100
0001
1000
0100
1000
0010
0100
0001
0020
0000
0031
,  // measure 68
1000
0100
0100
0010
0001
1000
0010
0000
0000
0110
0000
0000
,  // measure 69
0100
0001
1000
0020
0000
0130
0001
0010
0100
2000
0000
3010
,  // measure 70
0100
0001
1000
0020
0000
0130
0001
0010
0001
0200
0000
0000
0020
0000
0000
0000
0000
0000
0000
0000
0000
0330
0000
0000
,  // measure 71
0100
0001
1000
0002
0000
0103
0010
1000
0100
0020
0000
0031
0000
0000
1000
0000
0010
0000
0200
0000
0000
0000
0310
0000
,  // measure 72
1000
0000
0000
0000
0001
0000
0000
0000
0010
0000
0000
0000
0002
0000
0000
0000
0000
0000
0000
0000
0000
0000
0000
0000
2000
0000
0000
3003
0000
0000
0000
0000
0000
0000
0000
0000
0000
0000
0000
0000
0000
0000
0000
0000
0000
0000
0000
0000
,  // measure 73
0010
1000
0100
0000
0010
0001
0100
0000
0001
1000
0010
1000
0100
0000
0000
0000
,  // measure 74
0120
0000
0000
0000
,  // measure 75
0032
0000
0000
0000
,  // measure 76
2003
0000
0000
0000
,  // measure 77
3200
0000
0302
0000
,  // measure 78
0203
0000
0000
0000
,  // measure 79
2300
0000
0000
0000
,  // measure 80
3002
0000
0000
0000
,  // measure 81
0103
0010
1000
0001
0010
0000
0000
0001
1000
0010
0100
0010
1000
0001
0010
0100
,  // measure 82
0020
0000
0031
1000
0200
0000
1300
0010
,  // measure 83
0200
0000
0320
0000
2030
0000
3001
0010
,  // measure 84
0100
0010
0001
1000
0010
0100
0000
0110
,  // measure 85
0000
0010
1000
0001
0020
0000
0031
1000
,  // measure 86
0010
1000
0010
1000
0001
0010
0001
0010
,  // measure 87
0100
1000
0010
0100
0001
1000
0010
0001
,  // measure 88
0010
0100
0001
1000
0010
0100
0010
1000
,  // measure 89
0001
1000
0100
1000
0010
0000
0100
0001
0000
1000
0001
0100
0001
0000
0010
0000
,  // measure 90
0000
0000
0000
0000
,  // measure 91
0001
1000
0010
0110
,  // measure 92
1001
0000
0001
0100
0010
0000
1000
0001
0010
0000
0001
0000
0000
0000
2001
0000
,  // measure 93
0000
0100
0001
0100
3001
0000
0100
0001
,  // measure 94
0021
0000
0000
0000
0130
0000
1000
0001
0200
0000
0000
0000
0301
0000
0010
0001
,  // measure 95
2000
0000
3002
0000
0203
0000
0310
1000
,  // measure 96
0001
0000
0100
0010
1000
0000
0001
0010
0100
0000
0010
0000
0000
0000
0011
0000
,  // measure 97
0000
0000
0001
0000
1000
0010
0100
0000
0001
1000
0001
0010
0100
0000
0010
0000
,  // measure 98
0012
0000
0000
0000
1003
0000
0010
0100
2000
0000
0000
0000
3100
0000
0010
1000
,  // measure 99
0200
0000
0320
0000
0032
0000
1003
0010
,  // measure 100
0100
0000
0001
0010
0100
0000
0100
0010
0001
0000
1000
0000
0000
0000
1020
0000
,  // measure 101
0000
0100
0001
0100
0031
0000
0100
0001
,  // measure 102
0010
0000
0001
1000
0100
0000
1000
0000
1020
0000
0000
0000
0130
0000
0001
0010
,  // measure 103
0200
0000
2300
0000
3002
0000
0103
0010
,  // measure 104
1000
0000
0001
0100
0010
0000
0100
0001
0010
0000
0001
0000
0000
0000
1001
0000
,  // measure 105
0000
0000
1000
0010
0100
0000
0001
0000
0100
0010
1000
0100
0010
0000
0001
0000
,  // measure 106
0101
0000
0000
0000
,  // measure 107
1000
0001
0100
0001
0010
0000
0100
1000
0010
0100
0001
0000
1000
0001
0010
0001
,  // measure 108
0200
0000
0000
0310
0000
0000
1000
0001
0020
0000
0000
0000
0031
1000
0010
0100
,  // measure 109
0010
1000
0000
0001
0000
1000
0100
0010
0002
0000
0000
0103
0000
0000
0010
0000
,  // measure 110
2000
0000
0000
3001
0000
0000
0010
0000
0002
0000
0000
0000
0103
0010
1000
0001
,  // measure 111
0010
0000
0001
0100
0000
0001
1000
0020
0000
0000
0130
0000
0001
0000
1000
0000
,  // measure 112
1020
0000
0000
0130
0000
0000
0001
1000
0200
0000
0000
0000
0310
0001
1000
0010
,  // measure 113
0100
0010
0000
1000
0000
0001
1000
0010
2000
0000
0000
3001
0000
0000
0010
0001
,  // measure 114
0100
0000
0010
0000
0110
0000
0100
0001
0000
0000
1000
0000
0001
0000
0010
0000
,  // measure 115
0001
1000
0100
1000
0010
0000
1000
0001
0000
0100
0010
0100
0001
0000
1000
0000
,  // measure 116
2002
0000
0000
0000
,  // measure 117
3003
0000
0000
0000
;
