#TITLE:Mahika;
#SUBTITLE:;
#ARTIST:The Musical Ghost;
#TITLETRANSLIT:;
#SUBTITLETRANSLIT:;
#ARTISTTRANSLIT:;
#GENRE:;
#CREDIT:;
#BANNER:Mahika-bn.png;
#BACKGROUND:Mahika.png;
#LYRICSPATH:;
#CDTITLE:;
#MUSIC:Mahika.mp3;
#OFFSET:-0.029000;
#SAMPLESTART:82.689003;
#SAMPLELENGTH:15.638000;
#SELECTABLE:YES;
#BPMS:0.000000=188.000000
;
#STOPS:
;
#BGCHANGES:0.000=Mahika.mp4=1.000=0=0=1=====,
99999=-nosongbg-=1.000=0=0=0 // don't automatically add -songbackground-
;
#KEYSOUNDS:;
#ATTACKS:;

//---------------dance-single - demicore----------------
#NOTES:
     dance-single:
     demicore:
     Hard:
     14:
     0.756633,0.867789,0.519677,0.840025,0.298992,744.000000,671.000000,73.000000,118.000000,0.000000,0.000000,0.756633,0.867789,0.519677,0.840025,0.298992,744.000000,671.000000,73.000000,118.000000,0.000000,0.000000:
0000
0000
0000
0000
,
0000
0000
0000
0000
,
0000
0000
0000
0000
,
0000
0000
0000
0000
,
0000
0000
0000
0000
,
0000
0000
0000
0000
,
0000
0000
0000
0000
,
0000
0000
0000
0000
,
0000
0000
0000
0000
,
0001
0000
0101
0000
0000
1000
1010
0000
,
0000
0010
0110
0000
0100
0001
0011
0000
,
0001
0000
1001
0000
0000
1000
1010
0000
,
0000
0010
0110
0000
0100
0001
0011
0000
,
0001
1000
0100
1000
0010
0100
0001
0010
,
0100
1000
0010
0100
0001
1000
0100
1000
,
0010
0100
0010
0000
1000
0001
0010
0000
0001
0100
0010
0000
1000
0000
0002
0000
,
0000
0000
0000
0000
0000
0000
0000
0000
0003
0000
0000
0000
0100
0010
0100
0010
,
1000
0000
0011
0000
0001
1000
1010
0000
,
0010
0000
0110
0000
0100
0001
0011
0000
,
0010
0000
0110
0000
0100
1000
1001
0000
,
0010
0001
0101
0000
0010
1000
1100
0000
,
1002
0000
0013
0000
0001
0100
0110
0000
,
1200
0000
0310
0000
0001
0100
0110
0000
,
0102
0000
0013
0000
0100
1000
1010
0000
,
0100
0000
0001
0000
0010
0000
0001
1000
0000
0000
0100
1000
0010
0000
0100
0000
,
0002
0000
0103
0010
0000
1000
0001
0020
,
0000
0000
0031
0000
1000
0000
0100
1000
0010
0000
0100
0000
0000
0000
0101
0000
,
0000
0001
1000
0010
0100
0020
0000
0001
,
0000
0000
1000
0000
0030
0000
0100
0001
0010
0000
0100
0000
1000
0000
0010
0000
,
0200
0000
0000
0000
0301
0000
2000
0000
3000
0000
0010
0100
0001
0000
0010
0000
,
0002
0000
0000
0000
1000
0000
0000
0000
0103
0000
0001
1000
0010
0000
0200
0000
,
0000
0000
0310
0000
1000
0001
0011
0000
,
0001
0000
1000
0000
1100
0000
0100
0010
0000
0001
0010
0000
0001
0000
1000
0000
,
1010
0000
1000
0001
0000
0010
0001
0000
,
0110
0000
0010
1000
0000
0100
1000
0000
,
1010
0000
0100
0001
0000
0010
0001
0000
,
1000
0010
0100
0010
0000
1000
0100
0000
,
0110
0000
0010
0001
0000
1000
0001
0000
,
0101
0000
0100
0010
0000
1000
0010
0000
,
0200
0301
0020
1030
,
2000
3010
0002
0103
,
0100
0001
0010
0001
1000
0010
0100
0010
,
1000
0100
0010
0001
0100
0001
0010
0001
,
1000
0100
1000
0010
0100
0010
1000
0001
,
0010
0001
0100
0010
2000
3100
0020
0031
,
0100
0010
0100
0010
1000
0100
1000
0100
,
0010
0001
0100
0001
1000
0010
0100
0010
,
1000
0010
1000
0000
0001
0000
0100
0000
0010
1000
0010
0000
0100
0000
0001
0000
,
0010
0001
0010
0000
0001
1000
0001
0000
0200
0000
0000
0000
0300
0000
0000
0000
,
0110
0000
0010
1010
0000
1000
1001
0001
,
0100
0000
0010
1000
0010
0000
0100
0000
0001
0000
0010
0000
0001
0000
1000
0000
,
1100
0000
0010
0110
0000
0100
0101
0001
,
0020
0000
0030
0000
0001
0100
0001
0000
1000
0010
0100
0010
1000
0000
0001
0000
,
0100
0000
0010
1010
0000
0100
0101
0001
,
1000
0000
0010
0100
0010
1000
0010
0000
0100
0000
0001
0000
0100
0000
0010
0000
,
1000
0000
0001
0101
0000
0100
0110
0010
,
1000
0000
0000
0000
0000
0000
0000
0000
0000
0000
0000
0000
0001
0000
0000
1000
0000
0000
0010
0000
0000
0000
0000
0000
0100
0000
0000
0000
0001
0000
0000
0000
0100
0000
0000
0000
0010
0000
0000
0000
1000
0000
0000
0000
0010
0000
0000
0000
,
0100
0000
0001
0011
0000
0100
0110
0010
,
1000
0000
0001
0100
0001
0000
1000
0000
0010
0000
0100
0000
1000
0000
0100
0000
,
0010
0000
0000
0000
0101
0000
0000
1001
0000
0000
1010
0000
1000
0000
0001
0000
,
0020
0000
0030
0000
0001
0100
0001
0000
1000
0010
0100
0010
1000
0000
0001
0000
,
0200
0000
0000
0000
0300
0000
0002
0000
0003
0000
1000
0010
0200
0000
0302
0000
,
0000
0003
2000
0000
3020
0230
0302
0023
,
0000
0000
0000
0000
0000
0000
0000
0200
,
0000
0000
0330
1001
,
0110
0100
0001
1000
0010
0100
0000
0101
,
0000
0011
0010
0100
1000
0010
0000
1020
,
0000
0000
0030
0000
1001
0000
1000
0010
0100
0000
0001
0000
0000
0000
0102
0000
,
0000
0000
0003
0000
1000
0000
0010
0000
0100
0001
0100
0010
1000
0000
0001
0000
,
0020
0000
0000
0000
0031
0000
0200
0000
0300
0000
0010
1000
0010
0000
0200
0000
,
0000
0000
0301
0000
0010
0000
0001
0000
1000
0010
1000
0000
0001
0000
0200
0000
,
0000
0310
1000
0010
0100
0001
1000
1010
,
0000
1001
0000
0110
0000
0101
0001
1000
,
1010
0000
0010
0000
0100
0000
0001
1000
0001
0000
0100
0000
0000
0000
0020
0000
,
0030
1000
0001
0010
0001
0100
0000
1002
,
0000
0000
0103
0000
0010
0000
1000
0100
1000
0000
0001
0000
0000
0000
0200
0000
,
0000
0000
0300
0000
0010
0000
1000
0000
0001
1000
0010
0000
0100
0000
0001
0000
,
1000
0000
0100
0000
0010
0001
1000
0000
0010
0000
0100
0000
0001
0000
0200
0000
,
0000
0000
0300
0000
0010
0000
1000
0100
1000
0000
0001
0100
0010
0000
1000
0001
,
0200
0000
0010
0000
0300
0001
1000
0100
,
1000
0010
0100
0000
0001
1000
0100
1000
0020
0000
0000
0000
0130
0000
0000
0000
,
2000
3002
0023
0032
0203
0320
2030
3200
,
0320
0000
0032
0000
2003
0000
3200
0000
2300
0000
3020
0000
0230
0000
0301
1000
,
0020
0230
2300
3200
0302
2003
3200
0320
,
0230
0000
2300
0000
3002
0000
0203
0000
0310
1000
0010
0100
0002
0000
0023
0000
,
0032
2003
3200
0320
0032
2003
3020
0230
,
0301
0010
0001
1000
0200
0000
0320
0000
0032
0000
2003
0000
3020
0000
0230
0000
,
0301
0000
0000
0000
1000
0000
1010
0000
0000
0000
0001
0000
0101
0000
0100
0010
,
1000
0000
0001
1000
0010
0000
0100
0000
0001
1000
0100
1000
0010
0000
0100
0001
,
0010
0000
0102
2003
3020
2030
3200
0320
,
0032
0000
0203
0000
0320
0000
2030
0000
3002
0000
0203
0000
0320
0000
1030
0001
,
0020
0032
2003
3200
2300
3020
0230
0302
,
2003
0000
3200
0000
0320
0000
0032
0000
1003
0010
0100
0010
1000
0000
0001
0000
,
0100
0000
0000
0000
0101
0000
0000
0001
1000
0000
0010
0000
1010
0000
0000
0000
,
0100
0000
0000
0000
0110
0000
0000
0010
1000
0000
0001
0000
1001
0000
0000
0000
,
1000
0001
0010
0001
0100
0000
0010
0000
1000
0001
1000
0010
0100
0000
0001
0000
,
1000
0010
1000
0000
0001
0100
0010
0000
0200
0000
0000
0000
0020
0000
0330
0000
,
1001
0000
0000
0000
1000
0000
0000
0000
1010
0000
0010
0100
0001
0010
0001
0000
,
2000
0000
3020
0000
0230
0000
0301
0000
1001
0000
0000
0000
1000
0010
0100
0010
,
1000
0000
0000
0000
0001
0100
0010
0000
0100
0000
0000
0000
0001
1000
0001
0000
,
0100
0000
0010
0100
0010
0000
0010
0000
1010
0000
0000
1001
0000
0000
0110
0000
,
0000
0000
0000
0000
0011
0000
0000
0000
1000
0000
0010
0100
0010
1000
0001
0000
,
0020
0031
0001
1000
0010
0100
0010
0000
,
1000
0010
1000
0010
0100
0000
0001
1000
0001
1000
0010
0000
0100
0000
0001
0000
,
1000
2002
0000
0000
,
0000
0000
0000
0000
,
3003
0000
0000
0000
;

//---------------dance-single - demicore----------------
#NOTES:
     dance-single:
     demicore:
     Challenge:
     16:
     0.913248,1.094168,0.548152,0.327467,0.630019,898.000000,821.000000,77.000000,46.000000,0.000000,0.000000,0.913248,1.094168,0.548152,0.327467,0.630019,898.000000,821.000000,77.000000,46.000000,0.000000,0.000000:
// measure 0
0000
0000
0000
0000
,  // measure 1
0000
0000
0000
0000
,  // measure 2
0000
0000
0000
0000
,  // measure 3
0000
0000
0000
0000
,  // measure 4
0000
0000
0000
0000
,  // measure 5
0000
0000
0000
0000
,  // measure 6
0000
0000
0000
0000
,  // measure 7
0000
0000
0000
0000
,  // measure 8
0000
0000
0000
0000
,  // measure 9
0000
0001
0100
0010
1000
0100
0010
0001
,  // measure 10
0000
0100
0010
1000
0100
1000
0001
0010
,  // measure 11
0000
0001
0100
0010
0100
1000
0100
0010
,  // measure 12
0000
0000
1000
0000
0100
0000
0001
0000
0100
0000
1000
0000
0010
0000
0100
0001
,  // measure 13
0010
0100
1000
0001
0010
0001
0100
0010
,  // measure 14
1000
0001
0010
0001
0100
0010
1000
0010
,  // measure 15
1000
0100
1000
0100
0010
0001
0010
0001
1000
0010
0100
0001
0010
0100
2000
0000
,  // measure 16
0000
0000
0000
0000
0000
0000
0000
0000
3000
0000
0000
0000
0001
0100
0010
0100
,  // measure 17
0001
0000
0000
0000
1001
0000
1000
0010
0100
0000
0010
0000
1010
0000
0000
0000
,  // measure 18
1000
0000
0000
0000
1001
0000
0001
0100
0010
0000
0100
0000
0101
0000
0000
0000
,  // measure 19
0010
0000
0000
0000
0110
0000
0100
0001
1000
0000
0010
0000
1010
0000
0000
0000
,  // measure 20
0100
0000
0001
0000
0011
0000
0010
0100
1000
0000
0010
0000
0110
0000
0100
0001
,  // measure 21
0010
0000
0000
0000
0011
0000
0001
1000
0010
0000
0100
0000
0110
0000
0000
0000
,  // measure 22
0010
0000
0000
0000
1010
0000
1000
0001
0010
0000
0001
0000
0101
0000
0000
0000
,  // measure 23
0001
0000
0000
0000
1001
0000
1000
0010
0100
0000
0010
0000
0110
0000
0000
0000
,  // measure 24
0100
0000
0001
0000
0011
0000
0010
0000
0001
1000
0100
1000
0010
0100
0001
0100
,  // measure 25
0020
0000
0000
0000
1030
0000
0001
0000
0010
0000
0001
0100
0010
0000
0200
0000
,  // measure 26
0000
0000
0301
0000
0010
0000
0001
1000
0010
0000
0100
0000
0000
0000
0010
0100
,  // measure 27
0000
0000
0010
0000
1000
0000
0100
0010
0001
0000
0100
0000
0000
0000
0110
0000
,  // measure 28
0000
0000
1010
0000
0000
0000
1000
0001
0010
0000
0001
0000
0100
0000
0010
0000
,  // measure 29
2000
0000
0000
0000
3001
0000
0020
0000
0000
0000
0031
0100
0010
0000
0200
0000
,  // measure 30
0010
0000
0000
0000
1000
0000
0000
0000
0301
0000
0010
0001
1000
0000
0020
0000
,  // measure 31
0030
0000
0100
0000
1010
0000
0000
1000
0001
0000
0010
0000
0011
0000
0000
0000
,  // measure 32
0001
0000
0100
0000
0110
0000
0010
1000
0100
1000
0001
0100
0001
0010
0100
1000
,  // measure 33
0020
0000
0130
0100
0001
1000
0010
0100
,  // measure 34
0002
0000
0013
0010
0100
1000
0001
0100
,  // measure 35
2000
0000
3100
0100
0010
1000
0001
0010
,  // measure 36
2000
0000
3010
0010
0001
1000
0010
1000
,  // measure 37
0200
0000
0301
0001
0100
1000
0010
0100
,  // measure 38
0002
0000
1003
1000
0010
0100
0001
0010
,  // measure 39
0002
0100
2003
0010
,  // measure 40
3200
0010
2300
3001
,  // measure 41
0011
0000
0001
0000
1000
0000
0010
0000
0100
0000
0001
0010
0100
0000
1000
0000
,  // measure 42
0010
0000
0100
0000
0001
0000
1000
0000
0010
0000
0100
0010
1000
0000
0001
0000
,  // measure 43
0010
0000
0100
0000
1000
0000
0001
0000
0100
0000
0010
1000
0001
0000
0010
0000
,  // measure 44
0001
0000
0100
0000
0010
0000
1000
0000
0010
0000
0100
0001
0010
0000
0001
0000
,  // measure 45
1000
1000
0010
0010
0100
0100
0001
0001
,  // measure 46
0010
0010
0100
0100
1000
1000
0010
0010
,  // measure 47
0100
0001
0100
0001
0010
0100
1000
0010
0100
0001
0010
0001
0010
0100
1000
0010
,  // measure 48
0100
0010
0100
0001
1000
0100
1000
0010
0200
0000
0000
0000
0300
0000
0000
0000
,  // measure 49
1001
0000
1000
1010
0010
0110
0100
0001
,  // measure 50
1000
0000
0001
0100
0010
0100
0001
0000
1000
0100
0010
0100
1000
0000
0010
0000
,  // measure 51
0110
0000
0000
0000
0101
0000
0001
0000
1000
0000
1010
0000
0010
0100
0010
1000
,  // measure 52
0200
0000
0000
0000
0310
0001
0100
0001
0010
0000
0001
1000
0100
0000
1000
0000
,  // measure 53
1010
0000
0010
0110
0100
0101
0001
1000
,  // measure 54
0010
0000
0100
0001
0010
0001
1000
0000
0010
1000
0100
1000
0001
0000
0100
0000
,  // measure 55
0110
0000
0011
0001
1000
1010
0010
0100
,  // measure 56
0001
0000
0000
0000
0000
0000
1000
0000
0000
0010
0000
0000
0100
0000
0000
0010
0000
0000
1000
0000
0000
0000
0000
0000
0001
0000
0000
0000
1000
0000
0000
0000
0100
0000
0000
0000
0010
0000
0000
0000
0100
0000
0000
0000
1000
0000
0000
0000
,  // measure 57
1100
0000
0001
0101
0100
0110
0010
1000
,  // measure 58
0001
0000
0100
0010
1000
0001
0010
0000
0100
1000
0010
0100
0001
0000
0100
0000
,  // measure 59
0110
0000
0000
0000
0101
0000
0001
1000
0000
0100
1000
0000
0010
0100
0001
0000
,  // measure 60
1000
0000
0010
0000
0100
0001
0010
0000
0001
1000
0100
1000
0010
0000
0100
0001
,  // measure 61
2000
0000
0000
0000
0000
0000
3010
0000
0000
0000
0100
0001
0010
0000
0200
0000
,  // measure 62
0000
0000
1300
0000
0001
0000
0000
0000
0100
0000
0010
1000
0100
0000
0020
0000
,  // measure 63
0000
0031
0100
0010
1000
0001
0010
0022
,  // measure 64
0000
0000
0033
1001
,  // measure 65
1010
0000
0010
0000
0100
0000
0001
0010
0100
0000
1000
0000
0010
0000
0200
0000
,  // measure 66
0000
0000
0301
0000
0010
0000
0001
0100
0010
0000
1000
0000
0000
0000
1020
0000
,  // measure 67
0000
0000
0130
0000
0001
0000
0010
0100
1000
0000
0010
0000
0000
0000
0210
0000
,  // measure 68
0000
0000
0300
0000
0101
0000
0001
1000
0100
1000
0010
0100
0010
1000
0100
0010
,  // measure 69
0002
0000
0000
0000
0103
0000
0020
0000
0030
0000
1000
0001
0010
0000
0200
0000
,  // measure 70
0000
0000
1300
0000
0010
0000
0100
0001
0010
0001
1000
0100
0010
0000
0002
0000
,  // measure 71
0000
0000
1003
0000
0010
0000
0100
0001
0010
0000
0100
1000
0010
0000
1010
0000
,  // measure 72
0000
0000
0101
0000
0001
0000
0001
0010
0000
0000
0001
0000
1000
0010
0100
0010
,  // measure 73
1000
0000
0001
0000
0101
0000
0100
0010
1000
0000
0010
0000
0000
0000
0201
0000
,  // measure 74
0300
0000
0010
0000
1000
0000
0100
1000
0001
0000
0010
0000
0000
0000
0012
0000
,  // measure 75
0000
0000
0103
0000
0010
0000
1000
0001
0010
0000
0001
0000
0000
0000
0120
0000
,  // measure 76
0000
0000
1030
0000
0001
0000
0100
0000
0010
0000
0100
0001
0010
0001
1000
0010
,  // measure 77
0100
0000
0010
0000
1000
0000
0001
1000
0100
0000
1000
0000
0010
0000
0200
0000
,  // measure 78
0000
0000
0301
0000
0010
0000
0001
1000
0100
1000
0010
0100
0001
0100
0010
1000
,  // measure 79
0002
0000
0000
0000
0103
0000
0000
0000
0010
0000
1000
0001
0010
0001
0100
0010
,  // measure 80
0100
0001
1000
0010
0100
0001
0100
0010
2000
0000
0000
0000
3001
0000
0100
0001
,  // measure 81
0010
0001
1001
1000
0010
0100
0110
0010
,  // measure 82
1000
0000
0001
0000
0011
0000
0010
0000
0100
0000
1000
0000
1100
0000
0100
1000
,  // measure 83
0010
0100
0101
0001
0010
0001
1001
1000
,  // measure 84
0100
0000
0010
0000
0110
0000
0100
0000
1000
0001
0010
0001
0100
0000
0010
1000
,  // measure 85
0100
1000
1010
0010
0100
0001
1001
1000
,  // measure 86
0010
0100
0001
0100
0010
0000
1000
0000
0100
0000
0010
0000
0011
0000
0001
0000
,  // measure 87
0100
0001
0010
0001
1000
0000
0010
1000
0100
1000
0001
0000
0100
0010
1000
0010
,  // measure 88
0100
0001
0010
0001
1000
0010
0100
0000
0001
0010
0000
0100
1000
0000
0010
0100
,  // measure 89
0001
0000
1001
1000
0010
0100
0101
0001
,  // measure 90
0010
0000
0100
0000
1100
0000
1000
0000
0010
0000
0100
0000
0110
0000
0010
1000
,  // measure 91
0100
0010
0011
0001
0100
0010
1010
1000
,  // measure 92
0100
0000
0010
0000
0110
0000
0100
0000
1000
0010
0100
0010
1000
0000
0001
0100
,  // measure 93
0010
0000
0000
0000
1010
0000
1000
0001
0000
0000
0010
0000
0011
0000
0000
0000
,  // measure 94
0001
0000
0000
0000
0110
0000
0010
1000
0000
0000
1000
0000
1001
0000
0000
0000
,  // measure 95
0001
0100
0010
0100
0001
0100
0010
0100
0001
1000
0100
1000
0001
1000
0100
1000
,  // measure 96
0010
0100
0001
0010
0100
1000
0010
1000
0002
0000
0000
0000
0003
0000
0000
0000
,  // measure 97
2010
0000
0000
0000
3001
0000
0000
0000
0101
0000
0100
0010
1000
0010
0100
0000
,  // measure 98
0002
0000
0103
0000
0100
0000
0010
1000
0200
0000
0300
0000
0010
0001
1000
0010
,  // measure 99
0200
0000
0300
0000
0001
1000
0010
0000
0110
0000
0100
0000
0001
0010
0001
1000
,  // measure 100
0010
0000
0100
0010
0100
0000
0100
0001
0010
0000
0001
1000
0000
0100
2000
0000
,  // measure 101
0000
0000
3000
0000
1010
0000
0000
0000
0101
0000
0001
1000
0100
1000
0010
0000
,  // measure 102
0200
0000
0301
0000
0001
0000
1000
0010
0100
0000
0100
0000
0001
0000
0000
0000
,  // measure 103
1000
0010
0100
0010
1000
0000
0001
1000
0100
0010
0001
0000
0100
0010
0001
0010
,  // measure 104
0100
2002
0000
0000
,  // measure 105
0000
0000
0000
0000
,  // measure 106
3003
0000
0000
0000
;
