#TITLE:MORNINGLOOM;
#SUBTITLE:;
#ARTIST:saaa;
#TITLETRANSLIT:;
#SUBTITLETRANSLIT:;
#ARTISTTRANSLIT:;
#GENRE:;
#CREDIT:;
#MUSIC:morningloom.mp3;
#BANNER:morningloom.png;
#BACKGROUND:;
#CDTITLE:;
#SAMPLESTART:74.143;
#SAMPLELENGTH:14.118;
#SELECTABLE:YES;
#OFFSET:-0.026;
#BPMS:0.000=102.000
,22.000=408.000
,51.000=102.000
,66.000=204.000
,67.000=102.000
,83.000=204.000
,115.000=102.000
,140.000=204.000
,142.000=102.000
,146.000=204.000
,147.000=102.000
,185.000=204.000
,189.000=102.000
,195.000=204.000
,199.000=102.000
,213.000=204.000
,217.000=408.000
,218.000=204.000
,221.000=408.000
,222.000=204.000
,231.000=102.000
,234.000=204.000
,236.000=102.000
,238.000=204.000
,239.000=51.000
,240.000=204.000
,252.000=102.000
,253.000=204.000
,258.500=408.000
,259.000=102.000
,260.000=204.000
,268.000=102.000
,276.000=204.000
,278.000=102.000
,279.000=204.000
,281.000=102.000
,283.000=408.000
,295.000=204.000
,303.000=51.000
;
#STOPS:50.000=0.441
,66.000=0.147
,66.500=0.147
,140.000=0.110
,140.375=0.110
,140.750=0.074
,141.000=0.110
,141.375=0.110
,141.750=0.074
,146.000=0.294
,213.000=0.098
,213.333=0.098
,213.667=0.098
,214.000=0.294
,217.000=0.049
,217.333=0.049
,217.667=0.049
,221.000=0.049
,221.333=0.049
,221.667=0.049
,238.000=0.098
,238.333=0.098
,238.667=0.098
,240.000=0.110
,240.375=0.110
,240.750=0.074
,251.000=0.110
,251.375=0.110
,251.750=0.074
,258.500=0.074
,276.000=0.110
,276.375=0.110
,276.750=0.074
,277.000=0.110
,277.375=0.110
,277.750=0.074
,279.000=0.110
,279.375=0.110
,279.750=0.074
,280.000=0.110
,280.375=0.110
,280.750=0.074
;
#DISPLAYBPM:102.000:204.000;
#BGCHANGES:;
#FGCHANGES:;

//--------------- dance-single - demicore - "AM 8-46" ----------------
#NOTES:
     dance-single:
     demicore - "AM 8-46":
     Challenge:
     18:
     0,0,0,0,0:
0000
0000
0000
0000
,
0000
0000
0000
0000
,
0000
0000
0000
0000
,
0000
0000
0000
0000
,
0000
0000
0000
0000
,
0000
0000
0220
0000
,
0000
0000
0000
0000
,
0000
0000
0000
0000
,
0000
0000
0330
0000
,
0000
0000
2002
0000
,
0000
0000
0000
0000
,
0000
0000
0000
0000
,
0000
0000
0000
0000
0000
0000
0000
0000
0000
0000
0000
0000
3003
0000
0000
0000
0000
0000
1001
0000
0000
1000
0100
0010
,
0001
0000
0000
0000
0000
0000
0100
0000
0000
0001
0000
0000
1001
0000
0000
0000
0000
0000
0010
0000
0000
0000
1010
0000
0000
0000
0000
0000
1000
0000
0001
0000
0000
0000
0000
0000
0010
0000
0001
0000
0100
0000
0001
0000
0000
0000
1000
0000
,
0010
0100
0010
1000
0000
0001
0100
0010
1000
0100
0010
1000
0010
0000
0000
0011
0000
0000
2000
0000
0000
3001
0100
0010
,
1000
0000
0000
1001
0000
0000
0011
0000
0001
1000
0000
1010
0000
0000
0100
0001
0000
0000
1000
0001
1000
0010
0000
0010
,
0100
0001
0010
0100
0000
0010
0001
1000
0001
1000
0010
0100
0002
0003
0000
0200
0300
0000
1001
0000
0010
0001
0100
0000
,
0011
0000
0001
1000
0000
1000
0010
0000
0100
0001
0000
1001
0000
0000
0010
1000
0000
0000
0010
0001
1000
0001
0000
0100
,
0010
1000
0010
0100
0000
0001
1000
0000
0010
1000
0010
0001
0010
1000
0001
0100
0000
0000
0002
0000
0000
1003
0000
0000
,
1010
0000
1000
0001
0000
0000
0101
0000
0010
0100
0000
1001
0000
0000
1000
0001
0000
0000
1000
0001
1000
0010
0000
0000
,
0110
0000
0100
0001
0000
1000
0002
0000
0103
0010
1000
0001
0010
0000
0000
0011
0000
0000
1001
0000
0000
1000
0000
0000
,
0010
0001
0010
0100
0001
0000
0011
0001
,
1000
0000
0000
0001
0000
0000
0010
0000
0000
0100
0000
0000
1000
0000
0000
0000
0001
0000
1000
0000
0000
0000
1000
0000
,
0010
0000
0000
0000
0010
0000
0100
0000
0000
0001
0000
0000
1000
0000
0000
0000
0000
0000
1001
0000
0000
0001
0000
0000
,
1000
0000
0000
0010
0000
0000
0100
0000
0001
0000
1000
0000
0001
0000
0000
0000
0100
0000
0001
0000
0000
0001
0000
0000
,
0100
0100
0001
0001
1000
1000
0010
0100
,
0001
0000
1000
0000
2020
0000
0000
0000
3030
0000
0000
0000
1000
0001
0100
0001
,
1000
0000
0010
0000
0100
0000
0001
0000
0100
0000
0010
0000
1000
0000
0000
0010
0000
0000
1010
0000
0000
0000
1001
0000
,
0000
0000
0000
0000
0011
0000
0000
0000
0000
0000
0000
0000
0110
0000
0000
0000
0000
0000
0000
0000
0000
0000
0000
0000
1001
0000
0000
0000
0000
0000
0000
0000
0000
0000
0000
0000
0102
0000
0000
0000
0000
0000
0000
0000
0000
1003
0000
0000
,
0010
0000
0000
0000
0000
0000
0100
0000
0000
0000
0000
0000
0001
0000
0000
0000
0000
0000
0001
0000
0000
0000
0000
0000
0010
0000
0000
0000
0000
0000
0100
0000
0000
0001
0000
0000
1000
0000
0000
0000
0000
0000
0100
0000
0000
0000
0000
0000
2000
0000
0000
0000
0000
0000
3020
0000
0000
0000
0000
0000
0230
0000
0000
0000
0000
0000
0302
0000
0000
0000
0000
0000
0023
0000
0000
0000
0000
0000
0000
0000
0000
0000
0000
0000
0031
0000
0000
0000
0000
0000
0000
0000
0100
0000
0000
0000
,
0001
0000
1000
0000
0100
0000
0010
0000
0100
0000
1000
0001
0010
0000
0001
0000
0200
0000
0320
0000
0230
0000
0302
0000
2003
0000
0000
0000
3010
0000
0000
0000
,
0100
0000
0000
0000
0000
0000
0001
0000
0000
1000
0000
0000
0010
0000
0000
0000
0000
0000
0100
0000
0000
0000
0000
0000
0001
0000
0000
0000
0000
0000
0010
0000
0000
0001
0000
0000
1000
0000
0000
0000
0000
0000
0100
0000
0000
0000
0000
0000
0010
0000
0000
0000
0000
0000
0001
0000
0000
0000
0000
0000
0100
0000
0000
0000
0000
0000
0010
0000
0000
0000
0000
0000
0220
0000
0000
0000
0000
0000
0000
0000
0000
0000
0000
0000
0330
0000
0000
0000
0000
0000
0000
0000
1000
0000
0000
0000
,
0001
0000
0000
0000
0000
0000
0010
0000
0000
0000
0000
0000
0001
0000
0000
0000
0000
0000
1000
0000
0000
0000
0000
0000
0100
0000
0000
0000
0000
0000
0010
0000
0000
0001
0000
0000
1000
0000
0000
0000
0000
0000
0010
0000
0000
0000
0000
0000
0200
0000
0000
0000
0000
0000
0000
0000
0000
0000
0000
0000
0301
0000
0000
0000
0000
0000
0000
0000
0000
0000
0000
0000
1000
0000
0000
0000
0010
0000
0000
0000
0100
0000
0000
0000
0001
0000
0000
0000
1000
0000
0000
0000
0001
0000
0000
0000
,
0010
0000
0000
0001
0000
0000
0000
0000
0000
0000
0000
0000
1001
0000
0000
0000
0000
0000
0000
0000
0000
0000
0000
0000
1000
0000
0000
0010
0000
0000
0000
0000
0000
0000
0000
0000
0110
0000
0000
0000
0000
0000
0000
0000
0000
0000
0000
0000
0001
0000
0000
0000
0000
0000
1000
0000
0000
0010
0000
0000
0100
0000
0000
0000
0000
0000
0001
0000
0000
0000
0000
0000
0200
0000
0000
0000
0000
0000
0000
0000
0000
0000
0000
0000
0310
0000
0000
0000
0000
0000
0000
0000
1000
0000
0000
0000
,
0010
0000
0000
0000
0000
0000
0000
0000
0000
0000
0000
0000
0010
0000
0000
0100
0000
0000
0000
0000
0000
0000
0000
0000
0101
0000
0000
0000
0000
0000
0000
0000
0000
0000
0000
0000
0001
0000
0000
1000
0000
0000
0000
0000
0000
0000
0000
0000
1010
0000
0000
0000
0000
0000
0100
0000
0000
0001
0000
0000
0010
0000
0000
0000
0000
0000
0001
0000
0000
0000
0000
0000
2000
0000
0000
0000
0000
0000
0000
0000
0000
0000
0000
0000
3010
0000
0000
0000
0100
0000
0000
0000
0001
0000
0000
0000
,
1010
0000
0000
0110
0000
0000
0010
0000
0110
0000
0000
1001
0000
0000
0100
0000
0102
0000
0000
0000
0003
0000
0000
0000
1000
0000
0001
0100
0000
0001
1000
0000
,
0010
0000
0100
0010
0000
1000
0010
0000
0102
0000
0000
0000
0000
0000
0000
0000
1003
0000
0000
0000
0000
0000
0000
0000
0210
0000
0000
0000
0000
0000
0001
0000
,
0000
0000
0301
0000
1000
0010
0100
0000
0001
0000
1000
0000
0120
0000
0000
0001
,
0000
0000
2000
0000
0000
0000
0000
0000
3030
0000
0000
0000
0201
0000
0000
1000
,
0000
0000
0310
0000
1000
0001
0010
0000
0001
0000
1000
0000
1020
0000
0000
0001
,
0000
0000
0000
0000
0200
0000
0000
0000
0000
0000
0000
0000
0330
0000
0000
0000
0100
0001
1000
0000
0010
0000
0100
0000
0110
0000
0000
0000
1000
0000
0001
0000
,
0101
0100
0010
0000
1000
0100
0001
0000
0011
0000
0001
0100
0010
0000
0010
1000
,
0000
0000
1000
0000
0002
0000
0000
0000
0103
0000
0010
1000
0001
0000
0010
0000
0001
0000
0100
0010
1000
0000
0010
0000
0100
0000
0000
0000
0001
0000
1000
0000
,
1010
0010
0100
0000
0001
0100
1000
0000
1010
0000
1000
0001
0010
0000
0001
1000
,
0000
0000
0000
0010
0000
0000
0100
0000
0000
0000
0000
0000
0001
0000
0000
1000
0000
0000
1000
0000
0000
0010
0000
0000
0100
0000
0010
0000
1000
0000
0001
0000
0000
0000
0001
0000
0100
0000
0000
0000
0000
0000
0010
0000
0000
1000
0000
0000
,
1001
0000
0000
0001
0000
0000
0100
0000
0000
0000
0000
0000
0001
0000
0000
1000
0000
0000
0010
0000
0000
0000
0000
0000
0110
0000
0000
0000
0000
0000
0100
0000
0000
0001
0000
0000
0010
0000
0000
0000
0001
0000
1000
0000
0000
0000
0000
0000
,
1010
0000
0000
0000
0100
0000
0001
1000
0010
0000
0000
0000
0000
0000
0000
0000
0110
0000
0000
0000
0100
0000
0001
0000
0010
0000
0000
0000
0011
0000
0000
0000
,
1001
0000
0000
0000
1010
0000
1000
0001
0011
0010
0001
0000
0100
0010
1000
0000
,
1010
0000
0000
0001
0000
0001
1000
0000
0010
0100
0000
0001
1000
0000
0000
0010
0000
0000
0110
0000
0000
0000
0000
0000
,
1000
0100
0010
0001
0100
0000
0010
0000
1010
0000
0000
0000
1000
0010
0001
0010
,
0100
0000
0000
0001
0000
0000
1000
0000
0000
0000
0000
0000
0010
0000
0000
0100
0000
0000
0001
0000
0000
1000
0000
0000
0100
0000
0000
0010
0000
0000
0001
0000
0000
0000
1000
0000
0001
0000
0000
0100
0000
0000
0010
0000
0000
1000
0000
0000
,
0001
0000
0000
0010
0000
0000
0001
0000
0000
0000
0000
0000
0110
0000
0000
0000
0000
0000
0100
0000
0000
0001
0000
0000
1000
0000
0010
0000
1000
0000
0100
0000
0000
0000
0010
0000
0001
0000
0000
0100
0000
0000
0001
0000
0000
1000
0000
0000
,
0010
0000
0000
0000
0000
0000
0010
0000
0000
0000
0000
0000
0100
0000
0000
0000
0000
0000
0100
0000
0000
0000
0000
0000
0001
0000
0000
0000
0000
0000
1000
0000
0000
0000
0000
0000
0010
0000
0000
0000
0000
0000
0100
0000
0000
0000
0000
0000
0120
0000
0000
0000
0000
0000
0000
0000
0000
0000
0000
0000
0030
0000
0000
0000
0000
0000
0000
0000
0000
0000
0000
0000
1000
0000
0000
0001
0000
0000
0010
0000
0000
0001
0000
0000
0100
0000
0000
0000
0001
0000
0000
0000
1000
0000
0000
0000
,
0001
0000
0100
0000
0010
0000
1000
0000
0000
0010
0000
0000
0101
0000
0000
0000
1010
0000
0000
0000
1001
0000
0000
0000
0110
0000
0000
0000
0000
0000
0000
0000
0000
0000
0000
0000
2001
0000
0000
0000
3000
0000
0000
0000
0000
0000
0000
0000
,
1020
0030
0000
0100
0010
1000
0001
0000
0000
0012
0003
0000
,
2100
3000
0000
0010
0100
0001
0010
0000
0000
1010
0000
1001
,
0000
0000
0000
0000
0110
0000
0000
0000
0000
0000
0000
0000
0011
0000
0000
0000
0000
0000
0000
0000
0101
0000
0000
0000
0000
0000
0000
0000
1010
0000
0000
0000
0000
0000
0000
0000
1001
0000
0000
0000
0000
0000
0100
0000
0000
0001
0000
0000
,
1000
0000
0000
0000
0000
0000
0000
0000
0000
0000
0000
0000
1020
0000
0000
0000
0000
0000
0000
0000
0000
0000
0000
0000
0030
0000
0000
0000
0000
0000
0100
0000
0000
0001
0000
0000
1000
0000
0000
0000
1000
0000
0010
0000
0000
0000
0010
0000
,
0100
0000
0100
0001
1000
0010
0100
0000
0100
0001
0000
0001
0200
0000
0000
0000
0000
0000
0310
0000
0000
0000
0000
0000
,
1010
0000
0000
0000
0000
0000
1000
0000
0000
0010
0000
0000
0001
0000
0000
1000
0000
0000
0100
0000
0000
0001
0000
0000
0101
0000
0000
0000
1010
0000
0000
0000
0110
0000
0000
0000
1002
0000
0000
0000
0000
0000
0203
0000
0000
0300
0000
0000
,
1010
0000
0000
0110
0000
0000
1001
0000
0011
0000
0000
0000
0001
0000
0000
0000
1000
0000
0000
0000
0010
0000
0000
0000
0110
0000
0000
0000
0100
0000
0001
0000
,
1000
0000
0010
0000
0110
0000
0000
0000
0101
0000
0001
1000
0010
0000
0100
0000
,
0001
0000
0000
0000
1000
0000
0000
0000
0010
0000
0000
0000
0100
0000
0010
0000
1000
0000
0000
0000
0001
0000
0100
0000
0010
0000
0000
1010
0000
0000
1001
0000
,
0012
0000
0000
0000
0000
0000
1003
0000
0010
0000
0100
0000
0001
0000
0000
0000
0000
0000
0100
0000
0000
0000
0000
0000
0010
0000
0000
0000
0000
0000
1000
0000
0000
0000
0000
0000
1010
0000
0000
0000
0000
0000
0010
0000
0000
0100
0000
0000
,
0001
0000
0000
0000
0010
0000
0000
0000
0001
0000
0000
0000
1000
0000
0000
0000
0010
0000
0000
0000
0200
0000
0000
0000
0301
0000
0000
0000
1000
0001
0010
0001
,
0100
0000
0010
1000
0001
0000
0010
0000
0001
0000
0100
0000
0001
1000
0010
0100
,
0010
0000
0000
0000
0000
0000
0100
0000
0000
0000
0000
0000
0101
0000
0000
0000
0000
0000
0000
0000
0000
0000
0000
0000
1000
0000
0000
0100
0000
0000
0010
0000
0000
0001
0000
0000
1000
0000
0000
0000
0010
0000
0000
0000
0100
0000
0000
0000
,
0001
0000
0000
0000
0000
0000
1001
0000
0000
0000
0000
0000
1000
0000
0010
0000
0100
0000
0001
0000
0010
0000
0100
0000
1000
0000
0001
0000
0010
0000
0001
0000
1000
0000
0010
0000
1000
0000
0000
0000
0000
0000
0001
0000
0000
0100
0000
0000
,
0010
0000
0000
0000
0000
0000
0000
0000
0000
0000
0000
0000
0101
0000
0000
0000
0000
0000
0000
0000
0000
0000
0000
0000
1001
0000
0000
0000
0000
0000
0000
0000
0000
0000
0000
0000
1010
0000
0000
0000
0000
0000
0000
0000
0000
0000
0000
0000
0100
0000
0000
0000
0000
0000
0001
0000
0000
1000
0000
0000
0010
0000
0000
0000
0000
0000
0100
0000
0000
0000
0000
0000
0110
0000
0000
0000
0000
0000
0010
0000
0000
1000
0000
0000
0001
0000
0000
0000
0100
0000
0000
0000
0001
0000
0000
0000
,
0010
0000
0000
0101
0000
0000
0001
0000
1000
0000
0000
1010
0000
0000
0001
0000
0200
0000
0000
0000
0301
0000
0000
0000
0101
0000
0000
1001
0000
0000
0100
0000
,
0110
0000
0000
1010
0000
0000
1000
0000
0001
0000
0000
0000
0100
0001
1000
0001
0020
0000
0000
0000
0030
0000
0000
0000
2002
0000
0000
0000
0000
0000
0000
0000
,
0000
0000
0000
0000
,
0000
0000
0000
0000
,
0000
0000
0000
3003
,
0000
0000
0000
0000
1000
0001
0010
0001
0100
0010
1000
0100
0010
0001
0100
0001
,
1000
0010
0100
0001
1000
0000
0000
0000
0001
0000
0000
0000
2002
0000
0000
0000
,
3003
0000
0000
0000
;
