#TITLE:MAX301;
#SUBTITLE:;
#ARTIST:NAOKI underground -Ω-;
#TITLETRANSLIT:;
#SUBTITLETRANSLIT:;
#ARTISTTRANSLIT:;
#GENRE:;
#CREDIT:;
#BANNER:max301_banner.png;
#BACKGROUND:;
#LYRICSPATH:;
#CDTITLE:;
#MUSIC:max301.mp3;
#OFFSET:0.623000;
#SAMPLESTART:12.833000;
#SAMPLELENGTH:13.656000;
#SELECTABLE:YES;
#BPMS:0.000000=300.972992
;
#STOPS:67.500000=0.797000
;
#BGCHANGES:4.000=max301_movie.mp4=1.000=0=0=1=====,
99999=-nosongbg-=1.000=0=0=0 // don't automatically add -songbackground-
;
#KEYSOUNDS:;
#ATTACKS:;

//---------------dance-single - demicore----------------
#NOTES:
     dance-single:
     demicore:
     Challenge:
     17:
     0.996393,1.086057,0.402243,0.136611,0.129021,919.000000,866.000000,53.000000,18.000000,0.000000,0.000000,0.996393,1.086057,0.402243,0.136611,0.129021,919.000000,866.000000,53.000000,18.000000,0.000000,0.000000:
// measure 0
0000
0000
0000
0000
,  // measure 1
0000
0000
0000
0000
,  // measure 2
0000
0000
0000
0000
,  // measure 3
0000
0000
0000
0000
,  // measure 4
0000
0000
0000
0000
,  // measure 5
0000
0000
0000
0000
,  // measure 6
0000
0000
0000
0000
,  // measure 7
0000
0000
0000
0000
,  // measure 8
0000
0000
0000
0000
,  // measure 9
1000
0001
0010
0001
,  // measure 10
1000
0000
0000
0001
0000
0000
0100
0000
0010
0000
0000
0000
1000
0000
0001
0000
,  // measure 11
0010
0001
0100
0010
,  // measure 12
1000
0000
0000
0001
0000
0000
0010
0000
0001
0000
0000
0000
1000
0000
0010
0000
,  // measure 13
0100
0001
0100
0000
1010
0000
0100
0000
,  // measure 14
0001
1000
0010
0000
1010
0000
1000
0000
,  // measure 15
0001
0100
0010
0000
1000
0001
0100
0000
,  // measure 16
0001
0100
0010
1000
0001
0010
0001
0100
,  // measure 17
1001
0000
0001
0100
0001
0000
0001
0010
,  // measure 18
0001
0000
0001
1000
0001
0100
0010
1000
,  // measure 19
0100
0000
0100
1000
0100
0000
0100
0001
,  // measure 20
0100
0000
0100
1000
0001
0100
0010
0100
,  // measure 21
0001
0010
0001
1000
0100
1000
0010
0100
,  // measure 22
0001
1000
0010
1000
0001
0100
0010
0100
,  // measure 23
0001
1000
0010
1000
0001
1000
0010
1000
,  // measure 24
0001
0202
0303
0100
,  // measure 25
0001
0100
0010
1000
0100
1000
0010
0100
,  // measure 26
1000
0100
0010
1000
0001
0100
0010
0100
,  // measure 27
0001
0010
0001
1000
0010
0100
0001
1000
,  // measure 28
0010
0100
0001
0010
0100
1000
0010
1000
,  // measure 29
0001
0100
0010
1000
0100
1000
0001
0010
,  // measure 30
0001
0100
0001
1000
0010
0100
0001
1000
,  // measure 31
0010
0100
0001
1000
0100
1000
0010
0100
,  // measure 32
0001
0010
0001
2000
0000
3010
0100
0001
,  // measure 33
0100
0001
1000
0020
,  // measure 34
0000
0130
0002
0000
0000
1003
0200
0000
,  // measure 35
1300
0000
0010
0100
0001
0000
2000
0000
,  // measure 36
0000
0010
0100
3001
,  // measure 37
0100
0001
0020
0000
0001
0000
0100
0000
,  // measure 38
0031
1000
0010
0010
,  // measure 39
1000
0001
0010
0000
0001
0100
0010
1000
,  // measure 40
0000
0001
0010
0001
0000
1000
0010
0000
,  // measure 41
0100
0000
0001
0000
1000
0010
0000
0200
,  // measure 42
0010
0000
0001
0000
,  // measure 43
0310
0000
1000
0000
0001
0010
0000
2000
,  // measure 44
0010
0000
0001
0000
,  // measure 45
3001
0010
0001
0000
1000
0010
1000
0000
,  // measure 46
0001
0100
0001
0000
1000
0100
1000
0000
,  // measure 47
0010
0100
0001
0010
0001
1000
0010
0100
,  // measure 48
0002
0000
1003
0000
,  // measure 49
1000
0010
0100
0010
1000
0001
0010
0000
,  // measure 50
0001
0100
0010
0100
0001
1000
0100
0000
,  // measure 51
1000
0001
0010
0001
0100
0010
1000
0000
,  // measure 52
0001
0100
0000
0100
0010
0000
0110
0000
,  // measure 53
1000
0001
0010
0001
0100
0010
1000
0000
,  // measure 54
0001
0100
0010
0100
0001
1000
0100
0000
,  // measure 55
1000
0010
1000
0001
0010
0100
1000
0000
,  // measure 56
0010
1000
0001
0100
0000
0000
0101
0000
,  // measure 57
0001
0100
0010
1000
0100
0010
0001
0000
,  // measure 58
0100
0010
1000
0100
0001
0100
1000
0000
,  // measure 59
0010
0100
0001
0100
0010
1000
0001
0000
,  // measure 60
0100
0001
0000
0001
1000
0000
1001
0000
,  // measure 61
0100
0001
0010
0001
1000
0100
0010
0000
,  // measure 62
0001
1000
0010
0100
0001
1000
0100
0000
,  // measure 63
1000
0001
0010
0001
0100
0001
1000
0000
,  // measure 64
0001
0100
0000
0001
1000
0001
0000
0000
,  // measure 65
1000
0001
0010
0001
1000
0100
0010
0001
,  // measure 66
1000
0010
0100
0010
0001
0010
0100
0001
,  // measure 67
1000
0010
0100
0001
1000
0100
1000
0001
,  // measure 68
0010
0001
0100
0001
1000
0010
0000
1010
,  // measure 69
0000
1000
0001
0010
0001
0100
0010
1000
,  // measure 70
0001
0010
0100
0010
0001
1000
0010
0100
,  // measure 71
0010
1000
0001
0100
0010
0000
0100
0001
,  // measure 72
0100
0010
0100
0000
0001
1000
0100
1000
,  // measure 73
0010
0100
0001
1000
0100
1000
0010
0100
,  // measure 74
0001
1000
0100
0010
0100
0010
0001
1000
,  // measure 75
0010
1000
0001
0100
0001
0100
0010
1000
,  // measure 76
0001
0100
0001
1000
0100
1000
0001
0010
,  // measure 77
0100
1000
0010
0100
0001
1000
0100
1000
,  // measure 78
0001
0100
0010
1000
0001
0010
0001
0100
,  // measure 79
0010
1000
0010
1000
0001
0100
0010
0000
,  // measure 80
1000
0001
0010
0000
0001
0100
0010
0000
,  // measure 81
1001
0000
1000
0010
1000
0000
1000
0000
,  // measure 82
0010
0100
0001
0010
0001
1000
0010
0100
,  // measure 83
0001
0001
1000
1000
,  // measure 84
0010
0100
0001
0010
0000
0010
0001
0100
,  // measure 85
0010
0000
0010
1000
0010
0000
0010
0000
,  // measure 86
0100
0001
0010
0001
1000
0010
0100
0001
,  // measure 87
1000
1000
0010
0010
,  // measure 88
0200
0000
0300
0000
1001
0000
0100
0001
,  // measure 89
0011
0000
0010
0100
0010
0000
0010
0000
,  // measure 90
0001
1000
0010
1000
0100
1000
0001
0100
,  // measure 91
0010
0100
0001
1000
,  // measure 92
0010
0100
0001
0010
0001
1000
0100
1000
,  // measure 93
0001
0000
0001
1000
0001
0000
0001
0000
,  // measure 94
0100
0010
0100
0001
0010
0100
1000
0001
,  // measure 95
0100
0110
0101
1001
,  // measure 96
1010
0000
0000
0001
0000
0001
0100
0000
,  // measure 97
1000
0000
0010
0000
1000
0000
0001
0000
0100
0000
0010
0000
,  // measure 98
0100
0000
0001
0000
1000
0000
0010
0000
0100
0000
0001
0000
,  // measure 99
1000
0000
0010
0000
0010
0000
1000
0000
0001
0000
0001
0000
,  // measure 100
0100
0000
0010
0000
1000
0000
0001
0000
0010
0000
0001
0000
,  // measure 101
1000
0010
1000
0000
0001
0000
0010
0000
,  // measure 102
0001
0100
0001
0000
0100
0000
0010
0000
,  // measure 103
1010
1000
0001
0010
,  // measure 104
0001
1000
0001
0000
0100
0000
0010
0000
,  // measure 105
2000
0000
3001
0000
0100
0001
0020
0000
,  // measure 106
0000
0000
0031
0000
1000
0000
0010
0100
,  // measure 107
0001
0000
1000
0000
0010
0000
1000
0100
,  // measure 108
0001
0100
1000
0000
0010
0000
0100
0000
,  // measure 109
0002
0010
1000
1003
,  // measure 110
0200
1000
0010
0301
,  // measure 111
1000
0010
1000
0000
0001
0010
0001
0000
,  // measure 112
1000
0010
0100
0001
0010
0100
1000
0001
,  // measure 113
0100
0000
0000
1001
0000
1000
0100
0010
,  // measure 114
0001
0000
0000
0101
0000
0001
0100
0010
,  // measure 115
1000
0000
0000
0011
0000
0010
0001
1000
,  // measure 116
0100
0000
1001
0000
,  // measure 117
0110
0000
0000
0101
0000
0100
0010
1000
,  // measure 118
0100
0000
0000
1001
0000
1000
0001
0010
,  // measure 119
0001
0000
0000
0110
0000
0100
0001
1000
,  // measure 120
0010
0000
1001
0000
,  // measure 121
1010
0000
0000
1000
1000
0001
0100
0010
,  // measure 122
1000
0000
0000
0010
0010
0100
0001
0010
,  // measure 123
0001
0000
0000
0100
0100
0010
1000
0001
,  // measure 124
0010
0000
0000
0001
0001
1000
0010
0100
,  // measure 125
0001
0000
0000
1000
0010
0100
0001
1000
,  // measure 126
0100
0000
0000
1000
0100
1000
0001
0010
,  // measure 127
0001
0000
0000
1000
0100
0001
0100
1000
,  // measure 128
0010
0000
0000
0100
0001
0100
1000
0100
,  // measure 129
0010
0000
0000
0000
0000
0000
1000
0001
1000
0000
0010
0000
0100
0000
0001
0000
,  // measure 130
0010
0000
0000
0000
0000
0000
0001
0100
0001
0000
1000
0000
0010
0000
0100
0000
,  // measure 131
0001
0000
0000
0000
0000
0000
1000
0100
1000
0000
0010
0000
1000
0000
0001
0000
,  // measure 132
0100
0000
0000
0000
0000
0000
0001
0100
0001
0000
1000
0000
0010
0000
0100
0000
,  // measure 133
0001
0000
0000
0000
0000
0000
1000
0001
1000
0000
0010
0000
0100
0000
0001
0000
,  // measure 134
0010
0000
0000
0000
0000
0000
0001
0010
0001
0000
1000
0000
0100
0000
0010
0000
,  // measure 135
0001
0000
0000
0000
0000
0000
1000
0010
1000
0000
0001
0000
0100
0000
0010
0000
,  // measure 136
1000
0000
0000
0000
0000
0000
0001
1000
0001
0000
0000
0000
0000
0000
0000
0000
,  // measure 137
0110
0101
1010
1001
,  // measure 138
0101
0000
0001
0010
0001
0000
1001
0000
,  // measure 139
0000
0000
0000
0000
,  // measure 140
1000
0000
0001
0100
0001
0000
0100
0000
0010
1000
0010
0000
,  // measure 141
0100
0101
0011
1100
,  // measure 142
1001
0000
1000
0010
0100
0000
0110
0000
,  // measure 143
0000
0000
0000
0000
,  // measure 144
1000
0000
0001
0000
0100
0000
0001
0000
1000
0000
0010
0000
,  // measure 145
0100
0101
1001
1010
,  // measure 146
1100
1001
0011
0101
,  // measure 147
0110
1001
1100
0011
,  // measure 148
0101
1010
0110
1001
,  // measure 149
1000
0001
0010
0001
0100
0010
1000
0001
,  // measure 150
0100
0010
1000
0100
0010
0001
0100
0010
,  // measure 151
0000
1000
0001
0100
0001
0100
0010
1000
,  // measure 152
0001
0100
0000
0100
0001
1000
0010
0000
,  // measure 153
0100
0000
0001
1000
0000
0010
1000
0001
,  // measure 154
0010
0001
0000
0001
0010
0100
0010
0001
,  // measure 155
0000
1000
0001
0100
0010
1000
0001
0010
,  // measure 156
0000
0000
2002
0000
,  // measure 157
0000
0000
0000
0000
,  // measure 158
0000
0000
0000
0000
,  // measure 159
3003
0000
0000
0000
;
