#TITLE:Live Together;
#SUBTITLE:;
#ARTIST:t+pazolite;
#TITLETRANSLIT:;
#SUBTITLETRANSLIT:;
#ARTISTTRANSLIT:;
#GENRE:;
#CREDIT:;
#MUSIC:livetogether.mp3;
#BANNER:;
#BACKGROUND:;
#CDTITLE:;
#SAMPLESTART:92.281;
#SAMPLELENGTH:12.632;
#SELECTABLE:YES;
#OFFSET:1.193;
#BPMS:0.000=190.000
,100.000=95.000
,116.000=190.000
,148.000=380.000
,212.000=95.000
,228.000=190.000
;
#STOPS:100.000=1.263;
#BGCHANGES:;
#FGCHANGES:;

//--------------- dance-single - demicore ----------------
#NOTES:
     dance-single:
     demicore:
     Challenge:
     17:
     0,0,0,0,0:
0000
0000
0000
0000
,
0000
0000
0000
0000
,
0000
0000
0000
0000
,
0000
0000
0000
0000
,
0000
0000
0000
0000
,
0000
0000
0000
0000
0000
0000
0000
1000
,
1001
0000
0001
0011
0000
1001
0000
2020
,
0000
0000
0000
0000
0000
3030
0000
0001
,
0101
0000
0010
1010
0000
1001
0000
0022
,
0000
0000
0000
0000
0000
0033
0000
1000
,
1010
0000
0100
0000
0001
0000
0010
0000
0001
0000
1000
0010
0000
1010
0000
0000
,
0000
0000
0000
0000
0000
0000
0000
0001
,
0101
0000
0100
0000
0010
0000
1000
0000
0001
0000
0010
0001
0000
1001
0000
0000
,
0000
0000
0000
1000
0002
0000
0203
0000
,
0310
0000
1000
0000
0001
0000
0010
0000
0001
0000
0100
0010
0000
1010
0000
0000
,
0000
0101
0000
1001
0000
1010
0000
0101
,
0000
0010
0001
0001
1000
1000
0010
0010
,
0100
0001
0010
0001
1000
0010
0100
0001
1000
0010
0100
0010
1000
0001
0010
0100
,
1000
0000
0000
0000
1000
0000
0000
0000
0001
0000
0000
0001
0000
0100
0010
0000
,
1000
0010
0100
0010
1000
0000
0001
0000
0100
0001
0010
0001
0100
0000
0010
0000
,
1000
0000
0000
0000
0001
0000
0000
0000
0010
0000
0000
0001
0000
0100
0010
0000
,
0100
0001
0100
0010
1000
0000
0010
0000
0100
0001
0010
0100
1000
0000
0000
0000
,
1010
0000
0000
0000
0100
0000
0000
0000
0011
0000
0000
0000
0100
0000
0001
1000
,
0000
0010
1000
0001
0010
0001
0100
0010
0100
0010
1000
0000
0001
0000
0100
0000
,
0001
0010
0001
0010
0100
1000
0100
1000
0001
0100
0010
1000
0100
1000
0001
0010
,
0001
0000
1000
0010
0100
0001
0010
0001
1000
0010
0010
0100
0001
0001
1000
0010
,
0100
0000
0000
0000
0001
0000
0010
0000
0001
0000
1000
0000
0100
0000
1000
0000
0001
0000
0100
0000
0100
0000
0010
0000
1000
0001
1000
0000
0010
0000
0100
0000
,
0001
0000
0000
0000
1000
0000
0010
0000
0100
0000
0001
0000
0010
0000
0100
0000
1000
0001
0100
0000
0010
0000
1000
0000
0001
0010
0001
0000
0100
0000
0010
0000
,
1000
0000
0001
0000
0001
0000
0100
0010
1000
0000
0001
0000
0100
0000
0010
0000
1000
0000
0100
0000
0001
0000
0100
0000
2000
0000
0000
0000
0000
0000
0000
0000
,
3001
0000
0100
0000
0010
0000
1000
0100
0000
1000
0010
1000
0001
0000
0100
0000
,
0001
0000
0010
0000
0001
0000
0100
0010
0000
1000
0001
0010
0001
0000
0100
0000
,
0010
0000
0100
0000
0001
0000
1000
0100
0000
0010
0001
0100
0010
0000
1000
0000
,
0001
0010
0001
0100
0010
0010
1000
0001
,
0010
0000
0001
0000
1000
0000
0010
0100
0010
0000
1000
0000
0001
0000
0100
0001
,
0100
0000
0010
0000
1000
0000
0001
0010
0001
0000
1000
0000
0010
0000
0100
0001
,
0100
0000
0100
0000
0010
0000
0010
0000
1000
0001
0010
0001
0100
0010
1000
0001
,
0010
0000
1000
0001
0010
0001
0100
0000
,
0010
1000
0010
1000
0001
0000
0100
0000
,
0001
0100
0010
0100
0001
0000
1000
0000
,
0010
1000
0001
0100
0010
0000
0100
0000
,
0001
0010
0001
1000
0001
0000
0100
0000
,
0010
1000
0100
0010
0001
0000
0100
0000
,
0010
1000
0001
0100
0010
0000
1000
0000
,
0001
0100
0001
0100
0010
1000
0010
1000
,
0001
0100
0001
1000
0010
0000
0100
0000
,
0001
0010
0001
1000
0100
0000
1000
0000
,
0010
0100
0001
0010
0001
0000
1000
0000
,
0010
1000
0001
1000
0100
0000
1000
0000
,
0010
0001
0100
0001
0010
0000
0001
0000
,
1000
0100
0010
0001
1000
0000
0010
0000
,
0100
0001
0010
0001
1000
0000
0001
0000
,
0110
0000
1000
0001
,
0100
0001
0100
0000
1001
0000
0000
0000
,
2020
0030
0002
3000
,
0103
0000
0000
0001
0000
0100
0001
0000
1000
0000
0000
1010
0000
0000
0100
0000
,
0001
0010
0000
1001
0000
0000
1000
0000
0010
0100
0000
0011
0000
0000
1000
0000
,
0001
0100
0001
0100
0010
1000
0010
1000
0001
0000
0001
0000
0001
0000
0110
0001
,
1001
0000
0010
1010
0000
1001
0000
0012
,
0000
0000
1000
0000
0000
0000
1003
0010
,
0110
0000
1000
0110
0000
0011
0000
2100
,
0000
0000
0010
0000
0000
0000
3010
0100
,
0101
0000
0010
1010
0000
1001
0000
0210
,
0000
0000
0000
0302
0000
0000
1003
0000
,
0000
0010
0100
0001
0000
1000
0010
0200
,
0000
0001
0000
0301
,
1001
0000
0000
0000
0011
0000
0000
0000
1010
0000
0000
1000
0000
0001
0010
0000
,
0100
0001
0010
0001
1000
0000
0010
0000
1000
0010
0100
0001
1000
0000
0010
0000
,
0101
0000
0000
0000
1001
0000
0000
0000
1100
0000
0000
0010
0000
1000
0001
0000
,
0100
0001
1000
0010
0100
0000
0001
0000
1000
0100
0010
0001
0100
0000
0000
0000
,
0101
0000
0000
0000
0011
0000
0000
0000
1010
0000
0000
0000
1000
0000
0001
0010
,
0000
0001
1000
0010
1000
0001
0100
1000
0100
0001
0010
0001
0100
0000
0010
0000
,
1000
0001
0100
0001
0010
0001
0100
0010
1000
0100
0010
0001
1000
0010
0100
0010
,
1000
0000
0000
1001
0000
0000
0011
0000
0000
0110
0000
0000
1001
0000
1000
0000
,
1010
0000
0100
0000
0001
0000
0010
0001
0000
0100
0001
0000
1000
0000
0010
0000
,
0110
0000
0100
0000
0001
0000
1000
0010
0000
1000
0001
0000
0010
0000
0001
0000
,
0101
0000
0010
0000
0001
0000
1000
0100
0000
0010
0001
0000
0100
0000
0010
0000
,
0110
0000
0001
0000
1000
0000
0010
0100
0000
0100
0001
1000
0010
0000
0100
0000
,
0101
0000
0001
0000
1000
0000
0010
1000
0000
0100
1000
0000
0010
0000
0100
0000
,
0001
0000
0010
0000
0001
0000
1000
0010
0000
1000
0001
0000
0100
0000
0001
0000
,
1000
0001
0010
0001
0100
0000
0010
1000
0000
0100
1000
0000
0001
0000
0100
0000
,
0001
0000
0000
1001
0000
0000
1000
0000
0000
0000
1010
0000
0010
0000
0100
0000
,
0001
0000
1000
0000
0010
0000
0100
0000
0001
0000
0010
0001
0000
1000
0100
0000
,
2000
0000
0000
3020
0000
0000
0032
0000
0000
0203
0000
0000
1300
0000
0010
0000
,
0100
0000
0001
0000
0100
0000
0010
0000
1000
0000
0001
0100
0000
0010
0100
0000
,
0002
0000
0000
2003
0000
0000
3020
0000
0000
2030
0000
0000
3100
0000
1000
0000
,
0001
0000
0100
0000
0010
0000
0100
0000
0001
0000
1000
0010
0000
0100
0001
0000
,
0100
0010
0100
0000
0001
0010
0001
0000
1000
0010
1000
0000
0001
0100
0001
0000
,
1000
0010
0100
0001
0010
0100
1000
0001
0100
0010
1000
0100
0010
0001
0100
0010
,
1000
0000
0001
0000
0001
0000
0001
0000
0100
0010
0100
0001
0010
0001
1000
0010
,
0100
0000
0000
0000
0001
0000
1000
0010
0000
1000
0010
0000
0100
0000
0001
0000
,
0010
0000
0001
0000
1000
0000
0001
0010
0000
0001
0010
0000
0001
0000
1000
0000
,
0100
0000
1000
0000
0010
0000
0100
0001
0000
1000
0010
0000
0100
0000
0001
0000
,
1000
0010
1010
1000
0001
0010
0011
0001
,
1000
0000
0010
0000
0100
0000
0100
0001
0010
0000
0001
0000
1000
0000
0010
0100
,
0001
0000
1000
0000
0010
0000
0100
0001
0010
0000
0001
0000
1000
0000
0001
1000
,
0100
1000
0001
0100
0001
0010
0001
1000
0100
0010
0001
0100
0010
1000
0001
0100
,
0010
0000
0000
0000
;
