#TITLE:LOVETOXIC addiction;
#SUBTITLE:;
#ARTIST:NAOKI underground;
#TITLETRANSLIT:;
#SUBTITLETRANSLIT:;
#ARTISTTRANSLIT:;
#GENRE:;
#CREDIT:;
#MUSIC:lovetoxicaddiction.mp3;
#BANNER:lovetoxicaddiction-bn.png;
#BACKGROUND:lovetoxicaddiction-bg.png;
#CDTITLE:;
#SAMPLESTART:22.090;
#SAMPLELENGTH:13.333;
#SELECTABLE:YES;
#OFFSET:-0.757;
#BPMS:0.000=180.000;
#STOPS:;
#BGCHANGES:;
#FGCHANGES:;

//--------------- dance-single - demicore ----------------
#NOTES:
     dance-single:
     demicore:
     Challenge:
     16:
     0,0,0,0,0:
0000
0000
0000
0000
,
0000
0000
0000
0000
,
0000
0000
0000
0000
,
0000
0000
0000
0000
,
1000
0010
0100
0001
1000
0100
0020
0000
,
0031
0000
0000
0000
1000
0010
0100
0010
1000
0000
0001
0000
0101
0000
0000
0100
,
0010
0000
1000
0001
0010
0000
0001
0000
0100
0000
0100
0000
0010
0000
1000
0000
,
0001
0100
1000
0100
0010
0010
1000
1000
,
0001
0010
0001
1000
0100
0010
0001
2000
,
3000
0000
0010
1000
0010
0100
0010
0000
0100
0000
0001
0000
0010
0000
0001
0000
,
1000
0000
0010
0100
0001
0010
0001
0000
1000
0000
0010
0000
0100
0000
0010
0000
,
1000
0000
0001
0000
0010
0001
0100
0010
1000
0000
0100
0000
0001
0000
0100
0000
,
1000
0000
0010
0100
0001
0010
0100
0000
0010
0000
0001
0000
1000
0000
0001
0000
,
0010
0000
0001
1000
0100
1000
0010
0000
0100
0000
0001
0000
0010
0000
0100
0000
,
1000
0010
0100
0010
1000
0010
0100
0010
1000
0001
0010
0001
0100
0001
0010
0001
,
2000
0000
3010
0000
0001
2002
0000
3003
,
0100
0010
0100
0000
0001
0000
0100
0010
0100
0001
0010
0000
0001
1000
0100
1000
,
0010
0000
0100
0000
0001
1000
0001
0000
1000
0010
0100
0010
0001
0000
0010
0000
,
0100
0001
1000
0001
0010
0000
0001
0000
1000
0010
0100
0000
0001
1000
0100
1000
,
0010
0000
0100
0000
0100
0000
0001
1000
0001
0010
0001
0000
1000
0010
0100
0001
,
0020
0000
0031
2000
0000
3010
0200
0000
,
0301
0000
1000
0000
0010
0100
0010
0000
2000
0000
0000
0000
3002
0000
0000
0000
,
0203
0000
0310
0002
0000
0013
2000
0000
,
3001
0000
0100
0000
0010
0000
1000
0100
0010
0000
0001
0000
1000
0010
0100
0010
,
1000
0001
0010
0001
1000
0010
0100
0001
,
0010
0000
0100
0000
1000
0000
0001
0000
0100
0010
1000
0100
1000
0001
0100
0010
,
1000
0100
0010
0001
1000
0100
0010
0002
0000
0000
0000
0000
0003
0000
0000
0000
,
2010
0000
3001
0000
0120
0100
0030
0000
,
1010
1000
0001
0100
0010
1000
0100
0010
,
0001
0000
1000
0000
0010
0000
0100
0000
0001
1000
0100
1000
0010
0100
0001
0010
,
0100
1000
0000
0001
1000
0000
0010
0100
0000
0001
0100
0000
0010
1000
0010
0000
,
1000
0001
0000
0010
0001
0000
1000
0100
0000
1000
0010
0000
0200
0000
0302
0000
,
1003
0010
0100
0001
1001
1000
0010
0200
,
0000
0001
0301
1000
1010
0010
0200
0302
,
1003
0100
0001
0100
1100
1000
0001
0020
,
0000
0100
0130
1000
0001
0100
0020
2030
,
3001
0000
0100
0000
0010
0000
0000
0000
0110
0000
0010
1000
0001
0000
0100
0000
,
0010
0000
1000
0000
0001
0000
0000
0000
0011
0000
0010
0001
1000
0000
0010
0000
,
0100
0010
0001
0010
1010
1000
0001
0100
,
0010
0000
1000
0100
0010
0000
0001
1000
0010
0000
0100
0001
1000
0000
0010
1000
,
0100
1000
0001
0010
0001
0100
0010
0000
0010
1000
0001
0100
,
0001
1000
0010
0100
0000
0100
0001
1000
0100
1000
0010
0100
,
0001
0010
0100
1000
0000
1000
0010
0001
0010
1000
0010
0100
,
0001
0000
0000
0000
0001
0000
1000
0000
0010
0000
0100
0000
0010
0000
1000
0000
0100
0000
0010
0000
0000
0010
0000
0000
,
0001
0000
0000
1000
0000
0000
0010
0000
1000
0000
0001
0000
0100
0000
0000
0010
0000
0000
1000
0000
0001
0000
0010
0000
,
0100
1000
0010
0100
0001
1000
0100
0010
0100
1000
0001
0100
,
0010
0000
0000
0100
0000
0000
0001
0000
1000
0000
0100
0000
1000
0000
0000
0010
0000
0000
0100
0000
0001
0000
0010
0000
,
0001
1000
0010
0100
0001
0010
0100
0010
0001
1000
0000
0000
,
1001
0001
0101
0000
0110
0010
1000
1100
,
0100
0110
0010
0001
1000
0010
0100
0002
,
0003
0000
1000
0000
0010
0100
0010
0000
1000
0000
0001
0000
0010
0000
0200
0000
,
0300
0000
1000
0000
0001
1000
0001
0000
0100
0010
1000
0100
0010
0000
0001
0000
,
1001
1000
1010
0000
0110
0010
1000
1001
,
0001
0011
0010
0001
0100
0001
1000
0200
,
0300
0000
0010
0000
0001
0100
0001
0000
1000
0000
0010
0000
0001
0000
0020
0000
,
1030
2000
3001
0002
0103
0010
1000
0001
,
0010
0000
0001
1000
0100
0000
1000
0010
0100
0000
0001
0000
1000
0000
1010
0000
,
0010
0000
0110
0000
0100
0000
0001
1000
0010
0000
0100
0000
0001
0000
1000
0000
,
0200
0301
0200
1300
0020
2030
3002
0203
,
0320
1030
0020
0031
0200
0302
1003
0000
,
1010
0000
0010
1000
0001
0000
0010
0001
0100
0000
0010
0000
1000
0000
1001
0000
,
0001
0000
0101
0000
0100
0000
0010
0000
1000
0000
0001
0100
0010
0000
2000
0000
,
3001
0000
1000
0001
0010
0000
0001
1000
0100
0000
1000
0010
0000
0100
0010
0000
,
0200
0301
2000
3001
0020
0031
0200
0320
,
1030
0001
0010
0001
0100
0000
0010
1000
0000
0000
0001
0100
0000
0000
0010
0100
,
0001
0000
1000
0001
0010
0000
0001
0000
2000
0000
3020
0000
0032
0000
0023
0000
,
1030
0001
0100
0010
1000
0000
0001
0010
0000
0000
0100
1000
0000
0000
0010
1000
,
0001
0000
1000
0001
0010
0000
0001
0000
2000
0000
3002
0000
0103
0010
0100
0010
,
1000
0001
0010
0001
0100
0000
0001
1000
0000
0000
0010
0100
0000
0000
0010
1000
,
0100
0000
0010
0001
0100
0000
0010
0000
2000
0000
3002
0000
0023
0000
0032
0000
,
1003
0010
0100
0010
1000
0000
0001
1000
0000
0000
0001
0010
0000
0000
0100
1000
,
0010
1000
0001
0100
0010
1000
0100
0000
0010
0001
0100
0000
0010
0000
1000
0001
,
0010
0002
0003
2000
3000
0010
0100
0220
,
0000
0000
0000
0000
,
0000
0000
0000
0000
,
0330
0000
0000
0000
;
