#TITLE:Head BONK ache;
#SUBTITLE:;
#ARTIST:saaa ft. MC iwata Bros.;
#TITLETRANSLIT:;
#SUBTITLETRANSLIT:;
#ARTISTTRANSLIT:;
#GENRE:;
#CREDIT:;
#MUSIC:headbonkache.ogg;
#BANNER:headbonkache.png;
#BACKGROUND:;
#CDTITLE:;
#SAMPLESTART:55.722;
#SAMPLELENGTH:16.000;
#SELECTABLE:YES;
#OFFSET:-0.063;
#BPMS:0.000=165.000
,24.000=330.000
,28.000=165.000
,32.000=144.375
,32.875=123.750
,33.625=103.125
,34.250=82.500
,34.750=132.000
,60.000=264.000
,62.000=132.000
,80.000=165.000
,112.000=330.000
,115.000=165.000
,128.000=330.000
,131.000=165.000
,146.000=82.500
,147.000=165.000
,161.000=330.000
,163.000=165.000
,178.000=330.000
,180.000=165.000
,194.000=330.000
,195.000=165.000
,200.000=144.375
,200.875=123.750
,201.625=103.125
,202.250=82.500
,202.750=132.000
,236.000=264.000
,238.000=132.000
,256.000=165.000
,260.000=330.000
,263.000=165.000
,278.000=660.000
,279.000=330.000
,280.000=165.000
,294.000=330.000
,296.000=165.000
,310.000=330.000
,312.000=165.000
,326.000=330.000
,327.000=165.000
,332.000=144.375
,333.750=123.750
,335.250=103.125
,336.500=82.500
;
#STOPS:24.000=0.182
,25.000=0.182
,26.000=0.182
,27.000=0.182
,34.750=4.545
,60.000=0.170
,60.750=0.170
,61.500=0.114
,112.000=0.182
,113.000=0.182
,114.000=0.182
,128.000=0.182
,129.000=0.182
,130.000=0.182
,178.000=0.364
,194.000=0.182
,202.750=4.489
,236.000=0.170
,236.750=0.170
,237.500=0.114
,260.000=0.182
,261.000=0.182
,262.000=0.182
,278.000=0.273
,279.000=0.182
,294.000=0.136
,294.750=0.136
,295.500=0.091
,310.000=0.364
,326.000=0.182
;
#DISPLAYBPM:132.000:165.000;
#BGCHANGES:;
#FGCHANGES:;

//--------------- dance-single - demicore - "slight headache" ----------------
#NOTES:
     dance-single:
     demicore - "slight headache":
     Beginner:
     3:
     0,0,0,0,0:
0000
0000
0000
0000
,
0000
0000
0000
0000
,
0000
0000
0000
0000
,
1000
0000
1000
0000
,
0001
0000
0001
0000
,
0100
0000
0010
0000
,
0200
0000
0000
0300
,
0020
0000
0000
0000
,
0000
0000
0000
0000
0000
0000
0000
0000
0000
0000
0000
0030
0000
0000
0000
0000
,
0000
0000
0001
0000
,
1000
0000
0110
0000
,
0001
0001
0001
0000
,
1000
1000
1000
0000
,
0010
0000
0100
0000
,
0010
0100
0010
0000
,
0220
0000
0330
0000
,
0001
0000
1000
0000
,
0001
1000
0001
0000
,
0100
0100
0100
0000
,
0020
0000
0000
0000
,
0000
0000
0030
0000
,
0100
0000
0010
0000
,
1000
0000
0001
0001
,
0001
0000
0100
0000
,
0010
0000
0110
0000
,
0100
0000
0100
0000
,
0010
0000
0010
0000
,
1000
0000
0001
0000
,
2002
0000
0000
0000
,
3003
0000
1000
0000
,
0001
0000
1000
0000
,
0001
0000
1000
0000
,
0002
0000
0000
0003
,
0100
0100
0100
0000
,
0010
0010
0010
0000
,
1000
1000
1000
0000
,
0001
0001
0001
0000
,
0000
0100
0000
0010
,
0000
0100
0010
0100
,
0000
0001
1000
0001
,
0000
0200
0000
0000
,
0300
0000
0010
1000
,
0010
0000
0100
0001
,
0100
0000
0001
1000
,
0001
0000
1001
0000
,
0000
0000
0010
0000
,
0100
0000
0010
1000
,
0010
0000
0100
0000
,
0001
1000
0001
0000
,
2002
0000
0000
0000
,
0000
0000
0000
0000
0000
0000
0000
0000
0000
0000
0000
3003
0000
0000
0000
0000
,
0000
0000
0010
0000
,
1000
0000
0001
0000
,
0100
0001
0100
0000
,
0001
1000
0001
0000
,
1010
0000
1000
0010
,
1000
0000
0001
0000
,
0100
0000
0001
0100
,
0001
0000
0010
0000
,
0022
0000
0033
0000
,
0001
1000
0001
0000
,
0100
0100
0100
0000
,
0010
0010
0010
0000
,
0220
0000
0000
0000
,
0000
0000
0330
0000
,
2002
0000
0000
3003
,
0010
0010
0010
0000
,
0100
0000
0001
1000
,
0001
0000
0100
0000
,
0010
0000
2000
0000
,
3000
0000
0001
0000
,
0100
0001
0100
0000
,
0010
0000
1000
0000
,
0010
0100
0020
0000
,
0030
0000
1000
0000
,
0001
0100
0001
0100
,
0010
0000
1000
0000
,
0001
1000
0020
0000
,
0030
0000
0100
0000
,
0010
0100
0010
0000
,
1000
0000
0001
0000
,
1000
0001
0200
0300
,
2002
0000
0000
0000
,
0000
0000
0000
0000
,
0000
3003
0000
0000
;

//--------------- dance-single - demicore - "cluster headache" ----------------
#NOTES:
     dance-single:
     demicore - "cluster headache":
     Easy:
     8:
     0,0,0,0,0:
0000
0000
0000
0000
,
0000
0000
0000
0000
,
0000
0000
0000
0000
,
1000
0000
0001
0000
0010
0000
0001
0100
,
0001
0000
1000
0000
0010
0000
1000
0001
,
1000
0001
0010
0001
,
0200
0300
0020
0030
,
2002
0000
0000
0000
,
0000
0000
0000
0000
0000
0000
0000
0000
0000
0000
0000
3003
0000
0000
0000
0000
,
1000
0001
0010
0001
,
1000
0010
0020
0030
,
0100
0001
0100
0000
0001
0000
1000
0000
,
0010
1000
0010
0000
0100
0000
0001
0000
,
1000
0001
1000
0000
0001
0000
0010
0000
,
0001
0100
0001
0000
1000
0000
0001
0000
,
0200
0000
0310
0110
,
1000
0010
1000
0000
0010
0000
0100
0000
,
0001
1000
0001
0000
0010
0000
0001
0000
,
0100
0100
0010
0010
,
0220
0000
0000
0000
,
0000
0000
0330
0000
,
1000
0001
0010
0001
,
1000
0000
0010
0000
0100
0000
0001
1000
,
0001
0100
0001
1000
,
0010
0010
0110
0000
,
1000
0001
0010
0001
,
0100
0010
1000
0010
,
0100
0001
1000
0001
,
0200
0000
0310
0000
,
2000
0000
3002
0000
,
0023
0000
0032
0000
,
0103
0010
1000
0010
,
0200
0000
0300
0000
,
0110
0100
0101
0001
,
1001
0000
1000
0000
0010
1000
0010
0000
,
1010
1000
1001
0001
,
0100
0001
0100
0000
0002
0003
1010
0000
,
1000
0110
0010
0110
,
0100
0000
0001
1000
0001
0000
1001
0000
,
1000
1010
0010
0100
,
0010
0200
0000
0300
,
0001
1000
0010
0100
,
0001
0010
0001
1001
,
1000
0010
0100
0010
,
0100
0100
0200
0300
,
0010
0010
1000
0001
,
0010
0000
0001
0000
0100
0001
0100
0000
,
0010
1000
0001
0010
,
0001
0100
0020
0030
,
2002
0000
0000
0000
,
0000
0000
0000
0000
0000
0000
0000
0000
0000
0000
0000
3003
0000
0000
0000
0000
,
1000
0001
0100
0001
,
0010
0001
1000
0010
,
0100
0100
0001
0001
,
1000
0001
1000
0001
1000
0000
0000
0000
,
0001
0100
0001
0001
,
1000
0000
0010
0000
0100
0001
0100
0000
,
0010
1000
0100
0010
,
0001
0000
0100
0000
0001
1000
0001
0000
,
0200
0000
0301
0010
,
0001
0000
1000
0000
0010
1000
0010
0000
,
0100
0001
0010
0001
,
1000
0001
0100
0010
,
0220
0000
0000
0000
,
0000
0000
0330
0000
,
2000
0000
3000
0000
,
1001
1000
1010
0010
,
0110
0000
0100
0000
0001
1000
0001
0000
,
0011
0001
0101
0100
,
0001
1000
0020
0000
,
0130
0100
0110
0010
,
1010
0000
1000
0000
0001
0010
0001
0000
,
0101
0100
0110
0010
,
1000
0001
1000
0000
0020
0000
0000
0000
,
0130
0100
0001
0001
,
0010
0010
0001
1001
,
0100
0100
1000
1000
,
0010
0100
0010
0000
0200
0000
0300
0000
,
0001
1000
0010
1000
,
0100
0000
0010
0000
0001
0010
0001
0000
,
0100
0001
1000
0010
,
0100
0100
0200
0300
,
2002
0000
0000
0000
,
0000
0000
0000
0000
,
0000
3003
0000
0000
;

//--------------- dance-single - demicore - "hypertension" ----------------
#NOTES:
     dance-single:
     demicore - "hypertension":
     Medium:
     12:
     0,0,0,0,0:
0000
0000
0000
0000
,
0000
0000
0000
0000
,
0000
0000
0000
0000
,
1000
0000
0001
0000
0010
0000
0001
0000
1000
0000
0010
0000
0100
0000
0001
1000
,
0001
0000
0010
0000
0001
0000
0100
0000
0001
0000
1000
0000
0010
0000
1000
0001
,
1000
0010
0100
0010
1000
0010
0100
0001
,
2000
3000
0000
0000
0002
0003
0000
0000
0200
0300
0000
0000
0020
0030
0000
0000
,
2002
0000
0000
0000
,
0000
0000
0000
0000
0000
0000
0000
0000
0000
0000
0000
3003
0000
0000
0000
0000
,
0001
1000
0020
0030
0100
0001
2000
3000
,
0001
0000
0100
0000
0010
0000
1000
0000
0001
1000
0001
0000
1001
0000
0000
0000
,
0100
0000
0010
1000
0010
0000
0100
0000
0001
0000
1000
0001
1000
0000
0010
0000
,
0100
0000
0001
1000
0001
0000
0010
0000
0001
0000
0100
0001
0100
0000
0000
0000
,
0010
0000
1000
0100
1000
0000
0001
0000
0100
0000
0001
1000
0001
0000
0100
0000
,
0010
0000
1000
0001
1000
0000
0001
0000
0100
0000
0010
0100
0010
0000
0000
0000
,
2000
3000
0000
0002
0003
0000
0200
0300
0010
0000
1000
0010
1000
0000
0001
0000
,
0010
0000
0001
0100
0001
0000
1000
0000
0001
0000
0100
0010
0100
0000
0000
0000
,
0001
0000
1000
0001
1000
0000
0010
0000
0100
0000
0010
1000
0010
0000
1000
0000
,
1001
0000
0000
0011
0000
0000
1000
0001
1000
0010
0100
0002
,
0200
0000
0000
0000
,
0000
0000
0000
0000
0303
0000
0100
0001
,
1000
0000
0000
0010
0000
0000
0100
0000
0001
0000
1000
0000
0010
0000
0100
0000
,
0001
0000
0000
1000
0000
0000
0001
0000
0010
0000
0001
0000
1000
0000
0010
0000
,
0100
0000
0000
0001
0000
0000
1000
0000
0010
0000
0100
0000
0010
0000
1000
0000
,
0100
0000
1001
0000
1000
0001
0100
0000
,
0010
1000
0001
0100
0001
0010
0001
1000
,
0010
0000
0100
0000
0001
0000
1000
0000
0001
0000
0000
0100
0000
0000
0010
0000
,
0100
1001
0010
1001
,
0200
0300
0000
0000
0020
0030
0000
0000
2002
0000
0000
0000
3003
0000
0000
0000
,
2000
0200
3300
0000
0002
0200
0303
0000
,
0020
2000
3030
0000
2000
0002
3003
0000
,
0100
0000
0001
0000
0100
0000
0010
0000
1000
0000
0001
0000
0100
0000
0001
1000
,
0002
0003
0000
0000
2000
3000
0000
0000
0020
0000
0000
0000
0030
0000
0000
0000
,
1010
1001
0011
0101
,
0110
0000
1010
0000
1000
0001
0010
0000
,
0011
1001
0110
1010
,
1000
0001
1000
0001
0200
0300
0110
0000
,
1010
1001
0011
0101
,
1001
0000
0100
0010
1000
0000
1010
0000
,
0110
0000
1010
0000
1001
0000
0100
0001
,
0100
0001
0020
0000
0000
0000
0030
0000
,
0001
0000
0001
1000
0000
0000
1000
0000
1000
0010
0000
0000
,
0010
0000
0010
0100
0000
0000
0001
1000
0001
1000
0000
0000
,
0001
0000
0001
0100
0000
0000
0010
0000
0010
0100
0000
0000
,
0001
1000
0001
1000
0002
0000
0003
0000
,
1000
0001
0010
0001
0100
0000
0110
0000
,
0010
1000
0001
0100
0010
1000
0010
0000
,
0100
0001
1000
0010
1000
0000
1010
0000
,
0001
0000
0100
0000
0010
0000
0000
0000
0200
0300
0000
0000
0010
0000
0100
0000
,
0220
0000
0000
0000
,
0000
0000
0000
0000
0000
0000
0000
0000
0000
0000
0000
0330
0000
0000
0000
0000
,
1000
0001
0200
0300
0001
1000
0002
0003
,
0100
0010
2000
3000
0001
0100
0020
0030
,
1000
1000
0010
0010
0100
0100
0010
0010
,
1000
0001
0010
0001
0100
0000
0110
0000
,
1000
0000
0000
0001
0000
0000
0010
0000
0001
0000
0100
0000
0010
0000
1000
0000
,
0001
0000
0000
1000
0000
0000
0001
0000
0010
0000
0000
0000
0011
0000
0001
0000
,
1000
0000
0000
0001
0000
0000
0100
0000
0010
0000
1000
0000
0010
0000
0100
0000
,
0001
0000
0110
0000
1000
0001
1000
0000
,
0200
0300
0000
0020
0030
0000
0200
0300
0010
0000
1000
0000
0001
0000
0000
0000
,
0100
0001
0010
0000
0001
1000
0010
0000
,
0110
0101
1001
1010
,
1000
0000
0000
0001
0000
0000
0100
0000
0000
0000
0000
0000
0010
0000
1000
0000
0010
0000
1000
0000
0000
0000
0000
0000
,
2002
0000
0000
0000
,
0000
0000
0000
3003
,
2000
3000
0000
0000
0002
0003
0000
0000
0200
0000
0000
0000
0300
0000
0000
0000
,
0110
0000
1000
0001
0010
0000
0011
0000
,
0101
0000
1010
0000
1000
0010
0100
0000
,
0110
1001
1100
0011
,
0100
0000
0001
0000
1000
0000
0001
0000
0200
0300
0000
0000
0020
0030
0000
0000
,
0110
0000
1000
0001
0100
0000
0110
0000
,
0101
0000
1001
0000
1000
0001
0010
0000
,
0011
1001
1100
1010
,
1000
0001
0010
0001
0200
0000
0000
0000
,
0310
0000
0010
1000
0000
1000
0001
0000
0001
0100
0000
0100
,
0001
0000
0001
1000
0000
0000
0010
0100
0010
1000
0000
0000
,
0001
0000
0001
1000
0000
1000
0010
0000
0010
0100
0000
0000
,
0100
0001
1000
0001
0200
0000
0300
0000
,
0001
1000
0010
0100
0010
0000
0110
0000
,
1000
0001
0010
0001
0100
0000
0101
0000
,
0001
1000
0010
1000
0001
0000
0101
0000
,
1000
0000
0001
0000
0100
0000
0000
0000
2002
3003
0000
0000
0001
0000
1000
0000
,
2002
0000
0000
0000
,
0000
0000
0000
0000
,
0000
3003
0000
0000
;

//--------------- dance-single - demicore - "migraine headache" ----------------
#NOTES:
     dance-single:
     demicore - "migraine headache":
     Hard:
     16:
     0,0,0,0,0:
0000
0000
0000
0000
,
0000
0000
0000
0000
,
0000
0000
0000
0000
,
1000
0010
1000
0000
0001
0000
0100
0000
0001
1000
0001
0000
0010
0000
0001
0000
,
0100
0010
0100
0000
0010
0000
1000
0000
0001
1000
0001
0000
0100
0000
0010
0000
,
1000
0100
0010
0000
0001
0100
0010
0000
1000
0001
0100
0000
0010
1000
0100
0000
,
2000
3000
0000
0000
2020
3030
0000
0000
0220
0330
0000
0000
0202
0303
0000
0000
,
2002
0000
0000
0000
,
0000
0000
0000
0000
0000
0000
0000
0000
0000
0000
0000
3003
0000
0000
0000
0000
,
1000
0010
1000
0000
0002
0000
0013
0000
0001
0100
0001
0000
2000
0000
3010
0000
,
0000
0100
0001
1000
0001
0000
0010
0000
0001
0000
0100
0000
0110
0000
0000
0000
,
1000
0000
0001
0100
0001
0000
1000
0010
0100
0000
0001
0010
0100
0000
1000
0010
,
0001
0000
1000
0100
0010
0000
1000
0001
0010
0000
0001
1000
0010
0000
0000
0100
,
0001
0000
1000
0001
0100
0000
0010
1000
0010
0000
0100
0001
0010
0000
0001
1000
,
0001
0000
0100
0010
1000
0000
0001
1000
0001
0000
0100
0010
0100
0000
0000
0000
,
0220
0330
0000
2020
3030
0000
2002
3003
0100
0000
0010
1000
0010
0000
0100
0001
,
1000
0000
0010
0100
0001
0000
1000
0001
1000
0000
0010
1000
0010
0000
0000
0100
,
0001
0000
1000
0001
1000
0000
0001
0100
0010
0000
1000
0001
0100
0000
0010
0000
,
1010
0000
0000
0100
0000
0000
0110
0000
0000
0001
0000
0000
1000
0000
0001
0000
0010
0000
0001
0000
0100
0000
0010
0000
,
0220
0000
0000
0000
,
0000
0000
0000
0000
0330
0000
1000
0001
,
0010
0000
0001
0100
0000
0001
0100
0000
0001
0000
0100
0000
0010
0000
1000
0000
,
0001
0000
0100
0001
0000
0100
0001
0000
1000
0000
0010
0100
0010
0000
1000
0000
,
0001
0000
0100
0010
0000
1000
0010
0000
0100
0000
0001
0000
0010
0000
0001
1000
,
0001
0100
0110
0000
1001
1010
1000
0001
,
0010
0001
0100
0000
0001
1000
0010
0000
0100
0010
0100
0000
0001
0000
1000
0000
,
0010
1000
0010
0000
0100
0001
1000
0000
0010
0000
0100
0001
0000
1000
0001
0000
,
0100
0010
1010
1000
0001
0100
0101
0000
,
2002
3003
0000
0000
2020
3030
0000
0000
0220
0000
0000
0000
0330
0000
0000
0000
,
2000
0010
3010
0000
0002
0010
0013
0000
,
0200
0001
0301
0000
0002
1000
1003
0000
,
1000
0010
1000
0000
0001
0000
0010
0000
0001
1000
0001
0000
0100
0000
0010
0000
,
0200
0300
0000
0000
0020
0030
0000
0000
0220
0000
0000
0000
0330
0000
0000
0000
,
1010
1000
1100
0000
0011
0001
0101
0000
,
0110
0000
0010
0000
1010
0000
0000
0000
1000
0010
0000
0100
0001
1000
0001
0000
,
0101
0010
1010
0000
0101
0001
1001
0000
,
1000
0000
0001
0000
0010
0000
0000
0000
0001
0000
0100
0000
0002
0000
0000
0000
1000
0000
0000
1000
0003
0000
1000
0000
1010
0000
0000
0000
0100
0000
0000
0000
,
0101
0000
0110
0001
1001
0000
1100
0010
,
0011
0000
0000
0000
0100
0001
0000
1000
0010
0100
0010
0000
1010
0000
0001
0000
,
0011
0000
0000
0000
0101
0000
1000
0000
1010
0000
0000
0000
0100
0001
1000
0000
,
0010
0100
0220
0000
0000
0000
0330
0000
,
1000
0001
0010
0001
0000
0100
0010
1000
0010
0100
0000
0001
,
1000
0000
0010
0000
1000
0000
0001
0000
0000
0000
0100
0000
0010
0000
0100
0000
0010
0000
1000
0000
0000
0001
0000
0000
,
0010
0001
0100
0001
0000
1000
0010
0100
0001
1000
0000
0000
,
0010
1000
0001
0000
0100
0000
0010
0000
2002
0000
0000
0000
3003
0000
0000
0000
,
1010
0000
1000
0000
0001
0100
0001
0000
0010
0000
0001
0000
1000
0001
1000
0000
,
0010
0000
0100
0000
0010
1000
0001
0000
1000
0001
0000
0010
0001
0000
0100
0000
,
0110
0000
0010
0000
1000
0010
1000
0000
0001
0000
0100
0000
0001
1000
0010
0000
,
0100
0001
1000
0000
0010
0100
0000
0001
2000
0000
3000
0000
0001
0100
0001
0200
,
0020
0000
0000
0000
,
0000
0000
0000
0000
0000
0000
0000
0000
0000
0000
0000
0330
0000
0000
0000
0000
,
1010
0000
1000
0001
0010
0000
0001
0000
0100
0000
0001
1000
0010
0000
0100
0000
,
0001
0000
1000
0001
0010
0000
0001
0000
0100
0000
0010
1000
0100
0000
1000
0000
,
0001
0010
0001
0000
1000
0100
0010
0000
0001
0100
0010
0000
1000
0010
0100
0000
,
0001
1000
0001
1000
0010
1000
0010
1000
0001
0000
0001
0000
0100
0000
0001
0000
,
1000
0000
0010
0100
0000
0001
1000
0000
0010
0000
0100
0001
1000
0000
0010
0000
,
0010
0000
0100
0001
0000
0010
0001
0000
1000
0000
0010
1000
0010
0000
0100
0000
,
0100
0000
0001
0010
0000
0001
1000
0000
0010
0000
1000
0010
0100
0000
0001
0000
,
1001
0000
0000
0000
1010
0000
0000
0000
1001
0000
1010
0000
0100
0001
0010
0000
,
0022
0033
0000
2002
3003
0000
2200
3300
1000
0000
0010
0000
0100
0000
0001
1000
,
0001
0000
0100
0000
0110
0000
0001
0000
1001
0000
1000
0000
0001
0100
0001
0000
,
0110
0100
0001
1000
1010
0010
0100
0010
,
1000
0000
0000
0001
0000
0000
0010
0000
0000
0000
0000
0000
0001
0000
0000
0100
0000
0000
0010
0000
0000
0000
0000
0000
1000
0000
0000
0000
0010
0000
0000
0000
0100
0000
0000
0000
0001
0000
0000
0000
0010
0000
0000
0000
0002
0000
0000
0000
,
2000
0000
0000
0000
,
0000
0000
0000
3003
,
0200
0300
0000
0000
0002
0003
0000
0000
0202
0000
0000
0000
0303
0000
0000
0000
,
1001
0000
0000
0000
1000
0001
0010
0001
0100
0000
0001
0000
1001
0000
0000
0000
,
1000
0010
0100
0000
1010
0000
0000
0000
0001
0100
0000
0001
1000
0010
1000
0000
,
0001
0010
0001
0000
0101
0000
0000
0000
1000
0001
0100
0000
0110
0000
0000
0000
,
1000
0001
0100
0000
0010
1000
0010
0000
0220
0330
0000
0000
1001
0000
0000
0000
,
1010
0000
0000
1000
0010
0100
0010
0000
0100
0001
1000
0000
1001
0000
0000
0000
,
0010
1000
0001
0000
0011
0000
0000
0000
0001
0100
0000
0010
1000
0001
0010
0000
,
0001
0100
0010
0000
0101
0000
0000
0000
1000
0001
0100
0000
0110
0000
0000
0000
,
1000
0001
0010
0000
0001
0100
0010
0000
0200
0300
0000
0200
0300
0000
0200
0000
,
0310
1000
0001
0010
0000
0001
0100
0001
0010
0001
0000
1000
,
0010
0000
0100
0000
0001
0000
0100
0000
0000
0000
0010
0000
0100
0000
0010
0000
1000
0000
0001
0000
0000
1000
0000
0000
,
0010
0100
0001
0100
0000
0001
1000
0010
1000
0001
0000
0000
,
0100
0010
1000
0000
0001
1000
0001
0000
2002
0000
0000
0000
3003
0000
0000
0000
,
1010
0000
1000
0000
0001
0100
0010
0000
0100
0000
0001
0000
1000
0001
0010
0000
,
0011
0000
0001
0000
0100
0001
1000
0000
0010
1000
0000
0010
0100
0001
0010
0000
,
0011
0000
0001
0000
1000
0010
0100
0000
0010
0000
1000
0000
0001
0100
0001
0000
,
0010
0001
0100
0000
0010
1000
0001
0000
0200
0300
0000
0000
0001
1000
0001
2000
,
0002
0000
0000
0000
,
0000
0000
0000
0000
,
0000
3003
0000
0000
;

//--------------- dance-single - demicore - "head bonk ache" ----------------
#NOTES:
     dance-single:
     demicore - "head bonk ache":
     Challenge:
     18:
     0,0,0,0,0:
0000
0000
0000
0000
,
0000
0000
0000
0000
,
0000
0000
0000
0000
,
1001
0000
1000
0001
0010
0001
1000
0010
0100
0000
0001
1000
0010
1000
0010
0100
,
0010
0000
1000
0001
0010
0001
0100
0010
1000
0000
0010
1000
0100
1000
0010
0100
,
0001
0010
0001
0000
1000
0010
1000
0000
0010
1000
0100
0000
0010
0001
0100
0000
,
0220
0330
0000
0000
2020
3030
0000
0000
0202
0303
0000
0000
0022
0033
0000
0000
,
2002
0000
0000
0000
,
0000
0000
0000
0000
0000
0000
0000
0000
0000
0000
0000
3003
0000
0000
0000
0000
,
1000
0001
0010
0001
0200
0000
0301
1000
0010
1000
0001
0000
0200
0000
0310
1000
,
0000
0000
0010
1000
0001
0100
0001
0000
1000
0001
0100
0000
0101
0000
0000
0000
,
0100
0000
0000
0000
0000
0000
0001
0000
1000
0000
0001
0000
1000
0000
0000
0000
0000
0000
0200
0000
0000
0001
0000
0000
1300
0000
0000
0000
0000
0000
0020
0000
0000
1000
0000
0000
0130
0000
0000
0000
0000
0000
0020
0000
0000
0031
0000
0000
,
0000
1000
0001
0010
0001
0000
0200
0010
1300
0000
0020
1000
0031
0000
0000
0100
,
0001
0010
0100
1000
0001
0000
2000
0010
3100
0000
0002
1000
0013
0000
0200
0301
,
0000
1000
0010
1000
0001
0000
0020
0001
1030
0000
0002
1000
0013
0000
0000
0000
,
2020
3030
0000
0202
0303
0000
2002
3003
0100
0000
0020
1000
0130
0000
1000
0001
,
0000
0010
0001
0100
0010
0000
2000
0010
3100
0000
0002
0100
0013
0000
0000
0100
,
0001
0000
2000
0010
3100
0000
0020
1000
0130
0000
0100
0000
1010
0000
1000
0001
,
0010
0000
0000
0011
0000
0000
0001
0000
0000
1001
0000
0000
1000
0000
0010
0000
0100
0000
0001
0000
1000
0000
0010
0000
,
0220
0000
0000
0000
,
0000
0000
0000
0000
0330
0000
1000
0001
,
0110
0000
0001
1000
0001
0000
1000
0010
0100
0000
0010
1000
0001
0000
1000
0000
,
1010
0000
0100
0001
0000
1000
0001
0000
0100
0000
0010
1000
0010
0000
0100
0000
,
0110
0000
0000
0000
0000
0000
0001
0000
0000
1000
0000
0000
0001
0000
0000
0000
0000
0000
1000
0000
0000
0001
0000
0000
0010
0000
0000
0000
0000
0000
0001
0000
0000
1000
0000
0000
0100
0000
0000
0000
0000
0000
1000
0000
0001
0000
1000
0000
,
0001
0000
1000
0000
1010
0000
0000
0000
1001
0000
0011
0000
0100
0001
1000
0001
,
0010
0000
0001
1000
0100
0000
1000
0010
0100
0000
0001
1000
0001
0000
0010
0001
,
0100
0000
0010
1000
0001
0000
0100
0010
0100
0000
0010
1000
0000
0001
1000
0000
,
0100
0000
0000
0001
0000
0000
0100
0000
0000
0000
0000
0000
0001
0000
0000
1000
0000
0000
0001
0000
0000
0000
0000
0000
1000
0000
0000
0001
0000
0000
0100
0000
0000
0001
0000
0000
1000
0000
0000
0010
0000
0000
1000
0000
0010
0000
1000
0000
,
0020
0030
0000
0000
0220
0330
0000
0000
2002
3003
0000
0000
0000
0000
0000
0000
,
2000
0010
3001
0000
0002
0100
0013
0000
,
0200
0010
1300
0000
0020
1000
0031
0000
,
1000
0001
0010
0001
0100
0010
1000
0100
0010
0001
0100
0010
1000
0001
0100
0001
,
2000
3000
0000
0000
0220
0330
0000
0000
2002
0000
0000
0000
3003
0000
0000
0000
,
2010
3100
1002
0013
0102
1003
0120
1030
,
2010
0000
3001
0000
0210
0000
0301
0000
1000
0001
0000
0010
0001
0100
0001
0000
,
0102
0013
1002
0103
1020
0130
2001
3010
,
0110
0000
0000
0000
1010
0000
0000
0000
1100
0000
0000
0000
2001
0000
0000
0000
0010
0000
0000
0010
3000
0000
0010
0000
0102
0000
0000
0000
1003
0000
0000
0000
,
0210
0301
2010
3100
1002
0013
2010
3001
,
0102
0000
1003
0000
0010
0100
0000
0001
1000
0001
0010
0000
0012
0000
1003
0000
,
2010
3100
1002
0013
0120
1030
1010
1100
,
0011
0101
0220
0000
0000
0000
0330
0000
,
1000
0001
0010
0001
0100
0010
1000
0001
0010
0001
1000
0010
,
1000
0000
0000
0000
0010
0000
0000
0000
0001
0000
0000
0000
1000
0000
0000
0000
0100
0000
0000
0000
0001
0000
0000
0000
1000
0000
0000
0000
1000
0000
0000
0000
1000
0000
0000
0000
0001
0000
0000
1000
0000
0000
0010
0000
0000
1000
0000
0000
,
0001
0100
0001
1000
0100
0001
0100
1000
0010
0100
0001
1000
,
1010
1001
0011
0110
2002
0000
3003
0000
,
1000
0001
0020
0000
0031
0100
0020
0000
1030
0100
0020
0000
0031
1000
0020
0000
,
1030
0001
0020
0000
0031
0100
0020
0000
1030
0001
0000
1000
0010
0100
0001
0000
,
0001
1000
0200
0000
1300
0010
0200
0000
0301
0010
0200
0000
1300
0001
0200
0000
,
0310
0000
0000
1000
0000
0000
0001
0000
0000
0000
0000
0000
1000
0000
0000
0001
0000
0000
0000
0000
0000
2002
0000
0000
0000
0000
0000
3003
0000
0000
0000
0000
0000
0000
0000
0000
0100
0000
0010
0000
0100
0000
0010
0000
0100
0000
0020
0000
,
0200
0000
0000
0000
,
0000
0000
0000
0000
0000
0000
0000
0000
0000
0000
0000
0330
0000
0000
0000
0000
,
1001
0000
1000
0010
0002
0000
1003
0100
0002
0000
1003
0010
0002
0000
0013
0100
,
0001
0000
0001
0100
2000
0000
3001
0010
2000
0000
3001
0100
2000
0000
3100
0000
,
0010
1000
0001
0100
0001
1000
0100
0010
0001
0100
0010
1000
0001
0010
0001
1000
,
0001
0100
0010
1000
0010
0100
0001
1000
0020
0000
0030
0000
0110
0000
1001
0000
,
0110
0000
0001
1000
0000
0010
1000
0000
0001
0000
0100
0001
0010
0000
0101
0000
,
1001
0000
0100
0010
0000
1000
0010
0000
1000
0001
0100
0000
0010
0000
1010
0000
,
0101
0000
1000
0001
0000
0001
0100
0000
0001
0000
1000
0010
0100
0000
0101
0000
,
1001
0010
1100
0010
1001
0011
0201
0300
,
2002
3003
0000
2200
3300
0000
0022
0033
1001
0000
1000
0000
0020
0000
0130
0001
,
1000
0000
0010
1000
0001
0000
0010
0001
0100
0000
0110
0000
1010
0000
0001
1000
,
0001
0000
1000
0010
0100
0000
0001
1000
0010
0000
0110
0000
1001
0000
0000
0000
,
1000
0000
0000
0010
0000
0000
0100
0000
0000
0001
0000
0000
1000
0000
0000
0100
0000
0000
1000
0000
0000
0010
0000
0000
0100
0000
0000
0000
0001
0000
0000
0000
1000
0000
0000
0000
0010
0000
0000
0000
0100
0000
0000
0000
0001
0000
0000
0000
,
2002
0000
0000
0000
,
0000
0000
0000
3003
,
2200
3300
0000
0000
0202
0303
0000
0000
0022
0000
0000
0000
0033
0000
0000
0000
,
2010
0000
3100
0000
0001
1000
0010
0100
0001
0100
0010
0000
1000
0010
0100
0000
,
0001
1000
0010
0000
0100
0001
1000
0000
0010
1000
0000
0001
1000
0010
0100
0000
,
0001
1000
0010
0000
0100
0010
1000
0000
0001
0100
0010
0000
1000
0010
1000
0000
,
1010
0011
0101
0110
1002
0000
0013
0000
,
0001
1000
0000
0001
2000
0000
0010
0000
3001
0100
0001
0000
1000
0001
0100
0000
,
0010
0100
0001
0000
1000
0001
0010
0000
0001
1000
0000
1000
0010
0100
0010
0000
,
1000
0001
0010
0000
0001
0100
0010
0000
0100
0010
1000
0000
0001
1000
0001
0000
,
1010
0000
1100
0000
0011
0000
0101
0000
1002
0000
0000
1000
0000
0000
1003
0000
,
0001
0100
0010
1000
0100
0010
0001
1000
0010
0100
0001
0001
,
1000
0000
0000
0000
0010
0000
0000
0000
0100
0000
0000
0000
0010
0000
0000
0000
1000
0000
0000
0000
0100
0000
0000
0000
0010
0000
0000
0000
0010
0000
0000
0000
0010
0000
0000
0000
0001
0000
0000
0100
0000
0000
0001
0000
0000
1000
0000
0000
,
0010
1000
0001
0010
0001
0100
0010
1000
0001
1000
0010
0010
,
0100
1010
1001
0011
0202
0000
0303
0000
,
1000
0001
0020
0000
0031
0100
0020
0000
1030
0010
0200
0000
0301
1000
0020
0000
,
0130
0001
2000
0000
3001
0100
0002
0000
0103
0010
0000
0010
1000
0001
0010
0000
,
0002
1000
0013
0000
0200
0001
1300
0000
0020
1000
0031
0000
2000
0001
3100
0000
,
0010
0000
0000
0100
0000
0000
0001
0000
0000
0000
0000
0000
1000
0000
0000
0001
0000
0000
0000
0000
0000
0010
0000
0000
0000
0000
0000
0000
0000
0000
0000
0000
0000
0000
0000
0000
1000
0000
0100
0000
1000
0000
0010
0000
0100
0000
0002
0000
,
2000
0000
0000
0000
,
0000
0000
0000
0000
,
0000
3003
0000
0000
;
