#VERSION:0.83;
#TITLE:Got more raves?;
#SUBTITLE:;
#ARTIST:E.G.G.;
#TITLETRANSLIT:;
#SUBTITLETRANSLIT:;
#ARTISTTRANSLIT:;
#GENRE:;
#ORIGIN:;
#TAGS:;
#CREDIT:demicore;
#BANNER:;
#BACKGROUND:;
#PREVIEWVID:;
#JACKET:;
#CDIMAGE:;
#DISCIMAGE:;
#LYRICSPATH:;
#CDTITLE:;
#MUSIC:gotmoreraves.mp3;
#OFFSET:-0.977000;
#SAMPLESTART:23.082001;
#SAMPLELENGTH:11.278000;
#SELECTABLE:YES;
#BPMS:0.000000=266.000000
;
#STOPS:;
#DELAYS:;
#WARPS:;
#TIMESIGNATURES:0.000000=4=4
;
#TICKCOUNTS:0.000000=4
;
#COMBOS:0.000000=1
;
#SPEEDS:0.000000=1.000000=0.000000=0
;
#SCROLLS:0.000000=1.000000
;
#LABELS:0.000000=Song Start
;
#BGCHANGES:;
#KEYSOUNDS:;
#ATTACKS:
;

//---------------dance-single - demicore----------------
#NOTEDATA:;
#CHARTNAME:Groove novice;
#CHARTHASH:4183818240;
#STEPSTYPE:dance-single;
#BANNER:;
#DESCRIPTION:demicore;
#CHARTSTYLE:;
#DIFFICULTY:Beginner;
#METER:4;
#METERF:0.000000;
#LASTSECONDHINT:121.202560;
#RADARVALUES:0.142564,0.265953,0.167655,0.000000,0.000000,125.000000,104.000000,21.000000,0.000000,0.000000,0.000000,0.000000,0.000000,0.000000,0.142564,0.265953,0.167655,0.000000,0.000000,125.000000,104.000000,21.000000,0.000000,0.000000,0.000000,0.000000,0.000000,0.000000;
#CREDIT:demicore;
#NOTES:
// measure 0
0000
0000
0000
0000
,  // measure 1
0000
0000
0000
0000
,  // measure 2
0000
0000
0000
0000
,  // measure 3
0000
0000
0000
0000
,  // measure 4
0000
0000
0000
0000
,  // measure 5
0000
0000
0000
0000
,  // measure 6
0000
0000
0000
0000
,  // measure 7
0000
0000
1000
0000
,  // measure 8
0000
0001
0000
0000
,  // measure 9
1000
0000
0000
0010
,  // measure 10
0000
0000
0000
0000
,  // measure 11
0110
0000
0000
0000
,  // measure 12
1001
0000
0000
0000
,  // measure 13
0000
0001
0000
0000
,  // measure 14
0000
0001
0000
0000
,  // measure 15
0000
1000
0000
0000
,  // measure 16
0000
1000
0000
0000
,  // measure 17
0000
0010
0000
0000
,  // measure 18
0000
0100
0000
0000
,  // measure 19
0000
1001
0000
0000
,  // measure 20
0000
0000
0000
0000
0000
0100
0000
0000
,  // measure 21
0000
0000
0000
0000
0000
0000
0000
0001
,  // measure 22
0000
0000
0000
0000
,  // measure 23
0000
1000
0000
0000
,  // measure 24
0000
0000
0110
0000
,  // measure 25
0000
0000
0000
0000
0000
0000
0000
0001
,  // measure 26
0000
0000
0000
0000
,  // measure 27
0000
1000
0000
0000
0000
0000
0000
0000
,  // measure 28
0000
0000
0010
0000
,  // measure 29
0000
0000
0000
0100
,  // measure 30
0000
0000
0000
0000
,  // measure 31
0000
0001
0000
0000
0000
0000
0000
0000
,  // measure 32
0000
0000
0000
0100
0000
0000
0000
0000
,  // measure 33
0000
0000
0000
0010
,  // measure 34
0000
0000
0000
0000
,  // measure 35
1000
0000
0000
0000
,  // measure 36
0000
0000
0000
1001
0000
0000
0000
0000
,  // measure 37
0000
0000
0000
0000
,  // measure 38
0000
0000
0000
0000
,  // measure 39
0000
0100
0000
0000
,  // measure 40
0010
0000
0000
0100
,  // measure 41
0000
0000
0000
0000
,  // measure 42
0000
0001
0000
0000
,  // measure 43
1000
0000
0000
0001
,  // measure 44
0000
0000
1000
0000
,  // measure 45
0000
1001
0000
0000
,  // measure 46
0000
0000
0000
0000
,  // measure 47
0000
0000
0110
0000
,  // measure 48
0000
0000
0000
0000
,  // measure 49
1000
0000
0000
0000
,  // measure 50
0000
0000
0001
0000
,  // measure 51
0000
0000
0000
0100
,  // measure 52
0000
0000
0000
0000
,  // measure 53
0010
0000
0000
0000
,  // measure 54
0000
1010
0000
0000
,  // measure 55
0000
0000
1000
0000
,  // measure 56
0000
0000
0000
0101
,  // measure 57
0000
0000
0000
0000
,  // measure 58
0010
0000
0000
0000
,  // measure 59
0000
0000
1001
0000
,  // measure 60
0000
0000
0000
0000
,  // measure 61
0100
0000
0000
0000
,  // measure 62
0000
0001
0000
0000
,  // measure 63
0000
0000
1000
0000
,  // measure 64
0000
0000
0000
0110
,  // measure 65
0000
0000
0000
0000
,  // measure 66
0001
0000
0000
0000
,  // measure 67
0000
1000
0000
0000
,  // measure 68
0000
0000
0110
0000
,  // measure 69
0000
0000
0000
1001
,  // measure 70
0000
0000
0000
0000
,  // measure 71
0000
0000
1000
0000
,  // measure 72
0000
0010
0000
0010
,  // measure 73
0000
0000
0000
0000
,  // measure 74
0000
0000
0100
0000
,  // measure 75
0100
0000
0100
0000
,  // measure 76
0000
0000
0000
0000
,  // measure 77
0000
0000
0001
0000
,  // measure 78
0001
0000
0001
0000
,  // measure 79
0001
0000
0000
0000
,  // measure 80
1000
0000
0000
0000
,  // measure 81
0000
0100
0000
0000
,  // measure 82
0000
0000
0010
0000
,  // measure 83
0000
0000
0000
0001
,  // measure 84
0000
0000
0000
0000
,  // measure 85
1001
0000
0000
0000
,  // measure 86
0000
0000
0000
0000
,  // measure 87
0000
0000
0000
0000
,  // measure 88
0000
0000
0000
0000
,  // measure 89
0000
0000
0000
0000
,  // measure 90
0100
0000
0000
0000
,  // measure 91
0000
0000
0000
0001
0000
0000
0000
0000
,  // measure 92
0000
0000
0000
0000
0000
0100
0000
0000
,  // measure 93
0000
0000
0000
0000
,  // measure 94
0010
0000
0000
0000
,  // measure 95
0000
1000
0000
0000
,  // measure 96
0000
0000
0000
0000
0000
0001
0000
0000
,  // measure 97
0000
0000
0000
0000
0000
0000
0000
0100
,  // measure 98
0000
0000
0000
0000
,  // measure 99
0000
0010
0000
0000
,  // measure 100
0000
0000
1001
0000
,  // measure 101
0000
0000
0000
0000
,  // measure 102
0100
0000
0000
0000
,  // measure 103
0000
0010
0000
0000
,  // measure 104
0000
0000
1000
0000
,  // measure 105
0000
0000
0000
0011
,  // measure 106
0000
0000
0000
0000
,  // measure 107
0100
0000
0000
0000
,  // measure 108
0000
1001
0000
0000
,  // measure 109
0000
0000
1000
0000
,  // measure 110
0000
0000
0000
0000
,  // measure 111
0011
0000
0000
0000
,  // measure 112
0000
0000
0001
0000
,  // measure 113
0000
0000
0000
0010
,  // measure 114
0000
0000
0000
0000
,  // measure 115
0100
0000
0000
0000
,  // measure 116
0000
1001
0000
0000
,  // measure 117
0000
0000
1000
0000
,  // measure 118
0000
0000
0000
0110
,  // measure 119
0000
0000
0000
0000
,  // measure 120
0000
0001
0000
0001
,  // measure 121
0000
1000
0000
1000
,  // measure 122
0000
0010
0000
0000
,  // measure 123
0100
0000
0000
0000
,  // measure 124
0000
0000
0000
0001
0000
0000
0000
0000
,  // measure 125
0000
0000
0000
0000
0000
0100
0000
0000
,  // measure 126
0000
0000
0000
0000
,  // measure 127
0010
0000
0000
0000
,  // measure 128
0000
0010
0000
0000
,  // measure 129
0000
0000
0000
0000
0000
1000
0000
0000
,  // measure 130
0000
0000
0000
0000
0000
0000
0000
1000
,  // measure 131
0000
0000
0000
0000
,  // measure 132
0000
0001
0000
0000
,  // measure 133
0000
1001
0000
0000
;

//---------------dance-single - demicore----------------
#NOTEDATA:;
#CHARTNAME:More raves;
#CHARTHASH:4183818240;
#STEPSTYPE:dance-single;
#BANNER:;
#DESCRIPTION:demicore;
#CHARTSTYLE:;
#DIFFICULTY:Easy;
#METER:9;
#METERF:0.000000;
#LASTSECONDHINT:122.781509;
#RADARVALUES:0.303376,0.485003,0.111770,0.263458,0.000000,266.000000,252.000000,14.000000,33.000000,0.000000,0.000000,0.000000,0.000000,0.000000,0.303376,0.485003,0.111770,0.263458,0.000000,266.000000,252.000000,14.000000,33.000000,0.000000,0.000000,0.000000,0.000000,0.000000;
#CREDIT:demicore;
#NOTES:
0000
0000
0000
0000
,
0000
0000
0000
0000
,
0000
0000
0000
0000
,
0000
0000
0000
0000
,
0000
0000
0000
0000
,
0000
0000
0000
0000
,
0000
0000
0000
0000
,
0000
0000
0000
0000
1000
0000
0000
0001
,
0000
0000
0010
0000
0000
0100
0000
0000
,
1000
0000
0000
0010
0000
0000
0100
0000
,
0000
0001
0000
0000
1000
0000
0000
0000
,
0001
0001
0001
0000
,
1000
0010
1000
0010
,
0100
0010
0000
1000
,
0000
0000
0001
0000
0000
0010
0000
0000
,
0001
1000
0000
0010
,
0000
0100
0000
0000
0001
0000
1000
0000
,
0000
0000
0010
0000
0000
0100
0000
0000
,
0010
0100
0000
0001
,
0000
0000
1000
0000
0000
0010
0000
0000
,
1000
0000
0000
0000
0000
0001
0000
0000
,
0100
0000
0000
0001
0000
0000
0000
0100
,
0000
0000
0010
0000
0000
0100
0000
0000
,
0000
0000
0001
0000
0000
1000
0000
0000
,
0001
0000
0000
0000
1000
0000
0000
0010
,
0000
0000
1000
0000
0000
0000
0000
0001
,
0000
0000
0100
0000
0000
0001
0000
0000
,
0000
0010
0000
0000
0100
0000
0000
0010
,
0000
0000
0000
0000
1000
0000
0000
0001
,
0000
1000
0000
0001
,
0000
1000
0000
0000
0001
0000
0000
0000
,
0000
0100
0000
0000
0001
0000
0000
0100
,
0000
0000
0000
0010
0000
0000
0100
0000
,
0000
0010
0000
0000
0000
0000
1000
0000
,
0000
0100
0000
0000
1000
0000
0000
0000
,
0001
0000
0100
0000
,
0010
0000
0000
2020
0000
0000
0000
0000
,
0000
0000
0000
0000
,
0000
0000
0000
3030
,
0000
0010
0000
0010
0000
1000
0000
0001
,
0000
0010
0000
0100
0000
1000
0000
0001
,
0000
0100
0000
0000
0000
0000
0000
0000
,
0000
1000
1000
1000
,
0010
0010
0010
0100
,
0100
0100
0001
0001
,
0001
0020
0000
0000
,
0000
0000
0000
0000
,
0030
0000
1000
0001
,
1000
0010
0100
0001
,
0020
0000
0000
0000
,
0030
0000
0000
0000
0001
0000
0000
1000
,
0000
0001
0000
1000
,
0000
0010
0000
0000
1000
0000
0000
0000
,
0010
0000
0000
0100
0000
0000
0010
0000
,
0000
2002
0000
0000
,
3003
0000
0000
0000
0100
0000
0000
0001
,
0000
0100
0000
0202
,
0000
0000
0303
0000
,
1000
0000
0000
0100
0000
0000
1000
0000
,
0000
0000
0000
0000
0202
0000
0000
0303
,
0000
0000
2002
0000
0000
3003
0000
0000
,
0010
0000
0000
1000
0000
0000
0010
0000
,
0000
0000
0100
0000
0000
0010
0000
0000
,
0100
0000
0000
0000
0001
0000
0000
0010
,
0000
0001
0000
2002
,
0000
0000
3003
0000
,
1000
0000
0000
0010
0000
0000
1000
0000
,
0000
0000
0001
0000
0000
1000
0000
0000
,
0001
0000
0000
0000
1000
0000
0000
1000
,
0000
0001
0000
1001
,
0000
0000
0000
0000
,
0000
0000
0000
0000
0010
0000
0000
0010
,
0000
0100
0100
0000
,
0110
0000
0000
0000
,
0000
0000
0000
0010
0000
0000
1000
0000
,
1000
0000
0000
0010
0000
0010
0000
0000
,
0000
0000
0000
0000
,
0000
0000
0000
0100
0000
0000
0001
0000
,
0001
0000
0000
1000
0000
1000
0000
0000
,
0010
0000
0000
0000
,
2000
0000
0000
0000
,
0000
3002
0000
0000
,
0000
0000
0203
0000
,
0000
0000
0000
0302
,
0000
0000
0000
0000
,
2000
0000
0000
0000
,
0000
0000
0000
0000
,
0000
0000
0000
0000
,
0000
0000
0000
0000
,
3003
0000
0000
0000
,
1000
0000
0000
0100
0000
0000
0010
0000
,
0000
0000
0000
0001
0000
0000
0100
0000
,
0000
0010
0000
0000
0000
1000
0000
0000
,
0001
0000
0000
0010
0000
0000
0000
0000
,
0001
0000
0000
1000
0000
0000
0010
0000
,
0000
0000
0100
0000
0000
0001
0000
0000
,
0010
0000
0000
0000
0000
0001
0000
0000
,
1000
0000
0000
0100
0000
0000
0000
1000
,
0000
0000
0010
0000
0000
0100
0000
0000
,
0000
0000
0010
0000
0000
0100
0000
0000
,
0001
0000
2002
0000
,
0000
3003
0000
0000
,
0100
0000
0000
0100
0000
0000
0100
0000
,
0000
0000
0001
0000
0000
0001
0000
0000
,
0001
0000
0000
0000
1000
0000
0000
1000
,
0000
1000
0000
0220
,
0000
0000
0330
0000
,
0010
0000
0000
0010
0000
0000
0010
0000
,
0000
2002
0000
0000
,
3003
0000
0000
0000
1000
0000
0000
1000
,
0000
1000
0000
0000
,
0022
0000
0000
0033
0000
0000
2200
0000
,
0000
3300
0000
0000
0001
0000
0000
0010
,
0000
0001
0000
1000
,
0000
0010
0000
0000
1000
0000
0000
0000
,
0010
0000
0000
0100
0000
0000
0010
0000
,
0000
2020
0000
0000
,
3030
0000
0000
0000
0100
0000
0000
0001
,
0000
0100
0000
0010
,
0000
0100
0000
0000
0010
0000
0000
0000
,
0000
1000
1000
1000
,
0000
0010
0010
0000
,
0100
0100
0000
0000
,
0001
0000
0000
0010
0000
0000
0100
0000
,
0000
0000
0000
1000
0000
0000
0010
0000
,
0000
0100
0000
0000
0000
0001
0000
0000
,
1000
0000
0000
0010
0000
0000
0000
0000
,
0100
0000
0000
0010
0000
0000
1000
0000
,
0000
0000
0010
0000
0000
0100
0000
0000
,
0001
0000
0000
0000
0000
0010
0000
0000
,
0001
0000
0000
1000
0000
0000
0000
1000
,
0000
0000
0001
0000
0000
0010
0000
0000
,
0000
0000
0001
0000
0000
0200
0000
0000
,
0020
0000
0000
0000
,
0000
0000
0000
0000
,
0330
0000
0000
0000
;

//---------------dance-single - demicore----------------
#NOTEDATA:;
#CHARTNAME:Everything Get Groove;
#CHARTHASH:116;
#STEPSTYPE:dance-single;
#BANNER:;
#DESCRIPTION:demicore;
#CHARTSTYLE:;
#DIFFICULTY:Medium;
#METER:14;
#METERF:0.000000;
#LASTSECONDHINT:122.781509;
#RADARVALUES:0.769846,0.916116,0.303376,0.479015,0.000000,675.000000,637.000000,38.000000,60.000000,0.000000,0.000000,0.000000,0.000000,0.000000,0.769846,0.916116,0.303376,0.479015,0.000000,675.000000,637.000000,38.000000,60.000000,0.000000,0.000000,0.000000,0.000000,0.000000;
#CREDIT:demicore;
#NOTES:
0000
0000
0000
0000
,
0000
0000
0000
0000
,
0000
0000
0000
0000
,
0000
0000
0000
0000
,
0000
0000
0000
0000
,
0000
0000
0000
0000
,
0000
0000
0000
0000
,
0000
0000
0000
0000
1000
0001
0000
0100
,
0010
0000
1000
0000
0001
0010
0001
0100
,
0010
1000
0000
1010
0000
0000
1000
1000
,
0100
0010
0001
0100
0000
0010
1000
0001
,
0200
0320
1030
0001
,
0100
0001
1000
0001
0010
0100
1000
0000
,
1001
0000
0000
1000
0001
0100
0010
0000
,
0100
0000
0001
0000
1000
0100
0000
0001
,
0100
0001
0010
0000
0001
0000
1000
0000
,
0001
1000
0000
0010
0100
1000
0001
0000
,
1000
0000
0010
0000
0100
0001
0000
1000
,
0010
0100
0001
0000
0010
0000
0100
0000
,
1000
0001
0100
0000
0110
0000
1000
0001
,
0000
0001
0010
0000
0101
0000
0010
1000
,
0000
1000
0001
0000
0110
0100
0001
0010
,
0001
1000
0010
0000
1000
0100
0010
0001
,
1000
0000
0011
0000
0011
0000
1000
0010
,
0000
0010
0100
0000
1000
0010
0100
0001
,
0010
0001
0100
0010
1000
0100
0000
0010
,
1000
0001
0010
0001
0010
0001
1000
0100
,
0000
1000
0100
0010
0001
1000
0010
0100
,
0010
1000
0001
0000
0010
0100
0001
1000
,
0100
1000
0010
0001
0100
0000
0001
0010
,
0001
1000
0100
0010
0001
0010
0100
0001
,
0000
1000
0100
1000
0001
0010
0001
1000
,
0010
0100
0000
1000
0100
0010
0001
1000
,
0100
0010
0001
0010
0100
0000
1000
0001
,
0010
1000
0001
1000
0010
0100
0001
0000
,
1000
0010
0000
0101
0000
0000
1001
0000
,
0110
0000
0000
2002
0000
0000
0000
0000
,
0000
0000
0000
0000
,
0000
0000
0000
3003
,
0000
1000
0001
0010
0001
0100
1000
0010
,
0001
1000
0100
1000
0010
0100
0001
0010
,
0010
1000
0000
0000
0000
0000
0000
0000
,
0000
0000
1000
0100
1000
0100
1000
0000
,
0001
0010
0001
0010
0001
0000
1000
0010
,
1000
0001
0100
0000
0010
1000
0001
0010
,
0001
2002
0000
0000
,
0000
0000
0000
0000
,
3003
0000
0000
0000
0100
0001
0010
0001
,
1000
0100
1000
0010
1000
0001
0100
0010
,
1000
0000
0000
0001
0000
0000
1000
0000
,
1001
0000
0110
0000
2000
0000
0000
3002
,
0000
0023
0031
0200
,
0000
0310
0000
1000
0000
0010
0100
0000
,
0002
0000
0000
2003
0000
0000
3020
0000
,
1030
0000
1001
0000
0000
1000
0001
0000
,
0100
0010
0100
0000
0002
0000
0000
0023
,
0000
0230
1300
0110
,
0000
1000
0001
0000
0010
0001
0010
0000
,
0010
1000
0100
1000
0000
0001
0010
0000
,
0001
1000
0000
0000
1000
0100
0010
0001
,
0000
0000
1000
0010
0100
0001
0000
0000
,
2000
0000
0000
3020
0000
0000
0032
0000
,
0103
0000
2000
0000
0000
3020
0000
0130
,
0000
0010
1000
0000
0002
0000
0000
0023
,
0000
0230
1300
1100
,
0000
0010
1000
0000
0100
0001
0100
0000
,
0020
0000
0000
0032
0000
0000
2003
0000
,
3010
0000
0200
0000
0000
0320
0000
0000
,
2030
0000
3001
0000
0001
0100
0000
1001
,
0000
1010
1001
0101
,
0010
1000
0100
0010
0001
1000
0100
1000
,
0001
0000
0000
0000
0010
0100
0000
0011
,
0000
1100
0110
1010
,
1001
0000
0100
0001
0010
0001
0100
0000
,
0110
0000
0000
0001
0010
0000
1100
0000
,
1000
0010
0000
0110
0000
1001
0000
0000
,
0001
0010
0100
1000
0001
0000
1010
0000
,
0000
0000
0000
1000
0010
0000
1001
0000
,
0010
0100
0000
0011
0000
1010
0000
1000
,
0010
0000
0100
0010
1000
0000
1000
0000
,
0002
0000
0010
0010
,
0010
0000
0000
1000
0000
1000
0003
0000
,
0100
0010
2000
0000
,
0001
0000
0001
0000
0001
0000
0000
0100
,
0000
0100
3000
0000
1000
0000
0010
0000
,
0200
0000
0001
0001
,
0001
0000
0000
1000
0000
1000
0300
0000
,
0001
1000
0020
0000
,
0100
0000
0100
0000
0100
0000
0000
1030
,
0000
1000
0001
0100
0001
0010
0100
0000
,
1000
0010
0100
0010
1000
0001
0010
0100
,
1000
0001
0000
0100
0010
0100
0001
0100
,
0010
1000
0100
1000
0000
1000
0100
0010
,
0001
0100
0010
1000
0001
0010
0001
0000
,
0100
1000
0100
0010
0100
1000
0001
1000
,
0010
0000
0100
0001
0010
0001
0100
0010
,
1000
0001
0010
0100
0000
0100
1000
0010
,
0100
0001
0010
0001
0100
0010
0000
1000
,
0010
0100
0001
0010
0100
1000
0001
1000
,
0100
0000
0010
1000
0001
0100
0010
0100
,
0001
1000
0010
0000
2000
0000
0000
3001
,
0000
0000
0100
0010
0100
0000
1001
0000
,
0020
0000
0000
2030
0000
0000
3002
0000
,
0013
0000
2000
0000
0000
3001
0000
0010
,
0000
0001
0100
0000
0020
0000
0000
2030
,
0000
3002
0103
1010
,
0000
1000
0001
0000
0010
0001
0010
0000
,
0200
0000
0000
2300
0000
0000
3020
0000
,
0130
0000
1001
0000
0000
0010
0100
0000
,
0001
1000
0001
0000
1000
0010
0100
0001
,
0000
0001
0100
0000
0100
1000
0000
0000
,
0001
0010
0100
1000
0000
0000
0001
0100
,
0010
1000
0000
0000
0002
0000
0000
2003
,
0000
3200
1300
0020
,
0000
0130
0000
0001
0000
0010
0001
0000
,
2000
0000
0000
3200
0000
0000
0320
0000
,
0031
0000
1100
0000
0000
0010
0001
0000
,
1000
0010
1000
0000
0002
0000
0000
2003
,
0000
3200
1300
2000
,
0000
3020
0000
0000
2030
0000
3100
0000
,
0000
0000
0001
0100
0010
0100
0001
1000
,
0000
1000
0100
1000
0001
0010
0000
0000
,
0010
0001
0100
0010
0000
0000
0000
0000
,
0100
1000
0100
0010
0001
1000
0010
0100
,
0001
0010
0000
0010
0001
1000
0100
1000
,
0010
0100
0001
1000
0000
1000
0100
0010
,
0001
1000
0010
0100
0001
0010
0100
0000
,
0100
1000
0001
0010
0001
1000
0100
1000
,
0010
0000
0010
0001
1000
0100
1000
0001
,
0010
0100
1000
0001
0000
1000
0100
1000
,
0001
0100
0010
1000
0001
0100
0000
0100
,
0010
1000
0100
0010
0001
0010
0100
0010
,
0001
0000
0001
1000
0100
1000
0001
0010
,
1000
0002
0200
0000
0000
0000
0000
0000
,
0000
0000
0000
0000
,
0303
0000
0000
0000
;

//---------------dance-single - demicore----------------
#NOTEDATA:;
#CHARTNAME:Groove master;
#CHARTHASH:4167041024;
#STEPSTYPE:dance-single;
#BANNER:;
#DESCRIPTION:demicore;
#CHARTSTYLE:;
#DIFFICULTY:Hard;
#METER:18;
#METERF:0.000000;
#LASTSECONDHINT:122.781509;
#RADARVALUES:0.964873,1.293341,1.061817,0.870211,0.079836,846.000000,713.000000,133.000000,109.000000,0.000000,0.000000,0.000000,0.000000,0.000000,0.964873,1.293341,1.061817,0.870211,0.079836,846.000000,713.000000,133.000000,109.000000,0.000000,0.000000,0.000000,0.000000,0.000000;
#CREDIT:demicore;
#NOTES:
0000
0000
0000
0000
,
0000
0000
0000
0000
,
0000
0000
0000
0000
,
0000
0000
0000
0000
,
0000
0000
0000
0000
,
0000
0000
0000
0000
,
0000
0000
0000
0000
,
0000
0000
0000
0000
1001
1000
0010
0100
,
0001
0000
0011
0010
0001
1000
0100
1000
,
0010
0100
0001
0010
1000
0010
0001
1000
,
0100
1000
1001
0000
0110
1000
0001
0010
,
0101
0000
1010
0000
1001
0001
0010
0000
,
1000
0001
0010
0001
1000
0010
0100
0001
0010
0100
0000
0000
,
1001
0000
0010
0100
0001
0010
2000
0000
,
3002
0000
0013
0001
0100
0010
0000
0010
,
1000
0100
2000
0000
3020
0000
0130
0001
,
0010
0001
0000
0010
1000
0100
0020
0000
,
0230
0000
1300
0001
0010
0100
0000
0010
,
1000
0001
0020
0000
0032
0000
0103
0010
,
1000
0100
1000
0010
0010
0001
0100
0100
,
1000
0010
0100
0001
0000
0001
1000
1000
,
0010
0100
0001
1000
0100
1000
0000
0001
,
0010
0010
0001
0100
0100
0010
1000
1000
,
0001
0000
1000
0100
0100
0001
0010
0010
,
1000
0000
1001
0000
1010
0010
0100
0001
,
1000
0100
1000
0001
0010
1010
0000
1100
,
0100
1000
0001
0010
0100
1000
0001
0011
,
0000
1010
1000
0001
0100
0010
1000
0100
,
0010
0001
1100
0000
1001
0001
0010
1000
,
0100
0001
0110
0000
1001
0000
1100
1000
,
0001
0010
0100
0010
0001
1000
0100
1010
,
0000
0101
0001
0010
1000
0010
0100
0001
,
1000
1010
0000
0011
0001
1000
0100
1000
,
0010
0100
1000
0100
0011
0000
1010
1000
,
0001
0100
0010
1000
1100
0000
0011
0000
,
1000
0010
0000
0101
0000
0010
1000
0000
,
1100
0000
0001
0020
0001
0000
0100
0100
,
0000
1000
0000
0001
0001
0000
1000
0000
,
0100
0001
0100
1030
,
0000
1000
0001
0100
0010
0100
1000
0100
,
0010
1000
0001
1000
0100
0010
0001
0100
,
0010
1000
0001
0000
0000
0000
0000
0000
,
0000
0000
1000
0100
0010
0001
1010
0000
,
0001
0010
0100
1000
1010
0000
0100
0010
,
1000
0001
0011
0000
0001
0100
0010
1000
,
1100
0000
0000
1000
0100
0010
0001
0100
0010
1000
0100
0010
,
0001
0100
0010
1000
0100
0010
0001
0100
0010
1000
0100
0010
,
0001
0000
0000
0000
1000
1000
0010
0100
,
0001
0001
0010
0100
0010
0010
0001
0000
,
2002
0003
0000
3010
0000
0100
0001
0001
,
1000
1000
0010
0000
2002
0000
0003
0020
,
0000
3000
0200
0030
0002
0300
0020
0000
,
0003
0200
0030
2000
0300
0001
3001
0000
,
0202
0000
0003
0020
0300
0000
2000
0030
,
3100
0000
2002
3000
0000
0103
0010
0100
,
1000
0100
0001
0010
2002
0000
3000
0200
,
0000
0003
0020
0300
1030
0000
0220
0030
,
0000
0310
0001
0010
1000
0001
0010
0001
,
1010
0100
0000
0001
0000
0001
1000
0000
,
1000
0010
0101
0000
2010
0010
0000
3100
,
0000
0000
0102
0100
0000
0013
0000
0000
,
2200
0000
0300
0020
0000
3000
0200
0030
,
2000
0300
0020
0000
3000
0002
0030
0200
,
0003
0320
1030
0000
0202
0000
0300
0020
,
0000
0003
0200
0030
1300
0000
2020
3000
,
0000
0130
0100
0001
1000
0010
1000
0100
,
0022
0000
0030
2000
0000
0003
0020
3000
,
0130
0000
2002
0000
0003
0020
0000
3000
,
0200
0030
0301
0000
1010
1010
0000
0110
,
0000
0001
1001
0000
0011
0000
0110
0000
,
1000
1000
0001
0100
0010
0001
0010
0100
,
0001
0000
0000
0000
0011
0011
0000
1010
,
0000
0100
1001
0000
1010
0000
0101
0000
,
0110
0000
1000
0100
0010
0001
0100
0000
,
1001
0000
0000
0110
0110
0000
1001
0000
,
1100
0011
0000
1010
0000
0101
0100
0010
,
1000
0100
0001
0010
0100
1000
0011
0000
,
0000
0000
0000
1010
1001
0000
0110
0000
,
1100
0011
0000
0110
0000
1001
0000
0101
,
0011
0001
0010
0100
0010
0000
1010
0000
,
0102
0000
1000
1000
,
1000
0000
0023
0100
0000
0100
0001
0000
,
0001
0001
0230
0000
,
1000
0000
1000
0000
0001
0000
2300
0010
,
0000
0010
0001
0000
0100
0000
0100
0000
,
3002
0000
1000
1000
,
0100
0000
0000
0010
0000
0010
0010
0000
,
0100
0100
1000
0000
,
0010
0000
1000
0000
0100
0000
0000
1000
,
0000
1000
1000
0000
0010
0000
0013
0000
,
1001
1000
0010
0100
0010
1000
0001
0010
,
0001
0110
0000
1010
0100
0001
0010
1000
,
0100
0001
0100
1001
0000
0011
0100
1000
,
0100
0010
0001
1000
0010
0100
1001
0000
,
1010
1000
0001
0010
0001
0100
1000
0010
,
0101
0000
0110
0100
0001
1000
1000
0010
,
0100
0001
1000
1010
0000
0101
0001
0100
,
0010
1000
0100
1000
0001
0011
0000
1100
,
1000
0010
0001
0010
1000
0100
0001
0100
,
1010
0000
0110
0100
0001
1000
0100
0010
,
0001
0100
0110
0000
2000
0000
0000
3002
,
0000
1003
0100
1000
0001
0001
0010
0000
,
2020
0000
0030
0002
0000
3000
0200
0003
,
0020
0300
2000
0000
0030
0200
3000
0020
,
0300
0001
0031
0000
0220
0000
0030
0002
,
0000
0300
0020
0003
0130
0000
2020
0030
,
0000
3001
0010
0001
1000
0100
0010
0001
,
0022
0000
0030
0200
0000
0003
0020
0300
,
1030
0000
0022
0030
0000
0013
0100
0010
,
0001
1000
0010
0100
1001
0010
0000
0100
,
0000
0001
0010
0000
0100
1000
1001
0000
,
0120
0100
0000
0031
0000
0000
0210
0010
,
0000
1300
0000
0000
2002
0000
0003
0020
,
0000
3000
0200
0030
0002
0300
0020
0000
,
0003
2000
0030
0200
3000
0001
0301
0000
,
2200
0000
0300
0002
0000
3000
0020
0003
,
0130
0000
0202
0003
0000
0301
1000
0100
,
1000
0001
0010
0100
0202
0000
0003
2000
,
0000
0300
0020
3000
0031
0000
0220
0000
,
0300
2000
0000
0030
0002
3000
0103
0000
,
0000
0000
1100
1000
0001
0010
0100
0011
,
0000
1001
1000
0010
0100
0101
0000
0000
,
0011
0010
0100
1100
0000
0000
0000
0000
,
1001
1000
0100
1000
0010
0100
0001
0100
,
0001
1010
0000
0101
0001
1000
0100
0010
,
0001
1000
0010
1100
0000
0101
0100
0010
,
0100
1000
0100
0001
0100
0010
1001
0000
,
1010
1000
0100
0001
0010
1000
0001
0100
,
0110
0000
1010
1000
0001
0010
0001
1000
,
0100
0010
0001
0101
0000
0110
1000
0100
,
1000
0010
0001
0010
1000
1010
0000
1001
,
1000
0100
0001
0010
1000
0100
0001
0010
,
0110
0000
1001
0001
0010
1000
0100
0001
,
0010
1000
0220
0000
0000
0000
0000
0000
,
0000
0000
0000
0000
,
0330
0000
0000
0000
;
