#TITLE:Go Down (AndehX Remaster);
#SUBTITLE:;
#ARTIST:Alexander Brandon (Epic Games);
#TITLETRANSLIT:;
#SUBTITLETRANSLIT:;
#ARTISTTRANSLIT:;
#GENRE:;
#CREDIT:;
#MUSIC:godown.mp3;
#BANNER:godown.png;
#BACKGROUND:godown-bg.png;
#CDTITLE:;
#SAMPLESTART:14.407;
#SAMPLELENGTH:17.910;
#SELECTABLE:YES;
#OFFSET:-0.079;
#BPMS:0.000=134.000
,262.000=67.000
,263.000=134.000
,269.000=67.000
,270.000=134.000
,276.000=67.000
,277.000=134.000
,283.000=67.000
;
#STOPS:;
#DISPLAYBPM:134.000;
#BGCHANGES:;
#FGCHANGES:;

//--------------- dance-single - demicore ----------------
#NOTES:
     dance-single:
     demicore:
     Challenge:
     16:
     0,0,0,0,0:
0000
0000
0000
0000
,
0000
0000
0000
0000
,
0000
0000
0000
0000
,
0000
0000
0000
0000
,
1000
0000
0001
0000
0100
0000
0000
0010
0000
0000
1010
0000
0000
0010
0100
0001
,
0010
0000
0001
0000
0100
0000
0000
0001
0000
0000
0101
0000
0001
1000
0010
0100
,
0010
0000
1000
0000
0010
0000
0000
0100
0000
0000
1001
0000
0000
1000
0010
0100
,
0001
0000
1000
0000
0100
0000
0000
1000
0010
0100
0000
0001
1000
0000
1001
0000
,
0100
0000
0001
0000
0010
0000
0001
0100
0000
0001
1000
0000
0000
0010
0100
0010
,
1000
0000
0001
0000
0010
0000
0001
0100
0000
0010
1000
0000
0010
0100
0010
1000
,
0100
0000
0010
0000
0001
0000
1000
0100
0000
1000
0010
0000
0000
0100
0001
1000
,
0010
0000
0100
0000
0010
0000
1000
0001
0000
0010
0001
0000
0100
0010
1000
0010
,
0100
0000
0001
0000
1000
0000
0010
1000
0000
0010
0100
0000
0000
0001
0100
0001
,
0010
0000
0001
0000
1000
0000
0100
1000
0000
0001
0010
0000
0001
0100
0010
1000
,
0010
0000
0100
0000
0001
0000
1000
0001
0000
0010
0001
0000
0000
1000
0100
0010
,
0001
0000
0100
0000
0010
0000
1000
0001
0000
0100
0010
0100
0000
0001
1000
0010
,
2000
0000
0001
0000
0010
0000
0000
0001
0000
0000
0100
0000
0000
0000
0010
0000
,
0010
0000
0001
0000
0100
0000
0000
0001
0000
0000
0001
0000
0010
0000
0001
0000
,
3001
0000
0100
0000
0010
0000
1000
0001
0000
0010
0001
0000
0000
0100
0010
1000
,
0010
0000
0100
0000
0100
0000
0001
0010
0000
0100
1000
0000
0001
0100
0010
0100
,
0002
0000
0010
0000
0100
0000
0000
1000
0000
0000
0100
0000
0000
0000
0010
0000
,
0010
0000
1000
0000
0010
0000
0000
0100
0000
0000
0100
0000
1000
0000
1000
0000
,
0103
0000
0010
0000
1000
0000
0001
0100
0000
0001
0010
0000
0000
0001
1000
0100
,
0010
0000
0001
0000
1000
0000
0010
0100
0000
0001
0100
0000
0010
1000
0001
0010
,
0001
0000
0100
0000
0020
0000
0000
1000
0000
0000
0001
0000
0030
0000
0100
0010
,
1000
0000
0001
0000
0200
0000
0000
1000
0000
0000
0001
0000
0310
0000
1000
0001
,
0010
0000
0001
0000
0100
0000
0010
1000
0000
0100
1000
0000
0000
0001
0100
0010
,
0001
0000
0010
0000
1000
0000
0001
0100
0000
1000
0100
0000
0001
1000
0010
0100
,
0010
0000
1000
0000
0002
0000
0000
0010
0000
0000
1000
0000
0003
0000
0100
0010
,
1000
0000
0001
0000
2000
0000
0000
0001
0000
0000
0010
0000
3100
0000
0010
0001
,
1000
0000
0010
0000
0100
0000
0010
1000
0000
0001
1000
0000
0000
0010
0100
0001
,
0010
0000
0001
0000
1000
0000
0001
0010
0000
0001
0010
0000
0001
1000
0010
0100
,
0010
0000
0100
0001
1000
0001
0000
0100
0010
1000
0000
0001
0100
0000
0010
0100
,
0010
1000
0100
0000
1000
0010
0000
1000
0001
0000
0100
0001
0000
0010
0001
0100
,
0000
0000
0010
1000
0010
0100
0000
0001
1000
0001
0000
0010
0001
0000
0100
0010
,
0000
0000
1000
0010
0000
0010
0100
0000
0100
0001
0000
1000
0010
0100
0001
1000
,
0010
0000
0010
0000
0100
0001
0000
0000
0100
0010
0000
1000
0010
0000
0100
0001
,
0010
0000
0001
0000
1000
0001
0000
0000
0100
0010
0000
1000
0010
0000
0100
0001
,
1000
0000
0010
0000
0100
0010
0000
0000
1000
0001
0000
0010
0001
0000
0100
0001
,
0010
0000
0001
0000
1000
0010
0000
0000
0100
0001
0000
0001
1000
0000
0010
0100
,
0001
0001
1010
2000
0000
0001
3010
0000
,
0100
0010
1010
0002
0000
0010
0103
0000
,
0100
0010
1001
0020
0000
0100
1030
0000
,
0001
1000
0110
0200
0000
1000
0310
0000
,
0100
0000
0001
0000
0011
0000
0001
1000
0000
0010
1000
0000
1100
0000
0000
0000
,
1000
0000
0010
0000
0110
0000
0001
0100
0000
0001
1000
0000
1010
0000
0000
0000
,
0100
0000
0001
0000
1001
0000
1000
0010
0000
0100
0001
0000
0011
0000
0000
0000
,
0001
0000
0100
0000
0110
0000
1000
0010
0000
1000
0100
0000
1100
0000
0000
0000
,
1000
0010
0100
0000
0000
0000
0001
1000
0010
0000
0100
0000
0120
0000
0030
0000
,
0100
0001
1000
0000
0000
0000
0010
0100
0001
0000
1000
0000
2001
0000
3000
0000
,
0010
0100
0001
0000
0000
0000
1000
0001
0010
0000
0001
0000
0201
0000
0300
0000
,
0010
1000
0100
0000
0000
0000
1000
0010
0100
0000
0010
0000
0012
0000
0003
0000
,
0100
0010
1000
0010
0100
0000
0001
1000
0010
0000
0100
0000
0100
0000
0000
0000
,
0001
1000
0100
0010
0001
0000
1000
0010
0100
0000
0001
0000
0001
0000
0000
0000
,
0100
0010
1000
0010
0100
0000
0001
1000
0010
0000
1000
0000
1000
0000
0000
0000
,
0010
0100
1000
0100
0010
0000
0100
0001
1000
0000
0010
0000
0010
0000
0000
0000
,
2000
0000
0010
3002
0000
0103
0110
2000
,
3002
0000
0010
0203
0000
0010
0302
0000
,
2003
0000
0000
0000
3010
0000
0100
0001
0000
1000
0001
0100
0002
0000
0000
0000
,
2003
0000
0100
3020
0000
1000
0230
0000
,
0302
0000
0010
0203
0000
1000
0310
0002
,
2003
0000
0100
3020
0000
0100
0032
0000
,
0023
0000
0000
0000
0130
0000
0001
1000
0000
0100
1000
0100
0020
0000
0000
0000
,
0032
0000
0000
0000
1000
0000
0203
0000
0310
1000
0001
0010
0001
0100
0010
1000
,
0001
0000
0100
0000
0010
0000
1000
0100
0000
0010
0001
0000
0101
0000
0000
0000
,
0100
0000
0010
0000
1000
0000
0001
0100
0020
0000
0030
0000
0100
0000
0001
0000
,
1000
0000
0010
0100
0000
0001
1000
0000
0110
0000
0000
0000
0100
0000
0001
0000
,
1000
0000
0001
1000
0200
0000
0300
0000
1000
0000
0001
0000
0010
0000
0001
0100
,
0000
0010
1000
0000
1010
0000
0000
0000
0100
0000
0001
0000
1000
0000
0010
0100
,
0002
0000
0003
0000
0100
0000
0001
0000
1000
0000
0001
0010
0000
0100
1000
0000
,
0110
0000
0000
0000
0100
0000
0010
0000
0001
0000
0100
0010
2000
0000
3000
0000
;
