#TITLE:EGOISM 110;
#SUBTITLE:;
#ARTIST:BEMANI Sound Team "U1 Ground-Speed";
#TITLETRANSLIT:;
#SUBTITLETRANSLIT:;
#ARTISTTRANSLIT:;
#GENRE:;
#CREDIT:;
#BANNER:EGOISM 110.png;
#BACKGROUND:;
#LYRICSPATH:;
#CDTITLE:;
#MUSIC:EGOISM 110.ogg;
#OFFSET:-1.115000;
#SAMPLESTART:12.024000;
#SAMPLELENGTH:13.091000;
#SELECTABLE:YES;
#BPMS:0.000000=110.000000
;
#STOPS:
;
#BGCHANGES:;
#KEYSOUNDS:;
#ATTACKS:;

//---------------dance-single - demicore----------------
#NOTES:
     dance-single:
     :
     Beginner:
     9:
     0.367022,0.451386,0.085638,0.009515,0.142731,270.000000,261.000000,9.000000,1.000000,0.000000,0.000000,0.367022,0.451386,0.085638,0.009515,0.142731,270.000000,261.000000,9.000000,1.000000,0.000000,0.000000:
0000
0000
0000
0000
,
0000
0000
0000
0000
,
0000
0000
0000
0000
,
1000
1000
1000
0000
,
0001
0001
0001
0000
,
0001
0001
0001
0100
1000
1000
1000
0000
,
0001
0001
0100
0100
1000
1000
0001
0100
,
0010
0010
0001
0001
0010
0010
1000
1000
,
0010
0010
0001
0001
0010
0010
1000
1000
,
0001
0001
0001
0100
1000
1000
1000
0000
,
0001
0001
0100
0100
1000
1000
0001
0100
,
0010
0010
0001
0001
0010
0010
1000
1000
,
0010
0010
0001
0001
0010
0010
1000
1000
,
0010
0000
0010
0000
0010
0000
0000
0010
0000
0010
0000
0010
0000
0000
0100
0000
,
0000
0010
0010
0010
0010
0001
0001
0001
,
0000
0000
0010
0000
0010
0000
0010
0000
0100
0000
0100
0000
0100
0000
0100
0100
,
0000
1000
0000
0001
0000
1000
0000
0000
0000
0001
0000
1000
0000
0100
0000
0000
,
0010
0010
0001
0001
0010
0010
1000
1000
,
0010
0010
0001
0001
0010
0010
1000
1000
,
0001
0100
0010
1000
0010
0100
0001
0100
,
0010
1000
0010
0100
0001
1000
0100
0000
,
1001
0000
1000
0100
,
0001
1000
0100
0000
0010
0000
0100
0000
,
1000
0001
0100
0000
1000
0000
0100
0000
,
0001
0010
0001
0000
0010
0000
1000
0000
,
1000
1000
1000
0000
0001
0000
0100
0000
,
0100
0100
0010
0000
0001
0001
0010
0100
,
2000
0000
0000
3000
0010
0000
1000
0000
,
0001
0100
0010
0100
,
1000
0000
0100
0000
0001
0001
0000
0100
,
0100
0000
0100
0000
0100
0000
0000
0000
0000
1000
0000
1000
0000
0000
0000
0100
,
0000
0010
0000
0100
0000
0010
0000
0000
0000
0000
0000
0000
0000
0000
0000
0000
,
0000
0000
0000
0000
1001
0001
1000
0010
,
0100
0000
0010
0000
0100
0010
0100
0000
1001
0000
1000
0000
0001
0000
1000
0000
,
0001
0000
1000
0000
0010
0100
0010
0000
1001
0000
0001
0000
1000
0000
0001
0000
,
1000
0000
0001
0000
0100
0000
0100
0000
1001
0000
0000
0000
0001
1000
0001
0000
,
1001
0000
1001
0000
0000
0000
0000
0000
0001
1000
0001
1000
0000
0000
0100
0000
,
0010
0000
0100
0000
0010
0000
0100
0000
0000
0010
0001
0010
0001
0000
0010
0000
,
0010
0000
0010
0000
0100
0000
0100
0000
1000
0100
1000
0100
0000
0000
1000
0000
,
0001
0000
1000
0000
0010
0000
0010
0000
0000
0001
1000
0001
1000
0000
0100
0000
,
0010
0100
1000
0001
1000
0000
0001
0000
,
1000
0000
0001
0000
1000
0000
0000
1001
0000
0000
0001
0000
0010
0000
0000
0000
,
1000
0000
0010
0000
0000
0000
0001
0000
0010
0000
0000
0010
0000
0000
0000
0010
,
0000
1001
0000
0000
0000
0000
0000
0000
;

//---------------dance-single - demicore----------------
#NOTES:
     dance-single:
     :
     Easy:
     10:
     0.405083,0.482846,0.085638,0.038062,0.233127,298.000000,289.000000,9.000000,4.000000,0.000000,0.000000,0.405083,0.482846,0.085638,0.038062,0.233127,298.000000,289.000000,9.000000,4.000000,0.000000,0.000000:
0000
0000
0000
0000
,
0000
0000
0000
0000
,
0000
0000
0000
0000
,
1000
0100
0001
0000
,
0001
0100
1000
0000
,
0001
0000
0001
0000
0100
0001
0100
0000
1000
0000
1000
0000
0001
0000
1000
0000
,
0001
0000
1000
0000
0100
0010
0100
0000
1000
0000
1000
0000
0001
0000
0100
0000
,
0100
0010
0001
0010
0100
1000
0100
0010
,
0001
0010
0100
1000
0001
0100
0001
0001
,
1000
0000
0001
0000
0100
0010
0100
0000
1000
0000
1000
0000
0001
0000
0100
0000
,
0001
0000
0001
0000
0100
0010
0100
0000
1000
0000
1000
0000
0001
0000
0100
0000
,
0100
0010
0001
0010
0100
1000
0100
0010
,
0001
0010
0100
1000
0001
0100
0001
0000
,
0010
0000
0010
0000
0010
0000
0000
0010
0000
0001
0000
0100
0010
0100
0100
0000
,
0000
1000
1000
0010
0010
0001
0001
0001
,
0000
0000
0010
0000
1000
0000
0010
0000
0001
0000
0100
0000
1000
0000
0100
0100
,
0000
1000
0000
0001
0000
1000
0000
0001
0000
1000
0000
0001
0000
1000
0100
0000
,
0100
0100
0010
0001
0010
0100
1000
0100
,
0010
0001
0010
0100
1000
0001
0100
0001
,
1000
0100
0010
1000
0010
0100
0001
0100
,
0010
1000
0010
0100
0001
1000
0100
1000
,
2002
3003
1000
0100
,
0001
0000
0000
0001
0100
0000
0000
0000
0010
0000
0000
0000
0100
0000
0000
0000
,
1000
0000
0000
1000
0100
0000
0000
0000
1000
0000
0100
0000
0010
0000
0000
0000
,
0001
0001
0001
0000
0001
0010
0100
0000
,
1000
1000
1000
0000
0001
0010
0100
1000
,
1000
0100
0010
0001
0010
0001
0010
0100
,
1000
1000
1000
0100
0000
0000
0010
0000
0000
1000
0000
0000
,
0001
0000
0000
0001
0100
0000
0000
0000
0010
0000
0000
0000
0100
0000
0000
0000
,
1000
0000
0000
1000
0100
0000
0000
0000
0001
0100
0001
0100
0000
0000
0000
0000
,
0100
0000
0100
0000
0100
0000
0000
0000
0000
1000
0100
1000
0100
0000
0000
0000
,
0000
0100
0000
0100
0000
0100
0000
0000
0000
0000
0000
0000
0000
0000
0000
0000
,
0000
0000
0000
0000
1001
0001
1000
0010
,
0100
0000
0010
0000
0100
0010
0100
0000
1001
0000
1000
0000
0001
0000
1000
0000
,
0001
0000
1000
0000
0010
0100
0010
0000
1001
0000
0001
0000
1000
0000
0001
0000
,
1000
0000
0001
0000
0100
0000
0100
0000
1001
0000
0000
0000
0001
1000
0001
0000
,
1001
0000
1001
0000
0000
0000
0000
0000
0001
1000
0001
1000
0000
0000
0100
0000
,
0100
0000
0100
0000
0001
0000
1000
0000
0000
0010
0001
0010
0001
0000
0010
0100
,
0010
0100
0010
0000
0100
0000
0100
0000
1000
0100
1000
0100
0000
0000
1000
0001
,
1000
0001
1000
0000
0010
0000
0010
0000
0000
0001
1000
0001
1000
0000
0100
0010
,
0100
0010
0100
0000
0001
0000
0001
0000
1000
0000
0000
0000
0001
0000
0000
0000
,
1000
0000
0001
0000
1000
0000
0000
1001
0000
0000
0001
0000
0010
0000
0000
0000
,
1000
0000
0100
0000
0000
0000
0001
0000
0010
0000
0000
1000
0000
0000
0000
0100
,
0000
2002
0000
0000
0000
0000
0000
0000
,
0000
3003
0000
0000
0000
0000
0000
0000
;

//---------------dance-single - demicore----------------
#NOTES:
     dance-single:
     :
     Medium:
     13:
     0.596750,0.650793,0.104669,0.076123,0.804050,439.000000,428.000000,11.000000,8.000000,0.000000,0.000000,0.596750,0.650793,0.104669,0.076123,0.804050,439.000000,428.000000,11.000000,8.000000,0.000000,0.000000:
0000
0000
0000
0000
,
0000
0000
0000
0000
,
0000
0000
0000
0000
,
0001
0100
0001
1000
0100
1000
0100
0000
,
1000
0100
1001
0010
0001
1000
0100
0000
,
1000
0100
1000
0100
0000
0000
0010
0001
0010
0001
0100
0010
1000
0000
0110
0000
,
0000
0000
1000
0000
0100
0000
0010
0000
0001
0000
0000
0000
1000
0000
0100
0000
0010
0000
0100
0000
1000
0000
0100
0000
0001
0000
0100
0000
0001
0100
0000
0000
,
0001
0010
0001
1000
0001
0010
0001
1000
0100
0000
0001
0100
0000
0000
0000
0000
,
1000
0010
1000
0001
0010
0001
0010
0100
1000
0000
0001
0100
0000
0000
0000
0000
,
0001
0100
0001
0100
0000
0000
0010
1000
0010
1000
0100
0010
0110
0000
0011
0000
,
0000
0000
0001
0000
0100
0000
0010
0000
1000
0000
0000
0000
0001
0000
0100
0000
0010
0000
0100
0000
0001
0000
0100
0000
1000
0000
0100
0000
1000
0100
0000
0000
,
1000
0010
1000
0001
1000
0010
1000
0001
0100
0000
1000
0100
0000
0000
0000
0000
,
0001
0010
0001
1000
0010
1000
0010
0100
0001
0000
1000
0100
0000
0000
0000
0000
,
1000
0001
0100
0001
0100
0000
0000
0100
0010
1000
0001
0100
0001
0100
0001
0000
,
0000
0000
1000
0100
0010
0001
0000
0100
0010
0100
0010
1000
0001
0100
0001
0000
,
0000
0000
1000
0001
1000
0010
0000
0000
0001
1000
0010
1000
0010
0100
0010
1000
,
0000
0100
0010
0100
0010
0100
0000
0001
0010
0001
0010
1000
0100
1000
0100
0000
,
1000
0000
1000
0000
0001
0000
0001
0000
0100
0010
0100
0000
1000
0001
0100
0000
,
1000
0010
0100
0000
0001
0100
0001
0000
1000
0100
1000
0000
0100
0000
0001
0000
,
1000
0000
1000
0000
0001
0000
0001
0000
0100
0010
0100
0000
1000
0001
0100
0000
,
1000
0010
0100
0000
0001
0010
0001
0000
1000
0100
0010
0000
0001
0000
1000
0000
,
2002
0000
3003
0000
1000
0100
0010
0100
,
1000
0000
0000
0000
0000
0001
0000
0000
0100
0000
0010
0000
0001
0000
0200
0000
,
0000
0000
0000
0000
0310
0000
0000
0000
1000
0000
1000
0000
0001
0010
0001
0010
,
0001
1000
0100
0010
1000
0000
0000
0000
1000
0000
1000
0000
0001
1000
0001
1000
,
0001
1000
0010
0100
0001
0000
1000
0000
0100
0000
0010
0000
0001
0000
1000
0000
,
0100
0000
0010
0001
0100
1000
0100
0001
,
1000
0000
0000
0000
1000
0000
0000
0000
1000
0000
0000
0000
0100
0000
0000
0000
0000
0000
0000
0000
0000
0000
0000
0000
0001
0000
0000
0000
0000
0000
0001
0000
0000
0000
0000
0000
1000
0000
0000
0010
0000
0000
1000
0000
0000
0010
0000
0000
,
1000
0001
0100
0010
0001
0000
0000
0000
0001
0000
0001
0000
1000
0001
1000
0001
,
1000
0001
0010
0100
1000
0000
0000
0000
0001
0100
0001
0100
0000
0000
0001
0100
,
0001
0010
0100
1000
0010
0100
0000
0000
0000
0001
0010
0001
0010
0000
0001
0010
,
0001
0010
0001
0100
0010
1000
0000
0000
2002
0000
0000
0000
0000
0000
0000
0000
,
0000
0000
0000
0000
0000
0000
3003
0000
1001
0000
0001
0010
0001
0010
0001
1000
,
0000
0000
0001
0000
1000
0000
0001
0100
0101
0000
0100
0010
1000
0100
1000
0100
,
1000
0000
0001
0000
0100
0010
1000
0000
1001
0000
0010
0000
0100
0010
0100
0010
,
0000
0000
0000
0000
0000
0000
0010
0000
0000
0000
0000
0000
1000
0000
0000
0001
0000
0000
0100
0000
0000
0000
0000
0000
1001
0000
0000
0000
0000
0000
0010
0000
0000
0000
0000
0000
0001
0000
0010
0000
0001
0000
0010
0000
0001
0000
0010
0000
,
0001
0000
0200
0300
0000
0000
0000
0000
1000
0100
1000
0100
0000
0000
1000
0001
,
0100
0010
1000
0010
0100
0001
0010
0000
0000
0010
0001
0010
0001
0000
0010
0100
,
0010
0100
0010
0100
1000
0100
1000
0000
0010
0100
1000
0100
0000
0000
1000
0001
,
0100
0010
1000
0010
0100
0001
0010
0000
0000
0100
1000
0100
1000
0000
0001
0010
,
0100
0010
0100
0010
0001
0010
0100
0000
1000
0100
0000
0000
0001
0100
0000
0000
,
0001
0010
0100
1000
0100
0010
0100
0010
0000
0100
1000
0001
0100
0001
0000
0010
,
0100
1000
0100
1000
0000
0010
0100
0001
0100
0001
0000
0010
0001
0010
0000
0100
,
1000
0100
2002
0000
0000
0000
0000
0000
0000
0000
0000
0000
0000
0000
0000
0000
,
0000
3003
0000
0000
0000
0000
0000
0000
;

//---------------dance-single - demicore----------------
#NOTES:
     dance-single:
     :
     Hard:
     18:
     0.856384,1.154632,0.095154,0.133215,1.674707,630.000000,620.000000,10.000000,14.000000,0.000000,0.000000,0.856384,1.154632,0.095154,0.133215,1.674707,630.000000,620.000000,10.000000,14.000000,0.000000,0.000000:
0000
0000
0000
0000
,
0000
0000
0000
0000
,
0000
0000
0000
0000
,
0001
0000
0100
0001
0100
0000
0000
0000
1000
0010
1000
0010
1000
0000
0000
0000
1000
0000
0000
0000
0001
0000
0100
0000
0000
0000
0000
0000
0000
0000
0000
0000
,
1000
0000
0100
1000
0100
0000
0000
0000
0001
0010
0001
0010
0001
0000
0000
0000
0100
0000
0000
0000
0002
0000
0200
0000
0000
0000
0000
0000
0303
0000
0000
0000
,
1000
0000
0100
0000
1000
0000
0100
0000
1000
0000
0100
0000
0010
0000
0001
0000
0010
0000
0001
0000
0100
0000
0010
0000
1000
0010
0100
0010
0100
0010
1000
0000
,
0000
0000
1000
0000
0100
0000
0010
0000
0001
0000
0010
0000
0001
0000
0100
0000
0010
0000
0100
0000
0001
0000
0100
0000
1000
0000
0100
0000
0010
0100
0010
0100
,
0001
0000
0010
0000
0001
0000
1000
0000
0001
0000
0010
0000
0001
0000
1000
0010
1000
0000
0000
0000
0001
0000
0101
0000
0000
0000
0000
0000
0010
0100
0010
0100
,
0001
0000
0010
0000
0010
0000
1000
0000
1000
0000
0001
0000
0010
0000
0100
0010
1000
0000
0000
0000
0001
0000
0101
0000
0000
0000
1000
0000
0100
0000
0010
0000
,
0001
0100
0001
0100
0001
0100
0001
0100
0010
0100
0010
0100
0010
0100
0010
0100
1000
0100
1000
0100
1000
0100
1000
0100
0010
0000
0000
0000
0010
0000
0000
0000
,
0001
0100
0001
0100
0001
1000
0001
1000
0010
0100
0010
0100
1000
0100
1000
0100
0010
0100
0010
0100
0001
0100
0001
0100
0010
0000
0000
0000
0002
0000
0000
0000
,
0003
0000
1000
0000
0010
0000
1000
0000
0001
0000
1000
0000
0100
0000
1000
0000
0100
0000
0010
0000
0001
0000
0100
0000
0001
0000
1000
0010
0100
0010
0100
0010
,
1000
0000
0001
0000
1000
0000
0001
0000
1000
0000
0100
0000
1000
0000
0001
0000
0100
0000
0010
0000
0001
0000
0010
0000
0100
0000
0010
0000
0100
0010
0100
0010
,
0100
0000
0000
0000
0000
0000
0001
0000
0000
0000
0000
0000
0100
0000
0000
0000
0000
0000
0001
0000
0000
0000
0000
0000
0100
0000
0000
0000
0010
0000
0000
0000
0100
0000
0000
0000
0010
0000
0000
0000
0000
0000
0100
0000
0000
0000
0000
0000
0010
0000
0000
0000
0000
0000
1000
0000
0000
0000
0000
0000
0001
0000
0000
0000
0000
0000
0100
0000
0000
0000
0000
0000
0001
0000
0000
0010
0000
0000
0001
0000
0000
0000
0000
0000
0011
0000
0000
0000
0000
0000
0000
0000
0000
0000
0000
0000
,
0000
0000
0000
0000
0001
0000
0100
0000
0010
0000
1000
0010
0000
0000
0100
0000
0010
0000
0100
0000
0010
0000
0001
0000
1000
0000
0100
0000
1000
0000
0000
0000
,
0000
0000
0000
0000
0001
0000
1000
0000
0001
0000
0010
0000
0001
0100
0000
0000
0001
0000
1000
0000
0010
0000
1000
0000
0010
0100
0001
0010
0001
0000
1000
0000
,
0000
0100
0010
0100
0010
0100
0000
0001
0010
0001
0010
1000
0100
1000
0100
0000
,
1000
0000
0100
0000
0010
0000
0001
0000
0100
0000
0010
0000
0100
0000
0001
0000
0010
0001
0000
0000
0010
0001
0000
0000
0000
0000
0000
0000
0101
0000
0000
0000
,
1000
0000
0000
0010
0000
0000
0100
0000
0000
0010
0000
0000
0001
0000
0100
0000
0010
0000
1000
0000
0001
0000
0010
0000
0001
0000
0000
0000
0000
0000
0001
0000
0010
0000
0001
0000
0100
0000
0000
0000
0000
0000
0101
0000
0000
0100
0000
0000
,
0010
0000
0100
0000
0010
0000
1000
0000
0100
0000
0010
0000
0100
0000
1000
0000
0001
0100
0000
0000
1000
0100
0000
0000
0000
0000
1000
0000
0100
0000
0000
0000
,
0001
0000
0000
0010
0000
0000
0100
0000
0000
0010
0000
0000
1000
0000
0100
0000
0010
0000
0001
0000
1000
0000
0010
0000
1000
0000
0000
0000
0000
0000
0001
0000
0010
0000
0100
0000
1000
0000
0000
0000
0000
0000
1000
0000
0000
0000
0000
0000
,
2002
0000
0000
3003
1000
0100
0010
0100
,
2000
0000
0000
0000
0000
0001
0000
0000
3200
0000
0010
0000
0301
0000
0200
0000
,
0000
0000
0000
0000
0000
0000
0000
0000
0000
0000
0000
0000
0000
0000
0000
0000
0000
0000
0000
0000
0000
0000
0000
0000
0310
0000
0000
0000
0000
0000
0000
0000
0000
0000
0000
0000
0000
0000
0000
0000
0000
0000
0000
0000
0000
0000
0000
0000
1000
0000
0000
0100
0000
0000
1000
0000
0000
0100
0000
0000
1000
0000
0000
0000
0000
0000
0010
0000
0000
0000
0000
0000
0100
0000
0000
0000
0001
0000
0000
0000
0010
0000
0000
0000
0001
0000
0000
0000
0000
0000
0100
0000
0000
0000
0000
0000
,
0001
0000
0000
0000
0000
0000
1000
0000
0000
0000
0000
0000
0000
0000
0000
0000
0000
0000
0010
0000
0000
0000
0000
0000
1000
0000
0000
0000
0000
0000
0000
0000
0000
0000
0000
0000
0001
0000
0000
0000
0100
0000
0000
0000
0010
0000
0000
0000
1000
0000
0000
0100
0000
0000
1000
0000
0000
0100
0000
0000
1000
0000
0000
0000
0000
0000
0010
0000
0000
0000
0000
0000
0100
0000
0000
0000
0001
0000
0000
0000
0010
0000
0000
0000
0001
0000
0000
0000
0000
0000
0100
0000
0000
0000
0000
0000
,
0001
0000
0000
1000
0000
0000
0000
0000
0000
0010
0000
0000
1000
0000
0000
0000
0000
0000
0001
0000
0000
0000
0000
0000
0100
0000
0000
0000
0000
0000
0010
0000
0000
0000
0000
0000
1000
0000
0000
0000
0000
0000
0001
0000
1000
0000
0010
0000
,
0100
0010
0100
0001
0100
0100
0100
0001
,
1000
0000
0000
0000
0000
0000
0000
0000
0010
0000
0000
0000
0000
0000
0000
0000
0100
0000
0000
0000
0000
0000
0000
0000
0001
0000
0000
0000
0000
0000
0000
0000
0000
0000
0000
0000
0000
0000
0000
0000
0000
0000
0000
0000
0000
0000
0000
0000
0001
0000
0000
0010
0000
0000
0001
0000
0000
0010
0000
0000
0001
0000
0000
0000
0000
0000
0100
0000
0000
0000
0000
0000
0010
0000
0000
0000
1000
0000
0000
0000
0100
0000
0000
0000
1000
0000
0000
0000
0000
0000
0010
0000
0000
0000
0000
0000
,
1000
0000
0000
0000
0000
0000
0001
0000
0000
0000
0000
0000
0000
0000
0000
0000
0000
0000
0100
0000
0000
0000
0000
0000
0001
0000
0000
0000
0000
0000
0000
0000
0000
0000
0000
0000
0001
0000
0000
0000
0010
0000
0000
0000
0100
0000
0000
0000
1000
0000
0000
0010
0000
0000
1000
0000
0000
0010
0000
0000
1000
0000
0000
0000
0000
0000
0100
0000
0000
0000
0000
0000
0010
0000
0000
0000
0001
0000
0000
0000
0100
0000
0000
0000
0001
0000
0000
0000
0000
0000
0010
0000
0000
0000
0000
0000
,
0001
0000
0000
0000
0000
0000
1000
0000
0000
0000
0000
0000
0010
0000
0000
0000
0100
0000
0000
0000
0010
0000
0000
0000
1000
0000
0000
0100
0000
0000
1000
0000
0000
0100
0000
0000
1000
0000
0000
0000
0000
0000
0001
0000
0000
0000
0000
0000
0001
0000
0000
0000
0000
0000
0100
0000
0000
0000
0000
0000
0001
0000
0000
0000
0000
0000
0100
0000
0000
0000
0000
0000
0010
0000
0000
1000
0000
0000
0010
0000
0000
0000
0000
0000
0001
0000
0000
0000
0000
0000
0100
0000
0000
0000
0000
0000
,
0001
0010
0100
1000
0010
0100
0000
0000
0000
0001
0010
0001
0010
0000
0001
0010
,
0001
0010
0001
0100
0010
1000
0000
0000
2002
0000
0000
0000
0000
0000
0000
0000
,
0000
0000
0000
0000
0000
0000
0000
3003
0100
0000
0001
0010
0001
0010
0001
1000
,
0000
0000
1000
0000
0001
0000
1000
0010
0001
0000
0100
0010
1000
0010
1000
0010
,
0001
0000
0000
0000
1000
0000
0000
0000
0001
0100
0001
0000
1000
0000
0100
0000
1000
0000
0000
0000
0010
0000
0100
0000
0001
0000
0100
0000
0001
0000
0100
0000
,
0000
0000
0000
0000
0000
0000
0010
0000
0000
0000
0000
0000
1000
0000
0000
0001
0000
0000
0100
0000
0000
0001
0000
0000
0101
0000
0000
0000
0000
0000
0010
0000
0000
0100
0000
0000
0010
0000
1000
0000
0100
0000
0010
0000
0001
0000
0100
0000
,
0001
0000
0000
0000
0202
0000
0000
0000
0303
0000
0000
0000
0000
0000
0000
0000
0010
1000
0010
1000
0010
1000
0010
0000
0000
0000
1000
0000
0001
0100
0001
0100
,
0001
0100
0001
0100
0010
0100
0010
0100
0010
0100
0010
0100
0001
0000
0000
0000
0000
0010
0001
0010
0001
0100
0001
0100
0010
0100
0010
0100
1000
0100
1000
0100
,
0010
0100
0010
0100
0001
0100
0001
0100
0000
0000
0000
0000
0001
0000
0000
0000
0010
0100
0010
0100
0010
0100
0010
0100
0001
0010
0001
0010
0001
0100
0010
0100
,
0010
0100
0010
0100
0001
0100
0001
0100
0001
0000
0000
0000
1000
0000
0000
0000
0001
1000
0010
0100
0010
1000
0100
0010
0001
0100
0001
0010
0100
1000
0100
0010
,
0100
1000
0001
0010
0100
1000
0010
1000
0100
0000
0010
0000
0100
0000
0010
0000
1000
0100
1000
0000
0000
0000
0000
0000
0001
0010
0001
0000
0000
0000
0000
0000
,
0001
0010
0100
0001
0100
0010
0100
1000
0000
0010
0100
0001
0100
0001
0000
0010
,
0100
0000
0001
0000
0100
0000
1000
0000
0000
0000
1000
0000
0100
0000
0001
0000
0100
0000
1000
0000
0000
0000
0001
0010
0001
0010
0000
0000
0000
1000
0100
1000
,
0100
1000
2002
0000
0000
0000
0000
0000
0000
0000
0000
0000
0000
0000
0000
0000
,
0000
3003
0000
0000
0000
0000
0000
0000
;

//---------------dance-single - demicore----------------
#NOTES:
     dance-single:
     :
     Challenge:
     19:
     1.125534,1.358083,0.161761,0.066608,2.478757,828.000000,811.000000,17.000000,7.000000,0.000000,0.000000,1.125534,1.358083,0.161761,0.066608,2.478757,828.000000,811.000000,17.000000,7.000000,0.000000,0.000000:
// measure 0
0000
0000
0000
0000
,  // measure 1
0000
0000
0000
0000
,  // measure 2
0000
0000
0000
0000
,  // measure 3
0001
0000
0010
0001
0010
0000
0000
0000
1000
0100
1000
0100
1000
0000
0000
0000
1000
0000
0000
0000
0001
0000
0010
0000
0000
0000
0000
0000
0001
0000
0000
0000
,  // measure 4
1000
0000
0010
1000
0010
0000
0000
0000
0001
0100
0001
0100
0001
0000
0000
0000
0010
0000
0000
0000
0002
0000
0020
0000
0000
0000
0000
0000
0033
0000
0000
0000
,  // measure 5
0001
0000
0010
0000
0001
0000
1000
0100
1000
0000
0010
0000
0100
0000
0001
0010
0100
0000
1000
0000
0010
0000
0100
0000
0001
1000
0100
1000
0001
0100
0001
0000
,  // measure 6
1000
0000
0001
0000
0010
0000
0100
1000
0001
0000
0100
0000
0001
0000
0010
0000
0100
0000
0010
0000
0001
0000
0100
0010
1000
0000
0010
0000
0100
0010
0100
0000
,  // measure 7
0001
0100
0001
0000
1000
0010
1000
0000
0001
1000
0001
0000
0010
0000
0001
0100
0010
0000
1000
0001
0100
0000
0010
0000
1000
0001
1000
0000
0100
0010
0100
0010
,  // measure 8
0001
0000
0100
0001
0100
0000
0010
0100
0001
0000
1000
0001
0100
0000
0010
0100
0001
0000
0010
0001
1000
0000
0001
0000
0000
0000
1000
0000
0010
1000
0100
0010
,  // measure 9
0001
0010
0001
0100
0001
0010
0001
1000
0100
0010
0001
0010
0100
1000
0001
0010
0100
0010
0001
1000
0001
0010
0001
0010
0100
0010
0001
0010
0100
1000
0100
0010
,  // measure 10
0001
1000
0001
0010
0001
1000
0001
1000
0100
0010
0001
0010
0100
1000
0001
0010
0100
1000
0100
0010
0001
0010
0001
1000
0100
0010
0001
0010
0001
0100
0001
1000
,  // measure 11
0001
0000
0100
0010
0100
0000
0001
0000
0010
0000
0001
1000
0010
0000
1000
0000
0010
0100
0010
0001
1000
0000
0001
0000
1000
0000
0001
0100
0010
1000
0010
1000
,  // measure 12
0001
0100
0001
0000
1000
0010
1000
0000
0001
0100
0010
0000
1000
0010
0100
0000
0001
1000
0001
0000
1000
0010
0100
0000
0001
0000
0010
0000
0100
1000
0100
0000
,  // measure 13
1000
0000
0000
0000
0000
0000
0000
0000
0000
0000
0000
0000
0001
0000
0000
0000
0000
0000
0000
0000
0000
0000
0000
0000
0010
0000
0000
0000
0000
0000
0000
0000
0000
0000
0000
0000
0001
0000
0000
0000
0000
0000
0000
0000
0000
0000
0000
0000
0010
0000
0000
0000
0000
0000
0000
0000
0100
0000
0000
0000
0000
0000
0000
0000
1000
0000
0000
0000
0000
0000
0000
0000
0001
0000
0000
0000
0000
0000
0000
0000
0000
0000
0000
0000
0110
0000
0000
0000
0000
0000
0000
0000
0000
0000
0000
0000
0110
0000
0000
0000
0000
0000
0000
0000
0000
0000
0000
0000
1000
0000
0000
0000
0000
0000
0000
0000
0000
0000
0000
0000
0001
0000
0000
0000
0000
0000
0000
0000
0000
0000
0000
0000
0010
0000
0000
0000
0000
0000
0100
0000
0000
0000
0000
0000
0001
0000
0000
0000
0000
0000
0100
0000
0000
0000
0000
0000
0001
0000
0000
0000
0000
0000
0000
0000
0000
0000
0000
0000
0101
0000
0000
0000
0000
0000
0000
0000
0000
0000
0000
0000
0000
0000
0000
0000
0000
0000
0000
0000
0000
0000
0000
0000
,  // measure 14
0000
0000
0000
1000
0001
0000
0010
0000
0100
0000
1000
0100
0000
0000
0010
0001
0100
0000
0010
1000
0100
0000
0010
0000
0001
0000
0010
0000
1001
0000
0000
0000
,  // measure 15
0000
0000
0000
0000
0000
0000
0000
0000
0000
0000
0000
0000
0000
0000
0000
0000
0000
0000
0010
0000
0000
0000
0000
0000
1000
0000
0000
0000
0000
0000
0000
0000
0000
0000
0000
0000
0001
0000
0000
0000
0000
0000
0000
0000
0000
0000
0000
0000
1000
0000
0000
0000
0000
0000
0000
0000
0000
0000
0000
0000
0100
0000
0000
0000
0000
0000
0000
0000
0000
0000
0000
0000
1000
0000
0000
0000
0000
0000
0000
0000
0010
0000
0000
0000
0000
0000
0000
0000
1000
0000
0000
0000
0000
0000
0000
0000
0010
0000
0000
0000
0000
0000
0000
0000
0000
0000
0000
0000
1000
0000
0000
0000
0000
0000
0000
0000
0000
0000
0000
0000
0100
0000
0000
0000
0000
0000
0000
0000
0000
0000
0000
0000
1000
0000
0000
0000
0000
0000
0000
0000
0000
0000
0000
0000
0100
0000
0000
0000
0000
0000
0010
0000
0000
0000
0000
0000
0001
0000
0000
0000
0000
0000
0100
0000
0000
0000
0000
0000
0001
0000
0000
0000
0000
0000
0000
0000
0000
0000
0000
0000
0101
0000
0000
0000
0000
0000
0000
0000
0000
0000
0000
0000
,  // measure 16
0000
1000
0010
1000
0100
0000
0010
0000
0100
0000
0110
0000
0000
1000
0001
1000
0100
0000
0001
0000
0100
0001
1000
0000
0010
0000
1000
0000
0010
0000
0000
0000
,  // measure 17
1000
0001
0010
0000
0100
1000
0001
0000
0010
0000
0100
1000
0010
0000
1000
0000
0100
0000
1000
0100
0000
0000
0001
0100
0010
0000
0001
0000
0010
0100
0000
0000
,  // measure 18
1000
0000
0000
0000
0000
0000
0000
0000
0000
0000
0000
0000
0100
0000
0000
0000
0000
0000
0000
0000
0000
0000
0000
0000
0010
0000
0000
0000
0000
0000
0000
0000
0000
0000
0000
0000
0100
0000
0000
0000
0000
0000
0000
0000
0000
0000
0000
0000
1000
0000
0000
0000
0000
0000
0000
0000
0010
0000
0000
0000
0000
0000
0000
0000
0100
0000
0000
0000
0000
0000
0000
0000
0001
0000
0000
0000
0000
0000
0000
0000
1000
0000
0000
0000
0000
0000
0000
0000
0100
0000
0000
0000
0000
0000
0000
0000
1000
0000
0000
0000
0000
0000
0000
0000
0000
0000
0000
0000
0000
0000
0000
0000
0000
0000
0001
0000
0000
0000
0000
0000
1000
0000
0000
0000
0000
0000
0000
0000
0100
0000
0000
0000
0000
0000
0000
0000
1000
0000
0000
0000
0000
0000
0000
0000
0010
0000
0000
0000
0000
0000
0000
0000
0000
0000
0000
0000
0100
0000
0000
0000
0000
0000
0000
0000
0000
0000
0000
0000
0001
0000
0000
0000
0000
0000
1000
0000
0000
0000
0000
0000
0010
0000
0000
0000
0000
0000
0000
0000
0000
0000
0000
0000
,  // measure 19
1000
0000
0010
0000
0100
0000
0001
0000
0010
0000
0100
1000
0010
0000
1000
0000
0001
0100
0001
0000
1000
0010
0100
0000
0010
0000
1000
0000
0010
0100
0010
0000
,  // measure 20
1000
0000
0000
0100
0000
0000
0010
0000
0000
0100
0000
0000
1000
0000
0010
0000
0100
0000
0001
0000
1000
0000
0100
0000
1000
0000
0000
0010
0000
0000
1000
0000
0100
0000
0010
0000
0001
0000
0000
0100
0000
0000
1001
0000
0000
0000
0000
0000
,  // measure 21
2000
0000
0000
0000
0000
0000
0000
0000
0000
0000
0000
0000
0000
0000
0000
0000
0000
0000
0020
0000
0000
0000
0000
0000
3000
0000
0000
0000
0000
0000
0000
0000
0000
0000
0000
0000
0000
0000
0000
0000
0000
0000
0000
0000
0000
0000
0000
0000
0230
0000
0000
0000
0000
0000
0000
0000
0000
0000
0000
0000
0000
0000
0000
0000
0000
0000
0000
0000
0000
0000
0000
0000
0301
0000
0000
0000
0000
0000
0000
0000
0000
0000
0000
0000
0000
0000
0000
0000
0000
0000
0000
0000
0000
0000
0000
0000
1000
0000
0000
0000
0000
0000
0000
0000
0010
0000
0000
0000
0000
0000
0000
0000
0000
0000
0000
0000
0000
0000
0000
0000
0010
0000
0000
0000
0000
0000
0000
0000
0100
0000
0000
0000
0000
0000
0000
0000
0000
0000
0000
0000
0000
0000
0000
0000
0100
0000
0000
0000
0000
0000
0000
0000
0001
0000
0000
0000
0000
0000
0000
0000
0000
0000
0000
0000
0000
0000
0000
0000
0010
0000
0000
0000
0000
0000
0000
0000
0100
0000
0000
0000
0000
0000
0000
0000
0000
0000
0000
0000
0000
0000
0000
0000
,  // measure 22
1000
0000
0010
0000
0000
0000
1000
0000
0000
0100
0000
0000
0010
0000
0000
0001
0000
0000
0100
0000
0000
0001
0000
0000
0010
0000
0100
0000
0000
0000
0100
0000
0001
0000
0000
0000
0001
0000
0010
0000
0000
0000
0010
0000
1000
0000
0000
0000
,  // measure 23
0001
0000
0000
0000
0000
0000
0000
0000
0000
0000
0000
0000
0000
0000
0000
0000
1000
0000
0000
0000
0000
0000
0000
0000
0000
0000
0000
0000
0000
0000
0000
0000
1000
0000
0000
0000
0000
0000
0000
0000
0000
0000
0000
0000
0000
0000
0000
0000
0110
0000
0000
0000
0000
0000
0000
0000
0000
0000
0000
0000
0000
0000
0000
0000
0000
0000
0000
0000
0000
0000
0000
0000
0001
0000
0000
0000
0000
0000
0000
0000
0000
0000
0000
0000
0100
0000
0000
0000
0000
0000
0000
0000
0000
0000
0000
0000
1000
0000
0000
0000
0000
0000
0010
0000
0000
0000
0000
0000
1000
0000
0000
0000
0000
0000
0010
0000
0000
0000
0000
0000
1000
0000
0000
0000
0000
0000
0000
0000
0000
0000
0000
0000
0100
0000
0000
0000
0000
0000
0000
0000
0000
0000
0000
0000
0010
0000
0000
0000
0000
0000
0000
0000
0001
0000
0000
0000
0000
0000
0000
0000
0100
0000
0000
0000
0000
0000
0000
0000
0001
0000
0000
0000
0000
0000
0000
0000
0000
0000
0000
0000
0010
0000
0000
0000
0000
0000
0000
0000
0000
0000
0000
0000
,  // measure 24
0001
0000
0000
0000
0000
0000
0000
0000
0000
0000
0000
0000
1000
0000
0000
0000
0000
0000
0000
0000
0000
0000
0000
0000
0010
0000
0000
0000
0100
0000
0000
0000
0010
0000
0000
0000
0100
0000
0000
0000
0000
0000
0000
0000
0000
0000
0000
0000
1000
0000
0000
0000
0000
0000
0000
0000
0000
0000
0000
0000
0010
0000
0000
0000
0000
0000
0000
0000
0000
0000
0000
0000
1000
0000
0000
0000
0000
0000
0000
0000
0010
0000
0000
0000
0000
0000
0000
0000
0100
0000
0000
0000
0000
0000
0000
0000
0001
0000
0000
0000
0000
0000
0010
0000
0000
0000
0000
0000
0001
0000
0000
0000
0000
0000
0010
0000
0000
0000
0000
0000
0001
0000
0000
0000
0000
0000
0000
0000
0000
0000
0000
0000
0100
0000
0000
0000
0000
0000
0000
0000
0000
0000
0000
0000
0010
0000
0000
0000
0000
0000
0000
0000
1000
0000
0000
0000
0000
0000
0000
0000
0100
0000
0000
0000
0000
0000
0000
0000
1000
0000
0000
0000
0000
0000
0000
0000
0000
0000
0000
0000
0010
0000
0000
0000
0000
0000
0000
0000
0000
0000
0000
0000
,  // measure 25
1000
0000
0000
0001
0000
0000
0010
0100
0010
0100
0000
0000
0001
0000
0000
0010
0000
0000
0001
0000
0000
1000
0000
0000
0010
0000
0000
1000
0000
0000
0100
0000
0000
1000
0000
0000
0001
0000
0000
0000
0000
0000
0001
1000
0001
0000
0100
0000
,  // measure 26
0010
0000
0000
0000
0010
0000
0000
0000
0100
0001
0010
0001
1000
0000
0010
0000
1000
0000
0000
0100
0001
0000
0000
0100
0010
0000
0000
0100
0001
0000
0000
0010
,  // measure 27
1000
0000
0000
0000
0000
0000
0000
0000
0000
0000
0000
0000
0000
0000
0000
0000
0100
0000
0000
0000
0000
0000
0000
0000
0000
0000
0000
0000
0000
0000
0000
0000
0010
0000
0000
0000
0000
0000
0000
0000
0000
0000
0000
0000
0000
0000
0000
0000
0001
0000
0000
0000
0000
0000
0000
0000
0000
0000
0000
0000
0100
0000
0000
0000
0000
0000
0000
0000
0000
0000
0000
0000
0001
0000
0000
0000
0000
0000
0000
0000
0000
0000
0000
0000
0010
0000
0000
0000
0000
0000
0000
0000
0000
0000
0000
0000
0001
0000
0000
0000
0000
0000
0100
0000
0000
0000
0000
0000
0001
0000
0000
0000
0000
0000
0100
0000
0000
0000
0000
0000
0001
0000
0000
0000
0000
0000
0000
0000
0000
0000
0000
0000
0010
0000
0000
0000
0000
0000
0000
0000
0000
0000
0000
0000
0100
0000
0000
0000
0000
0000
0000
0000
1000
0000
0000
0000
0000
0000
0000
0000
0010
0000
0000
0000
0000
0000
0000
0000
1000
0000
0000
0000
0000
0000
0000
0000
0000
0000
0000
0000
0100
0000
0000
0000
0000
0000
0000
0000
0000
0000
0000
0000
,  // measure 28
1000
0000
0000
0000
0000
0000
0000
0000
0000
0000
0000
0000
0001
0000
0000
0000
0000
0000
0000
0000
0000
0000
0000
0000
0100
0000
0000
0000
0010
0000
0000
0000
0100
0000
0000
0000
0010
0000
0000
0000
0000
0000
0000
0000
0000
0000
0000
0000
0001
0000
0000
0000
0000
0000
0000
0000
0000
0000
0000
0000
0000
0000
0000
0000
0000
0000
0000
0000
0000
0000
0000
0000
0001
0000
0000
0000
0000
0000
0000
0000
0100
0000
0000
0000
0000
0000
0000
0000
0010
0000
0000
0000
0000
0000
0000
0000
1000
0000
0000
0000
0000
0000
0100
0000
0000
0000
0000
0000
1000
0000
0000
0000
0000
0000
0100
0000
0000
0000
0000
0000
1000
0000
0000
0000
0000
0000
0000
0000
0000
0000
0000
0000
0010
0000
0000
0000
0000
0000
0000
0000
0000
0000
0000
0000
0100
0000
0000
0000
0000
0000
0000
0000
0001
0000
0000
0000
0000
0000
0000
0000
0010
0000
0000
0000
0000
0000
0000
0000
0001
0000
0000
0000
0000
0000
0000
0000
0000
0000
0000
0000
0100
0000
0000
0000
0000
0000
0000
0000
0000
0000
0000
0000
,  // measure 29
0001
0000
0000
0000
0000
0000
0000
0000
0000
0000
0000
0000
1000
0000
0000
0000
0000
0000
0000
0000
0000
0000
0000
0000
0100
0000
0000
0000
0010
0000
0000
0000
0100
0000
0000
0000
0010
0000
0000
0000
0000
0000
0000
0000
0000
0000
0000
0000
0001
0000
0000
0000
0000
0000
1000
0000
0000
0000
0000
0000
0001
0000
0000
0000
0000
0000
0010
0000
0000
0000
0000
0000
0001
0000
0000
0000
0000
0000
0000
0000
0000
0000
0000
0000
1000
0000
0000
0000
0000
0000
0000
0000
0000
0000
0000
0000
0001
0000
0000
0000
0000
0000
0000
0000
0000
0000
0000
0000
0010
0000
0000
0000
0000
0000
0000
0000
0000
0000
0000
0000
0001
0000
0000
0000
0000
0000
0000
0000
0000
0000
0000
0000
0010
0000
0000
0000
0000
0000
0000
0000
0000
0000
0000
0000
0100
0000
0000
0000
1000
0000
0000
0000
0100
0000
0000
0000
1000
0000
0000
0000
0000
0000
0000
0000
0000
0000
0000
0000
0001
0000
0000
0000
0000
0000
0000
0000
0000
0000
0000
0000
0010
0000
0000
0000
0000
0000
0000
0000
0000
0000
0000
0000
,  // measure 30
0001
0000
0000
0100
0000
0000
0010
0000
0000
1000
0000
0000
0100
0000
0000
0010
0000
0000
0000
0000
0000
0000
0000
0000
0000
0000
0000
0001
0000
0000
0100
0000
0000
0001
0000
0000
0100
0010
0100
0000
0010
0000
1000
0000
0000
0100
0000
0000
,  // measure 31
1000
0100
1000
0010
0100
0001
0000
0000
1001
0000
0000
0000
0000
0000
0000
0000
,  // measure 32
0001
0000
0000
0000
0000
0000
0000
0000
0000
0000
0000
0000
0000
0000
0000
0000
0000
0000
0000
0000
0000
0000
0000
0000
0010
0000
0000
0000
0000
0000
0000
0000
0000
0000
0000
0000
0000
0000
0000
0000
0000
0000
0000
0000
0000
0000
0000
0000
1000
0000
0000
0000
0000
0000
0000
0000
0000
0000
0000
0000
0010
0000
0000
0000
0000
0000
0000
0000
0000
0000
0000
0000
1000
0000
0000
0000
0000
0000
0000
0000
0000
0000
0000
0000
1001
0000
0000
0000
0000
0000
0000
0000
0000
0000
0000
0000
0100
0000
0000
0000
0000
0000
0000
0000
0000
0000
0000
0000
1000
0000
0000
0000
0000
0000
0000
0000
0000
0000
0000
0000
0100
0000
0000
0000
0000
0000
0010
0000
0000
0000
0000
0000
0100
0000
0000
0000
0000
0000
0000
0000
0000
0000
0000
0000
0001
0000
0000
0000
0000
0000
0000
0000
0000
0000
0000
0000
0100
0000
0000
0000
0000
0000
0000
0000
0000
0000
0000
0000
0001
0000
0000
0000
0000
0000
0000
0000
0000
0000
0000
0000
1000
0000
0000
0000
0000
0000
0000
0000
0010
0000
0000
0000
,  // measure 33
0000
0000
0000
0000
1000
0000
0000
0000
0000
0000
0000
0000
0001
0000
0000
0000
0000
0000
0000
0000
0000
0000
0000
0000
0100
0000
0000
0000
0000
0000
0000
0000
0000
0000
0000
0000
0010
0000
0000
0000
0000
0000
0000
0000
0000
0000
0000
0000
1000
0000
0000
0000
0000
0000
0000
0000
0000
0000
0000
0000
0100
0000
0000
0000
0000
0000
0000
0000
0000
0000
0000
0000
1000
0000
0000
0000
0000
0000
0000
0000
0000
0000
0000
0000
0010
0000
0000
0000
0000
0000
0000
0000
0000
0000
0000
0000
1000
0000
0000
0000
0000
0000
0001
0000
0000
0000
0000
0000
1000
0000
0000
0000
0000
0000
0000
0000
0000
0000
0000
0000
0010
0000
0000
0000
0000
0000
0000
0000
0000
0000
0000
0000
0100
0000
0000
0000
0000
0000
0000
0000
0000
0000
0000
0000
1000
0000
0000
0000
0000
0000
0001
0000
0000
0000
0000
0000
0100
0000
0000
0000
0000
0000
0000
0000
0000
0000
0000
0000
0001
0000
0000
0000
0000
0000
0100
0000
0000
0000
0000
0000
0001
0000
0000
0000
0000
0000
0000
0000
0000
0000
0000
0000
,  // measure 34
1000
0010
1000
0000
0001
0010
0001
0000
1000
0010
0100
0001
0100
0000
0001
1000
1001
0000
1000
0000
0001
0000
0100
0000
0001
0100
0001
0100
0001
1000
0001
0000
,  // measure 35
0010
0000
0000
0000
0000
0000
0000
0000
0000
0000
0000
0000
0001
0000
0000
0000
0000
0000
0100
0000
0000
0000
0000
0000
0001
0000
0000
0000
0000
0000
0000
0000
0000
0000
0000
0000
1000
0000
0000
0000
0000
0000
0000
0000
0000
0000
0000
0000
0001
0000
0000
0000
0000
0000
0010
0000
0000
0000
0000
0000
0001
0000
0000
0000
0000
0000
0000
0000
0000
0000
0000
0000
0010
0000
0000
0000
0000
0000
0000
0000
0000
0000
0000
0000
0001
0000
0000
0000
0000
0000
0000
0000
0000
0000
0000
0000
0011
0000
0000
0000
0000
0000
0000
0000
0000
0000
0000
0000
1000
0000
0000
0000
0000
0000
0000
0000
0000
0000
0000
0000
0100
0000
0000
0000
0000
0000
0000
0000
0000
0000
0000
0000
0010
0000
0000
0000
0000
0000
0000
0000
0000
0000
0000
0000
0100
0000
0000
0000
0000
0000
0000
0000
1000
0000
0000
0000
0000
0000
0000
0000
0010
0000
0000
0000
0000
0000
0000
0000
0100
0000
0000
0000
0000
0000
0000
0000
0001
0000
0000
0000
0000
0000
0000
0000
0010
0000
0000
0000
0000
0000
0000
0000
,  // measure 36
0001
0100
0010
0100
0000
0000
0000
0000
0000
0000
0000
0000
0110
0000
0000
0000
0001
0010
0001
0010
0001
1000
0001
1000
0100
0010
0100
0010
0001
0010
0001
0010
,  // measure 37
0100
0010
0100
0010
0001
0010
0001
0010
0100
0010
0100
0010
0100
1000
0100
1000
0100
1000
0001
1000
0001
0010
0001
0010
0100
0010
0100
0010
0001
1000
0001
1000
,  // measure 38
0100
0000
0010
0000
0100
0000
0010
0000
0001
0000
0010
0000
0001
0000
0010
0000
0100
0000
0010
0000
0100
0000
0010
0000
0001
0000
0100
0000
0010
0100
0010
0000
0000
0000
1000
0000
0010
0000
0100
0000
0001
0000
0010
0000
0100
0000
1000
0000
0001
0000
0100
0000
0010
0000
1000
0000
0010
0000
1000
0000
0100
0000
0010
0000
,  // measure 39
0001
0000
0010
0000
0100
0000
0010
0000
0100
0000
1000
0000
0100
0000
0010
0000
0001
0000
0100
0000
0010
0000
0100
0000
0001
0000
1000
0000
0100
1000
0100
0000
0000
0000
1000
0000
0001
0000
0010
0000
0100
0000
0010
0000
0001
0000
0100
0000
0010
0000
1000
0000
0100
0000
1000
0000
0010
0000
0100
0000
0001
0000
0100
0000
,  // measure 40
0010
0100
0001
1000
0010
0100
0001
0010
0001
0100
0010
1000
0001
0100
0001
0000
1000
0100
1000
0000
0000
0000
0000
0100
0010
0100
1000
0000
0000
0000
0000
0100
,  // measure 41
0001
0000
0100
0000
0010
0000
0001
0000
0010
0000
0100
0000
0010
0000
0110
0000
0000
0001
0100
0000
0010
0000
1000
0000
0010
0000
0011
0000
0000
1000
0100
0000
,  // measure 42
0010
0000
0001
0000
0010
0000
1001
0000
0000
0100
1000
0000
0010
0000
0001
0000
0010
0000
1000
0000
0000
0010
0001
0100
0001
0100
0010
0000
0000
1000
0010
1000
,  // measure 43
0010
0000
0100
0000
2002
0000
0000
0003
3000
0000
0000
0000
0000
0000
0000
0000
0000
0000
0000
0000
0000
0000
0000
0000
0000
0000
0000
0000
0000
0000
0000
0000
;
