#TITLE:Discussion -HEAT UP- NecroDancer REMIX;
#SUBTITLE:;
#ARTIST:Masafumi Takada;
#TITLETRANSLIT:;
#SUBTITLETRANSLIT:;
#ARTISTTRANSLIT:;
#GENRE:;
#CREDIT:;
#MUSIC:Discussion -HEAT UP- NecroDancer REMIX.mp3;
#BANNER:d-bn.png;
#BACKGROUND:d-bg.png;
#CDTITLE:;
#SAMPLESTART:90.922;
#SAMPLELENGTH:15.429;
#SELECTABLE:YES;
#OFFSET:-0.065;
#BPMS:0.000=140.000;
#STOPS:;
#BGCHANGES:;
#FGCHANGES:;

//--------------- dance-single - demicore ----------------
#NOTES:
     dance-single:
     demicore:
     Hard:
     14:
     0,0,0,0,0:
0000
0000
0000
0000
,
0000
0000
0000
0000
,
0000
0000
0000
0000
,
0000
0000
0000
0000
,
0000
0000
0000
0000
,
0001
0000
0000
0101
0000
0000
1000
0000
0000
1010
0000
0000
0010
0000
0000
0110
,
0000
0000
0100
0000
0000
0101
0000
0000
0001
0000
0000
1001
0000
0000
1000
0000
,
0010
0000
0000
1000
0000
0000
0001
0000
0010
0000
0000
0001
0000
0000
0100
0000
,
0010
0000
0000
1000
0000
0000
0001
0000
0100
0000
0000
0010
0000
0000
1000
0000
,
0100
0000
0000
1010
0000
0000
0001
0000
0000
0110
0000
0000
1000
0000
0000
0101
,
0000
0000
0001
0000
0000
1100
0000
0000
1000
0000
0000
1010
0000
0000
0010
0000
,
0100
0000
0000
1001
0000
0000
0100
0000
0000
0011
0000
0000
0001
0000
0000
1010
,
0000
0000
1000
0000
0000
0101
0000
0000
0001
0000
0000
0110
0000
0000
0100
0000
,
0001
0000
1000
0010
0000
0000
1001
0000
0001
0100
0000
0000
0110
0000
0100
0010
,
0000
0000
0101
0000
0001
1000
0000
0000
1010
0000
1000
0001
0000
0000
0100
0000
,
0001
0000
0010
0001
0000
0000
1010
0000
1000
0001
0000
0000
0011
0000
0001
0100
,
0000
0000
0110
0000
0010
1000
0000
0000
1001
0000
1000
0001
0000
0010
0001
0000
,
0200
0000
0300
0000
0010
1000
0001
0100
0020
0000
0000
0000
0030
0000
0000
0000
,
1000
0100
0001
0100
1000
0010
0100
0001
,
0100
0000
0001
1000
0000
0000
0010
0000
1000
0100
0000
0000
0010
0000
0001
0100
,
0000
0000
0010
0000
1000
0001
0000
0000
0100
0000
0010
1000
0000
0001
1000
0000
,
0010
0000
0100
0001
0000
0000
1010
0000
1000
0001
0000
0000
0011
0000
0001
0100
,
0000
0000
0110
0000
0100
0001
0000
0000
1001
0000
1000
0010
0000
0100
0010
0000
,
0100
0000
0001
1000
0000
0000
1010
0000
1000
0100
0000
0000
0110
0000
0100
0010
,
0000
0000
0011
0000
0001
0100
0000
0000
0110
0000
0010
1000
0000
0001
1000
0000
,
0020
0000
0030
0000
0100
0001
1000
0100
0020
0000
0000
0000
0030
0000
0000
0000
,
0001
0000
1000
0000
0100
0000
1000
0000
0010
0000
0100
0000
0001
1000
0100
1000
,
0020
0000
0030
0000
0100
0001
1000
0001
0020
0000
0000
0000
0030
0000
0000
0000
,
0001
1000
0100
1000
0001
0100
1000
0100
,
0001
0000
1000
0000
0010
0000
0100
0000
0010
0000
1000
0100
0000
0010
0001
0000
,
0100
0000
0010
0000
1000
0000
0001
0000
0010
0000
0001
1000
0000
0010
0100
0000
,
0010
0000
1000
0000
0100
0000
0010
0000
0001
0000
1000
0010
0000
0100
0010
0000
,
1000
0000
0001
0000
0010
0000
0001
0000
0100
0010
1000
0010
0000
0100
0000
0001
,
0010
0000
0001
0000
1000
0000
0010
0000
0100
0000
0010
1000
0000
0001
1000
0000
,
0010
0000
0100
0000
0001
0000
1000
0000
0010
0000
0100
0001
0000
1000
0001
0000
,
0100
0000
0010
0000
1000
0000
0100
0000
0010
0000
0001
0100
0000
0010
1000
0000
,
0001
0000
0100
0000
0010
0000
0100
0000
0001
1000
0100
0010
0000
0100
0000
1000
,
0010
0100
0101
0001
1000
0010
0110
0100
,
0001
1000
1010
0010
0100
0001
0011
0010
,
0100
1000
1100
0010
0001
0100
0110
0001
,
1000
0000
0001
0000
0101
0000
0010
0000
0001
0000
1000
0000
0010
1000
0010
0000
,
0200
0000
0300
0001
1000
0000
0010
0000
0200
0000
0300
0001
0010
0000
0001
0000
,
2000
0000
3000
0010
0100
0000
0010
0000
0002
0000
0003
0010
0100
0000
0001
0000
,
2001
0000
3000
0010
0100
0000
0001
0000
0020
0000
0030
0001
0100
0000
0010
0000
,
0200
0000
0300
0001
1000
0000
0100
0000
0020
0000
0030
0001
0100
0010
0000
0010
,
1000
0000
0000
0100
0000
0000
0001
0000
0000
0100
0000
0000
1000
0000
0000
0010
,
0000
0000
0001
0000
0000
0010
0000
0000
1000
0000
0001
0100
0000
0010
1000
0000
,
0010
0000
0000
0001
0000
0000
0010
0000
0000
1000
0000
0000
0100
0000
0000
0001
,
0000
0000
0100
0000
0000
1000
0000
0000
0010
0000
0100
0001
0000
1000
0001
0000
,
0100
0000
0000
0101
0000
0000
0001
0000
0000
1001
0000
0000
1000
0000
0000
1010
,
0000
0000
0010
0000
0000
0110
0000
0000
0100
0000
0001
0010
0000
0100
1000
0000
,
0010
0000
0000
1100
0000
0000
1000
0000
0001
0000
0000
0101
0000
0000
0100
0000
,
0010
0000
0000
1001
0000
0000
1000
0000
0100
0000
0000
0011
0000
0000
0001
0000
,
0100
0000
0010
0000
1000
0000
0100
0000
0010
0001
1000
0000
0010
0000
0100
0001
,
0010
0000
0001
0000
1000
0000
0010
0000
0100
0001
1000
0000
0010
0100
0000
0100
,
0010
0000
1000
0100
0000
0010
0001
0000
0100
0010
0000
0100
0001
0000
1000
0001
,
0000
0010
0001
0000
1000
0010
0000
1000
0100
0000
0010
0001
0000
0100
0010
0000
,
1000
0000
0001
0010
0000
0001
0100
0000
0010
1000
0000
0100
1000
0000
0010
0100
,
0000
0001
0010
0000
0100
1000
0000
0001
0100
0000
0010
1000
0000
0001
1000
0000
,
0010
0000
0100
0001
0000
0001
0010
0000
0001
1000
0000
1000
0010
0000
0100
0010
,
0000
0010
1000
0000
0100
0010
0000
0010
0001
0000
1000
0100
0000
0100
0010
0000
,
0012
0000
0003
0000
1000
0001
0010
0001
0200
0000
0000
0000
0300
0000
0000
0000
,
0001
0100
0010
0001
1000
0100
0010
1000
,
0001
0000
0010
0001
0000
1000
0010
0000
0100
0010
0000
0100
0001
0000
1000
0100
,
0010
0100
1000
0000
0001
0100
0000
0010
0100
0000
0001
1000
0000
0100
1000
0000
,
0001
0000
0010
0001
0000
1000
0001
0000
1000
0010
0000
0100
0010
0000
0100
0001
,
0010
0001
1000
0000
0010
1000
0000
0001
1000
0000
0001
0010
0000
0010
0100
0000
,
1000
0000
0001
0100
0000
1000
0010
0000
0001
0010
0000
1000
0100
0000
0001
0010
,
0001
1000
0010
0000
0100
0001
0000
0010
0001
0000
1000
0001
0000
0100
0010
0000
,
0210
0000
0300
0000
0001
1000
0100
0010
0002
0000
0000
0000
0003
0000
0000
0000
,
1000
0000
0010
0000
1010
0000
1000
0000
0001
0000
0100
0000
0010
1000
0001
0010
,
0200
0000
0300
0000
1000
0010
0100
0001
0020
0000
0000
0000
0030
0000
0000
0000
,
0001
0000
0000
1000
0010
0000
0100
0000
0110
0000
0000
0001
1000
0100
1000
0010
;
