#TITLE:Dark Dungeon;
#SUBTITLE:;
#ARTIST:Ardolf;
#TITLETRANSLIT:;
#SUBTITLETRANSLIT:;
#ARTISTTRANSLIT:;
#GENRE:;
#CREDIT:;
#MUSIC:Dark Dungeon.mp3;
#BANNER:darkdungeon-b.png;
#BACKGROUND:darkdungeon.png;
#CDTITLE:;
#SAMPLESTART:87.165;
#SAMPLELENGTH:12.000;
#SELECTABLE:YES;
#OFFSET:-0.165;
#BPMS:0.000=160.000;
#STOPS:;
#BGCHANGES:;
#FGCHANGES:;

//--------------- dance-single - demicore ----------------
#NOTES:
     dance-single:
     demicore:
     Hard:
     14:
     0,0,0,0,0:
0000
0000
0000
0000
,
0000
0000
0000
0000
,
0000
0000
0000
0000
,
0000
0000
0000
0000
,
0000
0000
0000
0000
,
0000
0000
0000
0000
,
0001
0100
0010
2000
0000
3100
0010
0002
,
0000
0000
0103
0000
0010
0000
0200
0000
0000
0000
0000
0000
0310
0000
1000
0010
,
0100
0001
0010
0200
0000
1300
0010
0200
,
0000
0000
0301
1000
0020
0000
0000
0000
0000
0000
0000
0000
0130
0000
0000
0000
,
0101
0001
1000
1010
0000
0100
0010
1010
,
2000
0000
0000
0000
0001
0000
3020
0000
0000
0000
0031
0000
1000
0000
0010
1000
,
0100
1000
0001
0101
0000
1000
0001
0100
,
0020
0000
1030
1001
0000
0001
0010
0100
,
1000
0010
1000
1001
0000
0010
0001
0201
,
0000
0000
0310
0000
1000
0000
1200
0000
0000
0000
0310
0000
0001
0000
1000
0010
,
0100
0001
0010
0012
0000
1003
0100
2100
,
0000
0000
3010
0100
0002
0000
0000
0000
0003
0000
0000
0000
1000
0010
0100
0010
,
1000
1000
0001
0001
0010
0010
0110
0000
,
0100
0100
1000
1000
0001
0001
2000
3020
,
0130
0001
0010
0100
1000
0010
0200
0302
,
1003
0010
0100
0001
0100
0010
1010
0000
,
1000
0001
0010
0001
0100
0000
0010
0000
1000
0000
1000
0000
0001
0000
0001
0000
,
0100
0010
1000
0100
0010
0000
0001
0000
0100
0000
0100
0000
0010
0000
0010
0000
,
1000
0001
0010
0001
0100
0000
0010
0000
1000
0100
0010
0001
0100
0000
0010
0000
,
1000
0000
0001
0000
0010
0001
0101
0000
,
0110
0000
0000
0000
0000
0000
2010
3000
0000
0000
0000
0000
1200
0300
0000
0000
0000
0000
0120
0030
0000
0010
0000
0000
,
0012
0003
0000
0000
0000
0000
2001
3000
0000
0000
0000
0000
1020
0030
0000
0000
0000
0000
0201
0300
0000
0100
0000
0000
,
0120
0030
0000
0010
0000
0000
2010
3000
0000
1000
0000
0000
1002
0003
0000
0000
0000
0000
0021
0030
0000
0010
0000
0000
,
0210
0001
1300
0110
,
1001
0000
0000
0000
2000
3000
0001
0000
0020
0030
0100
0000
2000
3000
0002
0003
,
0020
0030
0001
0000
0200
0300
0010
0000
2000
3000
0100
0000
0002
0003
0200
0300
,
2000
3000
0020
0030
0002
0003
0020
0030
2000
3000
0001
0000
0020
0030
0002
0003
,
0120
0001
1030
1001
,
0110
0000
0000
0000
1000
0000
0001
0000
0010
0000
0100
1000
0000
0010
1000
0000
,
0001
0000
0100
0010
0000
0100
0001
0000
1000
0000
0100
1000
0010
0000
0100
0000
,
0102
0003
0000
0000
0100
0000
0010
0000
2010
3000
0000
0000
1000
0000
0010
0000
,
0120
0001
1030
1100
,
0011
0000
0000
0000
0010
0000
0001
0000
0100
0000
0010
1000
0000
0001
1000
0000
,
0010
0000
0100
0001
0000
0100
0010
0000
1000
0000
0001
0100
0010
0000
1000
0000
,
0100
1000
0100
1000
0010
0000
0100
0000
0001
1000
0100
1000
0010
0000
0100
0000
,
0101
0000
0110
0100
0001
0010
0100
1000
,
0020
0000
0030
0200
0000
0301
1000
0100
,
2000
0000
3000
0010
0200
0000
0300
0001
,
0010
0001
1000
0100
0010
0100
1000
0010
,
0200
0000
0300
0001
0010
0001
1000
0100
,
0020
0000
0031
0100
0000
0010
1000
0001
,
0102
0000
0103
0010
2010
0000
3010
0100
,
0001
0010
0100
1000
0010
0100
1000
0100
,
0010
0010
0010
1000
0001
0000
0011
0000
,
1000
0000
0100
1000
0010
0000
0100
0000
0001
0000
0010
0000
0100
0000
1000
0000
,
0010
0000
0100
0001
1000
0000
0010
0000
0100
0000
0001
0000
0010
0000
0001
0000
,
1000
0000
0010
1000
0100
0000
0010
0000
0001
0000
1000
0000
0100
0000
1000
0000
,
0020
0000
1030
0002
0000
0103
0010
1000
,
0100
0000
0100
0000
0010
0000
0010
0000
0001
0000
0001
0000
1000
0000
1000
0010
,
0100
0000
0100
0000
0001
0000
0001
0000
1000
0000
1000
0000
0010
0000
0010
0100
,
0001
0100
0010
0000
1000
0100
0010
0000
0001
0100
0010
0000
1000
0001
0010
0000
,
0022
0000
0000
0000
0000
0000
0000
0000
0033
0000
0000
0000
1000
0001
0010
0001
,
0100
0000
0110
0010
1000
0001
0010
0100
,
0110
0000
0011
0001
1000
0000
1010
1000
,
0100
0010
0001
1000
0010
0100
0010
1000
,
0200
0000
0000
0000
0310
0000
0001
0000
1000
0000
0010
1000
0100
0000
1000
0000
,
1001
0000
1010
0010
0100
0001
0010
0100
,
1100
0000
1010
0010
0100
0000
0101
0001
,
0010
0100
1000
0001
0100
0010
1000
0001
,
0200
0000
0000
0000
1000
0000
0000
0000
0310
0000
0000
1000
0010
0000
0100
0000
,
0001
0010
0001
1000
,
0100
0000
1000
0000
0001
0000
1000
0000
0010
0100
0010
0100
0001
1000
0100
1000
,
0010
0010
0110
0100
0001
1000
0100
0010
,
0002
0000
1003
0010
0010
1000
0100
0010
,
0012
0000
1003
0010
0100
0010
1000
0100
,
0012
0000
1003
0001
0010
0100
1000
0010
,
0100
0000
0100
0000
0001
0000
0001
0000
1000
0010
1000
0010
0100
0001
0100
0001
,
0020
0000
0000
0000
0030
0000
0000
0000
0001
0000
0001
0000
1000
0000
0100
1000
,
0010
0000
0100
0000
0000
0000
0102
0000
0000
0000
1003
0000
0010
0000
0100
0001
,
0020
0000
0030
0000
0001
0000
1000
0010
0200
0000
0300
0000
0010
0000
1000
0000
,
0001
0100
1000
0200
0000
0310
1000
0100
,
0020
0000
0031
0100
0010
0010
1000
1000
,
0001
0000
0100
0000
0000
0000
1020
0000
0000
0000
0130
0000
0001
0000
0010
0100
,
2000
0000
0000
0000
3001
0000
0200
0000
0000
0000
0000
0000
0310
0000
0100
0001
,
0010
0100
1000
1020
0000
0130
0001
0020
,
0030
0000
0001
1000
0200
0000
0300
0000
1000
0000
0010
0000
0100
0000
0010
0000
,
1010
0000
0000
1000
0100
0000
0010
0000
0001
0000
0000
0100
0010
0000
0100
0001
,
0010
0000
0000
0001
1000
0000
0100
0000
1000
0000
0000
0010
0100
0000
0001
0000
,
0010
0000
0100
1000
0010
0000
0100
0000
0001
0000
1000
0010
0100
0000
0001
0000
,
2000
0000
3010
0100
0001
0001
1000
1000
,
0010
0100
0001
0010
0100
1000
0010
0100
,
0001
0010
0001
1000
0100
0010
0001
0100
,
0010
1000
0010
0000
1000
0001
1000
0000
0010
0100
0010
0000
0100
0001
0100
0000
,
0001
0010
0001
0100
0001
0010
0001
0000
1000
0000
0000
0000
0110
0000
0000
0000
,
2002
0000
0000
0000
,
3003
0000
0000
0000
;
