#TITLE:Dancing;
#SUBTITLE:;
#ARTIST:Said;
#TITLETRANSLIT:;
#SUBTITLETRANSLIT:;
#ARTISTTRANSLIT:;
#GENRE:;
#CREDIT:;
#MUSIC:dancing.mp3;
#BANNER:dancing-bn.png;
#BACKGROUND:dancing-bg.png;
#CDTITLE:;
#SAMPLESTART:30.276;
#SAMPLELENGTH:17.483;
#SELECTABLE:YES;
#OFFSET:-0.077;
#BPMS:0.000=151.000;
#STOPS:;
#BGCHANGES:;
#FGCHANGES:;

//--------------- dance-single - demicore ----------------
#NOTES:
     dance-single:
     demicore:
     Hard:
     14:
     0,0,0,0,0:
0000
0000
0000
0000
,
0000
0000
0000
0000
,
0000
0000
0000
0000
,
0000
0000
0000
0000
,
2010
0000
3001
0000
0012
0000
0103
0010
,
1000
1000
0100
0010
0001
0100
0010
1000
,
0001
0000
0011
0000
0000
0000
0110
0000
0100
0000
1100
0000
0000
0000
1000
0001
,
0010
0001
0100
0100
0010
1000
0100
1000
,
1002
0000
0103
0000
2010
0000
3100
0010
,
0001
0001
0100
0010
1000
0001
0010
0100
,
1000
0000
1010
0000
0000
0000
0110
0000
0100
0000
0101
0000
0000
0000
0001
0100
,
0010
0000
0100
0000
0010
0000
1000
0000
0001
1000
0100
1000
0010
0000
0000
0000
,
0200
0302
0023
0230
,
2300
3020
0230
0302
,
2003
3020
0032
0203
,
2300
3020
0230
0302
,
1003
0010
0100
0010
0001
0010
0100
0010
,
1010
1000
0100
0001
0100
0010
0100
1000
,
0100
1000
0010
0000
0100
0001
0010
0000
0001
1000
0100
0000
1000
0010
0100
0000
,
0110
0101
0011
1001
,
2020
0000
3030
0000
0101
0000
0001
0010
,
0011
0001
1000
0010
1010
0000
1000
0100
,
0110
0000
0010
0001
0101
0000
0100
0010
,
1010
1000
0100
0010
0002
0000
0103
0000
,
0220
0000
0330
0000
1001
0000
1000
0001
,
0011
0010
0100
1000
1100
0000
0100
1000
,
1010
0000
0100
0001
0011
0000
2000
3002
,
0103
0010
1000
0100
0110
0010
0001
0100
,
0020
0000
0030
0000
1000
0010
0100
0010
1000
0000
0000
0000
1010
0000
0000
0000
,
0101
0000
0010
0001
0101
0100
0010
1000
,
1100
0000
0010
0001
0101
0100
0010
1000
,
1010
0010
0100
0001
0011
0000
1100
0000
,
2002
3003
0110
0011
,
1100
0000
1000
0010
0110
0100
0001
0010
,
0110
0100
1000
0000
1010
0000
0101
0000
,
0220
0000
0000
0330
,
0012
0000
1003
0000
2100
0000
3001
0100
,
0010
0010
1000
0001
0010
0001
1000
0010
,
0110
0000
0100
0000
0000
0000
0011
0000
0001
0000
1001
0000
0000
0000
1000
0010
,
0100
0010
1000
0010
0100
0001
0010
0100
,
2100
0000
3010
0000
0012
0000
0103
0010
,
1000
0100
0001
0100
1100
0000
1000
0010
,
0100
0010
0100
0000
0001
1000
0100
0000
1000
0010
0100
0000
0001
1000
0010
0000
,
0110
0000
0000
0000
0000
0000
1001
0010
,
2002
0000
0000
0000
3003
0000
0000
0000
1000
0000
0010
1000
0100
0000
0010
0000
,
0001
0000
0100
0001
0000
0100
0010
0100
0001
0000
1000
0010
0100
0000
0010
0000
,
1000
0000
0100
1000
0001
0000
0010
0000
0002
0000
0000
0000
2003
0000
3020
0000
,
0230
0302
2003
0000
0020
0000
3030
0000
,
1001
0000
0000
0000
0000
0000
0010
0000
0110
0000
0100
0001
0010
0000
0100
0000
,
1000
0000
0010
1000
0000
0001
0100
0001
0010
0000
0100
1000
0010
0000
0100
0000
,
0001
0000
1000
0010
0100
0000
0001
0000
2000
0000
0020
0000
0000
0000
3030
0000
,
1000
0001
0010
0010
0001
1000
0100
1000
,
1010
0000
0000
0000
0100
0001
1000
0001
0010
0000
0000
0000
0011
0000
0000
0000
,
1010
0000
1000
0100
0110
0010
0001
1000
,
1010
0010
0100
0000
0101
0000
1010
0000
,
1100
1000
0001
0100
0110
0000
1100
0000
,
0022
0033
1010
0101
,
0110
0000
0100
0001
0011
0010
0100
1000
,
1010
0010
0100
0000
0101
0000
1001
0000
,
2000
0000
0000
0000
3020
0000
0000
0230
0000
0000
0302
0000
0013
0000
0000
0000
,
0120
0000
0031
0000
0120
0000
1030
0100
,
1000
1000
0001
0100
0101
0001
0010
0100
,
1100
0000
1000
0000
0000
0000
0101
0000
0001
0000
1001
0000
0000
0000
1000
0001
,
0010
0001
0100
0001
1000
0100
0010
0100
,
2100
0000
3010
0000
0120
0000
0031
0010
,
0100
0100
0001
1000
0100
0010
0001
0010
,
0110
0000
0100
0000
0000
0000
1010
0000
1000
0000
1001
0000
0000
0000
0001
0100
,
0010
0000
0100
0000
0001
0000
1000
0000
0001
0010
0100
1000
0020
0000
0000
0000
,
0130
0000
0000
0000
0000
0000
0010
1000
0100
0000
0000
0010
0000
0000
0001
0000
,
0100
0000
0000
0010
0000
0000
1000
0000
0002
0000
2003
0000
3200
0000
2300
0000
,
3020
0130
0000
0002
0013
2000
3000
0010
,
0001
0100
0010
1000
0001
1000
0100
0010
,
0110
0000
0000
0000
;

//--------------- dance-single - demicore ----------------
#NOTES:
     dance-single:
     demicore:
     Challenge:
     14:
     0,0,0,0,0:
0000
0000
0000
0000
,
0000
0000
0000
0000
,
0000
0000
0000
0000
,
0000
0000
0000
0000
,
1001
MMMM
1100
MMMM
0110
MMMM
0010
0001
,
2000
0000
3010
0100
0001
0010
0100
1000
,
0010
1000
MMMM
0100
0010
1000
MMMM
0010
,
0001
1000
0010
0100
0001
0010
0100
1000
,
1100
MMMM
0011
MMMM
0101
MMMM
1000
0010
,
0100
0100
0001
1000
0020
0000
0130
0001
,
0010
0001
MMMM
0010
1000
0100
MMMM
0001
,
1000
0000
0010
0000
0100
0000
0001
0000
1000
0100
1000
0010
0100
0000
0000
0000
,
0220
0000
0000
0000
,
0000
0000
0000
0330
,
MMMM
MMMM
MMMM
MMMM
,
MMMM
MMMM
MMMM
MMMM
,
1000
0010
0001
0010
1000
0100
0010
0001
,
0100
0010
1000
0010
0100
0001
0010
0100
,
1000
0100
1000
0000
0001
0010
0001
0000
0100
0010
0100
0000
0001
1000
0001
0000
,
MMMM
MMMM
MMMM
MMMM
,
0110
0000
MMMM
0000
1100
0000
1000
0010
,
MMMM
0010
1000
0001
MMMM
0000
0100
1000
,
MMMM
0000
0010
0001
MMMM
0000
0010
0100
,
MMMM
0100
0001
1000
1010
0000
0110
0000
,
0101
0000
MMMM
0000
0110
0000
0010
1000
,
MMMM
0010
0001
0100
MMMM
0000
1000
0010
,
MMMM
0000
0001
0100
MMMM
0000
0020
0000
,
1030
0001
0010
0001
0100
0010
1000
0100
,
0110
0000
0000
0000
0010
0001
1000
0001
0100
0000
MMMM
0000
0010
0000
MMMM
0000
,
1001
MMMM
0001
0100
MMMM
1000
0010
0100
,
MMMM
0000
1000
0001
MMMM
0010
0100
0001
,
MMMM
0100
1000
0010
MMMM
0000
0110
0000
,
1001
0000
MMMM
0000
0011
MMMM
1100
MMMM
,
0110
0000
0100
0001
MMMM
0010
1000
0100
,
MMMM
0001
1000
0000
1001
0000
0010
0000
,
0220
0000
0000
0330
,
0011
MMMM
1100
MMMM
1001
MMMM
0010
0100
,
0002
0000
0103
0010
1000
0001
0010
0001
,
0100
0010
MMMM
0001
1000
0010
MMMM
0010
,
0100
0001
1000
0100
0010
0100
1000
0001
,
0101
MMMM
0110
MMMM
1010
MMMM
1000
0001
,
0010
0001
1000
0100
0020
0000
0031
1000
,
0010
1000
0010
0000
0100
0010
0100
0000
0001
0100
0001
0000
1000
0001
1000
0000
,
MMMM
0000
0000
1100
,
0011
0000
0000
0000
MMMM
0000
0000
0000
0100
0000
0000
0010
1000
0000
0100
0000
,
0010
0000
0000
0001
0100
0000
0010
0000
0100
0000
0000
0010
1000
0000
0001
0000
,
0010
0000
0000
0100
1000
0000
0010
0000
0200
0000
0000
0000
0300
0000
0000
0000
,
1001
MMMM
0200
0301
,
1010
0000
0000
0000
MMMM
0000
0000
0000
1000
0000
0001
0010
0001
0000
0100
0000
,
0010
0000
1000
0010
1000
0000
0001
0000
0100
0000
0010
0100
0010
0000
0100
0000
,
0001
0000
1000
0100
1000
0000
0001
0000
0010
0000
0000
0000
MMMM
0000
0000
0000
,
0001
1000
0100
1000
0010
0100
0100
0001
,
0011
0000
0000
0000
0001
1000
0100
1000
0010
0000
MMMM
0000
0110
0000
MMMM
0000
,
1001
MMMM
1000
0001
MMMM
0010
1000
0001
,
MMMM
0100
1000
0000
MMMM
0000
0101
0000
,
MMMM
0010
1000
0100
1100
0000
1001
0000
,
0110
0000
MMMM
0000
0101
MMMM
1100
MMMM
,
1010
MMMM
0010
0100
MMMM
1000
0001
0010
,
MMMM
1000
0010
0000
MMMM
0000
1001
0000
,
0220
0000
0330
MMMM
,
1010
MMMM
0011
MMMM
0110
MMMM
0001
1000
,
0200
0000
1300
0010
0100
0010
1000
0100
,
0010
0001
MMMM
0010
0100
0001
MMMM
0100
,
0010
1000
0010
0001
0010
0100
0001
1000
,
1010
MMMM
1001
MMMM
0110
MMMM
0100
0001
,
0010
0001
1000
0010
0200
0000
0301
1000
,
0100
1000
MMMM
0010
0001
1000
MMMM
0100
,
0010
0000
1000
0000
0010
0000
0100
0000
0001
0100
0001
0010
0001
0000
0000
0000
,
2000
0000
0000
0000
3000
0000
0010
0100
0001
0000
0000
0100
0000
0000
0010
0000
,
1000
0000
0000
0100
0000
0000
1000
0000
0000
0000
0000
0000
0011
0000
0000
0000
,
1001
0000
0000
0000
0000
0000
0001
1000
0100
0000
0000
0010
0000
0000
0001
0000
,
0100
0000
0000
0010
0000
0000
0100
0000
0001
0000
1000
0000
0100
0000
1000
0000
,
MMMM
0000
0000
0000
;
