#TITLE:DRAGONLADY;
#SUBTITLE:;
#ARTIST:NANKUMO;
#TITLETRANSLIT:;
#SUBTITLETRANSLIT:;
#ARTISTTRANSLIT:;
#GENRE:;
#CREDIT:;
#MUSIC:dragonlady.mp3;
#BANNER:banner.png;
#BACKGROUND:;
#CDTITLE:;
#SAMPLESTART:25.652;
#SAMPLELENGTH:12.800;
#SELECTABLE:YES;
#OFFSET:-0.052;
#BPMS:0.000=150.000
,29.750=300.000
,32.000=150.000
,128.000=300.000
,129.000=150.000
;
#STOPS:29.750=0.150
,30.500=0.150
,31.250=0.100
,31.750=0.050
,128.000=0.200
,180.500=0.400
,181.500=0.400
;
#DISPLAYBPM:150.000;
#BGCHANGES:;
#FGCHANGES:;

//--------------- dance-single - demicore ----------------
#NOTES:
     dance-single:
     demicore:
     Hard:
     15:
     0,0,0,0,0:
0000
0000
0000
0000
,
0000
0000
0000
0000
,
0000
0000
0000
0000
,
0000
0000
0000
0000
,
0100
0000
0001
0000
1000
0010
0100
0000
0001
0000
1000
0000
0001
0100
0010
0000
,
0100
0000
0010
0000
0100
0001
1000
0000
0010
0000
0100
0000
0001
1000
0010
0000
,
0100
0000
0001
0000
0010
0001
1000
0000
0010
0000
0100
0000
0001
1000
0100
0000
,
0010
0000
0000
0000
0001
0000
0000
0000
1000
0000
0010
0000
0100
0000
0002
0003
0000
0000
0000
0000
0002
0003
0000
0000
0000
0000
0002
0003
0000
0000
0002
0003
,
0100
0000
0010
0000
1000
0010
0100
0000
0001
0000
1000
0000
0010
0100
0001
0000
,
0100
0000
0001
0000
1000
0001
0100
0000
0010
0000
1000
0000
0100
0010
0001
0000
,
1000
0000
0001
0000
0100
0001
0010
0000
0001
0000
1000
0000
0100
1000
0010
0000
,
0100
0000
0001
0000
1000
0001
0010
0000
0001
0000
0100
0000
0010
1000
0001
0000
,
0010
0000
0001
0000
0100
0001
0100
0001
1000
0000
0010
0000
0100
0010
0100
0010
,
1000
0000
0001
0000
0010
0001
0010
0001
0100
0000
0010
0000
1000
0010
1000
0010
,
0100
0000
0100
0000
0001
1000
0001
1000
0010
0000
0100
0000
0001
0010
0001
0010
,
0001
0000
0100
0000
0010
1000
0010
1000
0001
0100
0000
0001
1000
0010
1000
0000
,
0001
0100
0000
0010
0000
0100
0001
1000
0000
0010
0100
0010
0000
0110
0000
0000
,
0101
0000
0100
0001
1000
0001
0010
0000
0001
0100
0010
1000
0010
0000
0100
0001
,
2000
0000
3002
0000
0003
0100
0010
0100
0000
0001
0100
0001
0000
1001
0000
0000
,
0100
0000
0001
0010
0001
0000
1000
0001
0010
0001
0100
0010
1000
0000
0000
0000
,
0001
0100
0001
0100
0010
0100
0000
0010
1000
0010
0100
0001
0000
1001
0000
0000
,
1000
0000
0001
0100
0001
1000
0010
1000
0010
0200
0300
0000
0101
0000
0001
1000
,
0020
0000
0030
0000
0200
0000
0300
0000
0001
1000
0001
0010
0002
0000
0003
0000
,
0100
0010
0000
1000
0000
1000
0000
1000
0001
0010
0001
0100
0010
0100
0001
1000
,
0010
0100
0000
0100
0000
0001
0000
2000
0000
3000
0000
0000
1001
0000
0000
0000
,
1000
0010
0000
0010
0000
0100
0000
0002
0000
0003
0000
0000
1001
0000
0000
0000
,
0100
0010
0000
0010
0000
1000
0000
0200
0000
0300
0000
0000
1100
0000
0000
0000
,
0010
0001
0000
0100
0000
0001
0000
2000
0000
3000
0000
0000
1000
0010
1000
0010
,
0100
0001
0000
1000
0000
0010
0000
0100
0000
0001
0000
0000
1001
0000
0000
0000
,
0001
0100
0000
0010
0000
0100
0000
0001
0000
1000
0000
0000
1010
0000
0000
0000
,
0100
0001
0000
1000
0000
0001
0000
0010
0001
0100
0000
0010
0000
1000
0000
0010
,
0100
0010
0000
1000
0001
1000
0000
0010
0100
0010
0100
0001
1000
0100
0010
0001
,
0200
0300
0000
0000
0000
0000
0000
0000
0001
0000
1000
0000
0000
0000
0010
0000
0000
0000
0100
0000
0000
0000
0110
0000
0000
0000
0010
0000
0000
0000
1000
0000
,
0001
0010
0000
0011
0000
0001
0000
0100
0000
0010
0000
1010
0000
1000
0000
0001
,
0100
0010
0000
0110
0000
0100
0000
0001
0000
1000
0000
1010
0000
0010
0000
0100
,
0001
0010
0000
0011
0000
0001
0000
1000
0000
0010
0000
1010
0000
1000
0000
0001
,
0100
0010
0000
0100
0000
0001
0000
1000
0000
0010
0000
0100
0010
0100
0000
0001
,
1000
0010
0000
0100
0000
0001
0000
1000
0000
0100
0000
0010
0001
1000
0000
0001
,
1000
0001
0000
0100
0000
0010
0000
1000
0000
0001
0000
0010
0001
0100
0000
0001
,
1000
0010
0000
0100
0000
0001
0000
1000
0000
0001
0000
0100
0010
1000
0000
0010
,
0100
0000
0000
0000
0001
1000
0000
0000
1010
0000
0000
0000
0100
0001
0000
0000
,
0101
0000
0000
0000
0001
1000
0000
0000
0110
0000
0000
0000
0100
0010
0000
0000
,
1010
0000
0000
0000
1000
0001
0000
0000
0021
0000
0030
0000
0001
0100
0000
0020
,
0200
0000
0000
0330
,
0100
0000
0001
0000
1000
0000
0100
0000
0010
0001
0100
0001
1000
0010
0100
0010
,
1000
0000
0000
0000
2000
3000
0000
0000
0001
0000
0000
0000
0002
0003
0000
0000
0100
0000
0000
0000
0100
0000
0000
0000
0010
0000
0000
0000
0010
0000
0000
0000
,
0100
0001
0100
0000
0001
1000
0010
0100
0010
0000
0100
0000
0001
1000
0001
0000
,
0100
0000
0010
0000
1000
0001
1000
0000
0001
0000
0010
0000
0001
0100
0010
0000
,
0100
0000
0001
0000
1000
0010
0100
0000
0001
0000
0100
0000
0010
1000
0001
0000
,
0010
0000
0001
0000
0100
0010
0100
0000
0001
0000
1000
0000
0010
1000
0100
0000
,
0010
0000
0001
0000
0100
0010
0100
0010
1000
0000
0001
0000
0010
0001
1000
0001
,
0100
0000
0001
0000
0100
0010
1000
0100
0010
0000
0001
0000
0100
0001
1000
0010
,
0100
0000
0001
0000
1000
0100
1000
0010
1000
0000
0001
0000
0010
0001
0100
0010
,
0100
0000
0001
0000
1000
0010
0100
0010
1000
0000
0001
0000
0010
0001
0100
0001
,
0100
0010
0000
0010
0100
0010
0000
0110
0000
0000
0000
0000
0000
0000
0000
0000
;

//--------------- dance-single - demicore ----------------
#NOTES:
     dance-single:
     demicore:
     Challenge:
     17:
     0,0,0,0,0:
0000
0000
0000
0000
,
0000
0000
0000
0000
,
0000
0000
0000
0000
,
0000
0000
0000
0000
,
1001
0000
1000
0000
0010
0100
0001
1000
0100
0000
0010
0000
0001
1000
0010
1000
,
0100
0000
1000
0000
0001
0100
0001
1000
0010
0000
0100
0000
0001
1000
0100
0010
,
0001
0000
0100
0000
0010
1000
0010
0100
0001
0000
1000
0000
0001
0100
0010
1000
,
0100
0000
0000
0000
0010
0000
0000
0000
0001
0000
1000
0000
0010
0000
0200
0300
0000
0000
0000
0000
0200
0300
0000
0000
0000
0000
0200
0300
0000
0000
0200
0300
,
0010
0000
1000
0001
0010
0001
1000
0010
0100
0000
0001
1000
0010
1000
0100
0010
,
0001
0000
0100
0001
1000
0001
0010
0001
0100
0000
0010
1000
0001
0100
0010
1000
,
0100
0000
0010
0001
1000
0001
0100
0010
1000
0000
0001
1000
0001
0100
0010
1000
,
0100
0000
0010
0001
1000
0001
0100
0010
1000
0000
0001
1000
0010
1000
0100
0010
,
0001
0000
0101
0000
0001
0100
0010
0000
1000
0000
1010
0000
0001
1000
0010
0000
,
0100
0000
0110
0000
0001
0100
0010
0000
0100
0000
0101
0000
0001
1000
0100
0000
,
1000
0000
1010
0000
0010
0100
0001
1000
0010
0000
0110
0000
0100
0001
0010
0001
,
1000
0000
1001
0000
0001
0100
0001
1000
0010
0100
0000
0001
0100
0010
0100
0010
,
1000
0010
0000
1010
0000
1000
0001
0010
0001
1000
0100
0010
0001
0100
0000
0000
,
0110
0000
0100
0001
1000
0010
1000
0100
0010
0001
0100
0010
1000
0000
0001
0100
,
0101
0000
1001
0000
0000
1000
0010
0100
0010
1000
0001
0010
0001
0100
0000
0000
,
0110
0000
0100
0001
1000
0010
0001
0010
1000
0001
0100
0010
2000
0000
3000
0000
,
0001
1000
0010
1000
0100
2000
0000
3001
0100
0010
1000
0001
0010
0001
0000
0000
,
0110
0000
0010
1000
0001
0100
0001
1000
0010
2000
3000
0000
1001
0000
0010
0001
,
0200
0000
0300
0000
0002
0000
0003
0000
1000
0001
0010
0001
0200
0000
0300
0000
,
0100
0001
0000
0101
0000
1001
0000
1000
0001
0010
0001
0100
0001
1000
0100
0010
,
0001
0100
0000
0010
0000
1000
0000
0010
0000
0100
0001
1000
0010
0000
0000
0000
,
0100
0001
0000
1000
0000
0001
0000
0010
0000
0001
0100
0010
1000
0000
0000
0000
,
1000
0001
0000
0010
0000
0100
0000
1000
0000
0001
0100
0010
0100
0000
0000
0000
,
0001
0010
0000
0001
0000
1000
0000
0010
0000
0100
0001
0100
0010
0000
0000
0000
,
0100
0001
0000
1001
0000
1000
0000
1010
0000
0010
0100
0001
0010
0000
0000
0000
,
0001
0100
0000
0110
0000
0010
0000
1010
0000
1000
0001
0010
0001
0000
0000
0000
,
0100
0001
0000
1001
0000
1000
0000
1010
0010
0100
0000
0101
0000
0001
0000
0011
,
0010
0001
0000
0100
0001
1000
0000
0010
0100
0001
1000
0100
0010
0001
0100
0010
,
2000
3000
0000
0000
0000
0000
0000
0000
0010
0000
0100
0000
0000
0000
0101
0000
0000
0000
1010
0000
0000
0000
1001
0000
0000
0000
0110
0000
0000
0000
0100
0000
,
0001
0010
0000
0011
0000
0101
0000
1001
0000
0110
0000
0100
0001
0010
0000
0001
,
1000
0010
0000
1010
0000
1001
0000
0011
0000
0110
0000
0100
0001
1000
0000
0010
,
0100
0001
0000
1001
0000
1010
0000
1100
0000
0110
0000
0010
0001
0100
0000
0010
,
1000
0100
0000
0011
0000
0101
0000
0110
0000
0100
0001
1000
0000
0010
0000
0100
,
0001
0010
0000
0011
0000
1001
0000
1010
0000
0100
0010
1000
0000
0001
0000
0010
,
0001
0100
0000
0110
0000
0101
0000
1001
0000
1000
0010
0100
0000
0001
0000
0100
,
0010
1000
0000
1010
0000
1001
0000
0011
0000
0010
0001
0100
0001
1000
0010
0100
,
0002
0000
0003
0000
1000
0001
0000
0010
0002
0000
0003
0000
0100
0010
0000
1000
,
0020
0000
0030
0000
0100
0001
0000
1000
0002
0000
0003
0000
0100
0010
0000
1000
,
0020
0000
0030
0000
0100
0010
0000
1000
0200
0000
0300
0000
0000
0011
0000
0002
,
0200
0000
0000
0303
,
1000
0001
0010
0001
0100
0010
1000
0100
0010
0001
0100
0010
1000
0010
0100
0001
,
0010
0000
0000
0000
0022
0033
0000
0000
0001
0000
0000
0000
2002
3003
0000
0000
1000
0000
0000
0000
1010
0000
0000
0000
0010
0000
0000
0000
0110
0000
0000
0000
,
0100
0001
1000
0001
0010
0001
0100
0010
1000
0000
1001
0000
0001
0100
0010
1000
,
0100
0000
1100
0000
1000
0001
0010
0001
0100
0000
0110
0000
0010
1000
0001
0010
,
0001
0000
0011
0000
0010
0001
0100
0010
0100
0000
0110
0000
0010
1000
0001
0100
,
0001
0000
0101
0000
0100
0001
1000
0010
0100
0000
0110
0000
0010
1000
0001
0010
,
0001
0000
0011
0000
0010
0001
0100
0010
1000
0000
1010
0000
0010
0100
0001
1000
,
0010
0000
0110
0000
0100
0001
1000
0001
0010
0000
0011
0000
0001
0100
0010
1000
,
0010
0000
1010
0000
1000
0001
0010
0001
0100
0000
0101
0000
0001
1000
0010
1000
,
0001
0000
1001
0000
1000
0010
0100
0001
0010
0000
0011
0000
0001
0100
0010
0100
,
0001
1000
0000
0010
0100
0001
1000
0001
0000
0000
0000
0000
0000
0000
0000
0000
;
