#TITLE:Creatures Ov Deception;
#SUBTITLE:;
#ARTIST:Rainbowdragoneyes;
#TITLETRANSLIT:;
#SUBTITLETRANSLIT:;
#ARTISTTRANSLIT:;
#GENRE:;
#CREDIT:;
#BANNER:Creatures Ov Deception.png;
#BACKGROUND:Creatures Ov Deception-bg.png;
#LYRICSPATH:;
#CDTITLE:;
#MUSIC:Creatures Ov Deception.ogg;
#OFFSET:1.264000;
#SAMPLESTART:61.419998;
#SAMPLELENGTH:20.052999;
#SELECTABLE:YES;
#BPMS:0.000000=190.000000
;
#STOPS:
;
#BGCHANGES:0.000=Creatures Ov Deception.mp4=1.000=0=0=1=====,
99999=-nosongbg-=1.000=0=0=0 // don't automatically add -songbackground-
;
#KEYSOUNDS:;
#ATTACKS:;

//---------------dance-single - demicore----------------
#NOTES:
     dance-single:
     demicore:
     Challenge:
     16:
     0.867725,1.115625,0.120370,0.314815,0.500000,656.000000,643.000000,13.000000,34.000000,0.000000,0.000000,0.867725,1.115625,0.120370,0.314815,0.500000,656.000000,643.000000,13.000000,34.000000,0.000000,0.000000:
// measure 0
0000
0000
0000
0000
,  // measure 1
0000
0000
0000
0000
,  // measure 2
0000
0000
0000
0000
,  // measure 3
0000
0000
0000
0000
,  // measure 4
0000
0000
0000
0000
,  // measure 5
0000
0000
0000
0000
,  // measure 6
0000
0000
0000
0000
,  // measure 7
0000
0000
0000
0000
,  // measure 8
0000
0000
0000
0000
,  // measure 9
0000
0000
1000
0002
0010
0000
0103
0000
,  // measure 10
0001
0100
0020
0000
1000
0000
0130
0001
,  // measure 11
1000
0010
0100
0000
0011
0000
1010
0000
,  // measure 12
0001
2000
0100
0000
3010
0000
0100
0001
,  // measure 13
0100
1000
0100
0020
1000
0000
0130
0000
,  // measure 14
0001
1000
0020
0000
0100
0000
1030
0001
,  // measure 15
0100
0001
1000
1000
0010
0010
0100
0000
,  // measure 16
0001
1000
0010
0100
0001
0000
1001
0000
,  // measure 17
1000
0000
0001
0000
1000
0010
1000
0000
0001
0000
0100
0000
0010
0000
1000
0000
,  // measure 18
0010
0000
0100
0000
0001
0010
0001
0000
1000
0000
0010
0000
0100
0000
0001
0000
,  // measure 19
1000
0000
0010
0000
0100
0001
0100
0000
0010
0000
1000
0000
0100
0000
1000
0000
,  // measure 20
0001
0010
0002
0000
1000
0000
0103
0000
,  // measure 21
0010
0000
0100
0000
0001
0010
0001
0000
1000
0000
0010
0000
0100
0000
0001
0000
,  // measure 22
1000
0000
1000
0000
0010
0100
0010
0000
1000
0000
0001
0000
0010
0000
0001
0000
,  // measure 23
0100
0000
0100
0000
0001
1000
0001
0000
0100
0000
0001
0000
1000
0000
0010
0000
,  // measure 24
0100
0001
1000
1000
0010
0010
0100
0001
,  // measure 25
0010
0000
0100
0000
1000
0001
0100
0000
0010
0000
1000
0000
0001
0000
0010
0000
,  // measure 26
0001
0000
0100
0000
0010
1000
0001
0000
0100
0000
0001
0000
0010
0000
0001
0000
,  // measure 27
1000
0000
0010
0000
1000
0100
0010
0000
0100
0000
1000
0000
0001
0000
0100
0000
,  // measure 28
0010
0100
0001
0001
1000
1000
0010
0100
,  // measure 29
0001
0000
0010
0000
0001
1000
0100
0000
1000
0000
0010
0000
0100
0000
0001
0000
,  // measure 30
0100
0000
1000
0000
0100
0001
1000
0000
0010
0000
0100
0000
0001
0000
0010
0000
,  // measure 31
0001
1000
0020
0000
0230
0000
0302
0000
,  // measure 32
0023
0000
0000
0000
0031
0100
0001
0000
1000
0010
1000
0000
0001
0000
0100
0000
,  // measure 33
0010
0000
0010
0000
1000
0010
1000
0000
0001
0010
0001
0000
0100
0010
0100
0000
,  // measure 34
0001
1000
0001
0000
0100
0001
0100
0000
0010
1000
0010
0000
0100
0000
0001
0000
,  // measure 35
0010
0000
0010
0000
0001
1000
0001
0000
1000
0010
1000
0000
0010
0100
0010
0000
,  // measure 36
0100
0001
0100
0000
0001
0000
1000
0000
0010
0000
0010
0000
0100
0000
0100
0000
,  // measure 37
0001
0000
1000
0000
0010
1000
0010
0000
0100
0001
0100
0000
0001
0010
0001
0000
,  // measure 38
1000
0100
1000
0000
0001
0100
0001
0000
1000
0001
1000
0000
0010
0100
0010
0000
,  // measure 39
0100
0000
0001
0000
1000
0100
1000
0000
0001
0010
0001
0000
0100
0001
0100
0000
,  // measure 40
0010
1000
0010
0000
0100
0001
0100
0010
1000
0000
0001
0000
0100
0000
0100
0000
,  // measure 41
0001
0000
1000
0000
0010
0100
0001
0000
1000
0100
0010
0000
1000
0001
0100
0000
,  // measure 42
0010
0100
0001
0000
1000
0010
0100
0000
0001
1000
0010
0000
0100
0001
0010
0000
,  // measure 43
0001
0000
1000
0000
0010
1000
0100
0000
1000
0001
0010
0000
0001
0100
0010
0000
,  // measure 44
1000
0001
0100
0000
0010
1000
0001
0000
0100
0001
0010
0000
0001
0000
0001
0000
,  // measure 45
1000
0000
1000
0000
0001
0100
0010
0100
0001
0000
1000
0000
0010
1000
0001
0100
,  // measure 46
0001
0000
1000
0000
0010
0100
0001
1000
0100
0000
1000
0000
0010
1000
0001
0010
,  // measure 47
0001
0000
0100
0000
0010
1000
0010
0100
0001
0010
0001
1000
0010
0100
0001
1000
,  // measure 48
0100
1000
0010
0000
0200
0000
0000
0000
0001
0000
0000
0000
1000
0000
0000
0000
,  // measure 49
0310
0000
0100
0001
0010
1001
0000
1000
,  // measure 50
0010
0100
0002
0010
0203
0010
0301
1000
,  // measure 51
0010
0100
0002
1000
0203
0010
0301
1000
,  // measure 52
0010
1000
0002
1000
0023
0100
0032
1000
,  // measure 53
0023
0100
0031
0000
1001
0000
1000
0010
,  // measure 54
0100
0100
0020
1000
0230
0001
0310
1000
,  // measure 55
0001
0100
0002
1000
0203
0010
0301
1000
,  // measure 56
0010
0100
0011
0001
1000
0100
1010
1000
,  // measure 57
0001
0100
0020
0000
1000
0000
0001
0000
,  // measure 58
0130
0000
0001
0000
1000
0010
0100
0000
0001
0000
0010
0000
0001
0100
0001
0000
,  // measure 59
1000
0000
0010
0000
1000
0010
1000
0000
0001
0010
0001
0000
0100
0000
0100
0000
,  // measure 60
0001
0000
1000
0000
0010
1000
0001
0000
0100
0001
0010
0000
0001
0100
0010
0000
,  // measure 61
1000
0001
0100
0000
0020
0000
0000
0000
0130
0000
0000
0000
1001
0000
0000
0000
,  // measure 62
1000
0000
0001
0000
0010
0001
0100
0000
0010
0000
1000
0000
0100
1000
0001
0000
,  // measure 63
0100
0000
0010
0000
1000
0001
0010
0000
0001
0000
0100
0000
0010
1000
0001
0000
,  // measure 64
0100
0001
1010
1000
1100
0100
0110
0010
,  // measure 65
0011
0001
2001
0000
0010
0000
3001
0000
,  // measure 66
0000
0000
0000
0000
,  // measure 67
0000
0000
0000
0000
1000
0010
1000
0000
0001
0000
0010
0000
0001
0000
0100
0000
,  // measure 68
0010
0000
0010
0000
1000
0100
0010
0000
0001
0000
0100
0000
0010
0000
1000
0000
,  // measure 69
0001
0100
0020
0000
2030
0000
3002
0000
,  // measure 70
0203
0000
0320
0000
1030
0000
1000
0000
0001
0000
0100
0000
0010
1000
0001
0000
,  // measure 71
0100
0001
0010
0000
0001
1000
0001
0000
0100
0000
0010
0000
1000
0000
0001
0000
,  // measure 72
0010
0000
0001
0000
0100
0001
1000
0000
0010
0000
0100
0000
0001
0000
1000
0000
,  // measure 73
0010
0001
0010
0010
1000
1000
0001
0100
,  // measure 74
0010
0000
1000
0000
0001
0100
0001
0000
1000
0010
0100
0000
0001
0000
0002
0000
,  // measure 75
0000
0000
0003
0000
1000
0010
0100
0010
1000
0000
0001
0000
0010
0000
0001
0000
,  // measure 76
0100
0000
0010
0000
1000
0001
0010
0001
0100
0000
0010
0000
0100
0000
0001
0000
,  // measure 77
0001
0000
1000
0000
0010
0100
0001
0000
1000
0010
0100
0000
0001
0010
0001
0000
,  // measure 78
1000
0010
0100
0001
0100
0000
0010
0000
1000
0001
0010
0001
0100
0000
0100
0000
,  // measure 79
0010
0000
0010
0000
1000
0001
0010
0001
0100
0000
0010
0000
1000
0000
0001
0000
,  // measure 80
0010
0000
0001
0000
0100
0010
0100
0001
0100
0000
0010
0000
1000
0000
0001
0000
,  // measure 81
1000
0000
0100
0000
1000
0010
0100
0000
0001
1000
0010
0000
0100
0001
0010
0000
,  // measure 82
0001
0000
1000
0000
0010
0100
0001
1000
0010
0100
0010
1000
0100
0000
0000
0000
,  // measure 83
0000
0000
0000
0000
0000
0000
0000
0200
,  // measure 84
0000
0300
0000
0000
,  // measure 85
0000
0020
0000
0000
0000
0000
0000
0000
0000
0000
0000
0000
0000
0000
0000
0000
,  // measure 86
0000
0030
0000
0000
0000
0000
0000
0000
0000
0000
0000
0000
0000
0000
0000
0000
;
