#TITLE:Come aROUND;
#SUBTITLE:;
#ARTIST:nora2r meets TRIΔNGLE;
#TITLETRANSLIT:;
#SUBTITLETRANSLIT:;
#ARTISTTRANSLIT:;
#GENRE:;
#CREDIT:;
#MUSIC:comearound.mp3;
#BANNER:;
#BACKGROUND:;
#CDTITLE:;
#SAMPLESTART:94.272;
#SAMPLELENGTH:11.520;
#SELECTABLE:YES;
#OFFSET:-0.192;
#BPMS:0.000=125.000;
#STOPS:32.000=1.440
,157.000=1.440
;
#BGCHANGES:;
#FGCHANGES:;

//--------------- dance-single - demicore ----------------
#NOTES:
     dance-single:
     demicore:
     Challenge:
     14:
     0,0,0,0,0:
0000
0000
0000
0000
,
0000
0000
0000
0000
,
0000
0000
0000
0000
,
0000
0000
0000
0000
,
0000
0000
0000
0000
0000
0000
0000
0000
0001
0000
0000
1000
0000
0000
0010
0000
,
0100
0000
0000
0100
0001
0000
1000
0000
0010
0000
0000
0000
0110
0000
0100
0000
,
0001
0000
0000
0001
1000
0000
0010
0000
0100
0000
0000
0100
0001
0000
1000
0000
,
0010
0000
0010
0000
0100
0000
0100
0000
0001
0100
0010
1000
0100
1000
0001
0010
,
0001
0000
0000
0000
1010
0000
1000
0001
0000
0010
0001
0000
0100
0000
0010
0000
,
1000
0000
0000
0000
0101
0000
0100
0010
0000
1000
0001
0000
0010
0000
0001
0000
,
0100
0000
0000
0000
1001
0000
1000
0010
0000
1000
0001
0000
0010
0000
0001
0000
,
0100
0000
0000
0000
1010
0000
0100
0001
0000
0010
0001
0000
1000
0000
0010
0100
,
0001
0000
0000
0000
1000
0000
1000
0000
0001
0000
0010
0000
0001
1000
0100
0000
,
0010
0000
0000
0000
1001
0000
1000
0010
0000
1000
0001
0000
0100
0000
0010
1000
,
0001
0000
0000
0000
0011
0000
0100
0001
0000
1000
0001
0000
0100
0000
0010
1000
,
0100
0000
0000
0000
0102
0000
0000
0000
0100
0000
0003
0000
0100
0000
0001
1000
,
0010
0000
0000
0000
0200
0000
0000
0010
0000
0000
0001
0000
0301
0000
0000
0000
,
1000
0000
0001
0000
0020
0000
0000
0031
0000
0000
1000
0000
0200
0000
0000
1300
,
0000
0000
0001
0000
0110
0000
0000
2000
0000
0000
0001
0000
3001
0000
0000
0000
,
0100
0000
0001
0000
1000
0000
0000
0010
0000
0000
0100
0000
0101
0000
0010
0000
,
1010
0000
1000
0000
1001
0000
0000
0001
0100
0000
0010
0000
1000
0000
0000
0001
,
0000
0000
0010
0000
0001
0000
0000
0001
0100
0000
0010
0000
1000
0000
0010
0000
,
0001
0000
0100
0000
1000
0000
0000
1000
0001
0000
0010
0000
0101
0000
0000
0100
,
0000
0000
0010
0000
1001
0000
0000
1000
0000
0000
0010
0000
0100
0000
0001
0000
,
0100
0000
0010
0000
1000
0000
0001
0100
0010
0000
1000
0001
0100
0000
0001
2000
,
0000
0000
3010
0000
0100
0001
0010
0001
1000
0010
0100
0000
0001
0000
0100
0020
,
0000
0000
1030
0000
0001
0100
0010
1000
0100
1000
0010
0000
0100
0000
0100
0000
,
0001
0000
1000
0010
2000
0000
0000
3001
0000
0010
0001
0100
0001
0000
1000
0010
,
0100
0000
0000
0000
0001
0010
0001
1000
0100
0000
1000
0001
0010
0000
0001
0100
,
0001
0000
0000
0000
1000
0010
0100
0001
0010
0000
0001
0000
1000
0000
0010
0100
,
0000
0000
0001
0000
1000
0010
1000
0010
0100
0001
1000
0100
0010
0001
0100
0001
,
0000
0000
1000
0001
0100
0001
1000
0010
1000
0000
0001
0000
0100
0010
0100
0000
,
0001
0000
0001
0000
2000
0000
0000
0010
0000
0000
3010
0000
0020
0000
0000
0100
,
0000
0000
0130
0000
0200
0000
0000
0001
0000
0000
0301
0000
1000
0000
0010
0000
,
0100
0000
0001
0000
1010
0000
0000
1000
0000
0000
0001
0000
0011
0000
0000
0100
,
0000
0010
1001
0000
1000
0001
0010
0010
,
0001
0000
0001
0000
1010
0000
0001
1000
0000
0001
0010
0000
0101
0000
0000
0000
,
0100
0000
0010
0000
1010
0000
0000
0001
0100
0000
0010
0000
0101
0000
0000
0000
,
1000
0000
0010
0000
0100
0001
0100
0000
0010
1000
0010
0000
1000
0001
0010
0001
,
0100
0010
1000
0010
0100
0000
0000
0000
1001
0000
1000
0010
0000
0100
0001
0000
,
0010
0000
0001
1000
0000
0000
0010
0000
0100
0001
0100
0010
1000
0010
0001
0000
,
0010
0000
1000
0100
0000
0000
0010
0000
0001
0100
0010
1000
0100
0000
1000
0000
,
0011
0000
0001
0000
1010
0000
1000
0000
0002
0000
0000
0103
0000
0010
1000
0010
,
0100
0000
0001
0010
0001
0000
0000
0000
1000
0010
1000
0001
0100
0000
0010
0100
,
0001
0000
1000
0100
1000
0000
0000
0000
0010
0100
0001
1000
0010
0000
0100
0000
,
0001
0000
0010
0001
0100
0000
0000
0000
0010
1000
0100
1000
0001
0000
0100
0001
,
0010
0001
1000
0100
0000
0000
1000
0010
0100
0001
0010
0001
1000
0000
0010
0100
,
0001
1000
0010
0000
0101
0000
0000
0000
1010
0000
0000
0100
0001
0000
1010
0000
,
1001
0000
0000
0001
0100
0000
0101
0000
0210
0000
0000
0001
0000
0000
0301
0000
,
1020
0000
0000
0100
0000
0000
1030
0000
1001
0000
0000
0010
1000
0000
0101
0000
,
1001
0000
0000
0100
0010
0000
0110
0000
0102
0000
0000
0010
0000
0000
1003
0000
,
0001
0000
0010
0000
1000
0000
0010
0000
0101
0000
0000
0010
1000
0000
1001
0000
,
0110
0000
0000
0001
0010
0000
0011
0000
1010
0000
0000
1000
0010
0000
0101
0000
,
0110
0000
0001
0100
0010
0000
1000
0000
0001
0000
0001
0000
0100
0000
0100
0000
,
0010
1000
0001
0010
0001
0100
0010
1000
0000
0000
0110
0000
0101
0000
0010
0000
,
1100
1000
0011
0001
1001
0000
0000
0000
;
