#TITLE:CHAOS AGAIN;
#SUBTITLE:;
#ARTIST:NAOKI underground -Ω-;
#TITLETRANSLIT:;
#SUBTITLETRANSLIT:;
#ARTISTTRANSLIT:;
#GENRE:;
#CREDIT:;
#MUSIC:chaosagain.mp3;
#BANNER:chaosagain.jpg;
#BACKGROUND:;
#CDTITLE:;
#SAMPLESTART:12.609;
#SAMPLELENGTH:14.055;
#SELECTABLE:YES;
#OFFSET:-0.098;
#BPMS:0.000=150.000
,4.000=151.000
,8.000=152.000
,12.000=153.000
,16.000=154.000
,20.000=155.000
,24.000=156.000
,28.000=157.000
,32.000=158.000
,36.000=159.000
,40.000=160.000
,44.000=161.000
,48.000=162.000
,52.000=163.000
,56.000=164.000
,60.000=165.000
,64.000=166.000
,68.000=167.000
,72.000=168.000
,76.000=169.000
,80.000=170.000
,84.000=171.000
,88.000=172.000
,92.000=173.000
,96.000=174.000
,100.000=175.000
,104.000=176.000
,108.000=177.000
,112.000=178.000
,116.000=179.000
,120.000=180.000
,132.000=178.000
,136.000=176.000
,140.000=174.000
,144.000=173.000
,148.000=172.000
,152.000=171.000
,156.000=170.000
,160.000=171.000
,164.000=172.000
,168.000=173.000
,172.000=174.000
,176.000=173.000
,180.000=172.000
,184.000=171.000
,188.000=170.000
,196.000=172.000
,200.000=174.000
,204.000=176.000
,208.000=178.000
,212.000=180.000
,216.000=182.000
,220.000=184.000
,224.000=186.000
,228.000=188.000
,232.000=190.000
,236.000=192.000
,240.000=194.000
,244.000=196.000
,248.000=198.000
,252.000=200.000
,288.000=210.000
,320.000=150.000
,332.000=155.000
,336.000=160.000
,340.000=165.000
,344.000=170.000
,348.000=180.000
,352.000=190.000
,356.000=200.000
,360.000=220.000
,364.000=230.000
,368.000=240.000
,372.000=260.000
;
#STOPS:;
#BGCHANGES:;
#FGCHANGES:;

//--------------- dance-single - demicore ----------------
#NOTES:
     dance-single:
     demicore:
     Beginner:
     8:
     0,0,0,0,0:
0000
0000
0000
0000
,
0000
0000
0000
0000
,
0000
0000
0000
0000
,
0000
0000
0000
0000
,
1000
1000
1000
0000
,
0001
0001
0001
0000
,
0100
0100
0100
0000
,
0010
0010
0010
0000
,
1001
0000
0001
0100
,
0001
0000
1000
0001
,
1000
0000
0010
1000
,
0010
0000
0100
0010
,
0100
0000
0001
0100
,
0101
0000
1000
0001
,
1001
0000
0010
1000
,
1010
0000
0100
0010
,
0110
0000
0100
0000
,
0010
0000
1000
0001
,
1001
0000
0001
0000
,
0010
0000
0001
0100
,
0001
0001
1000
1000
,
0010
0100
0010
0100
,
0002
0003
2000
3000
,
0020
0000
0200
0330
,
0100
0000
0000
0001
0000
0000
0100
0000
,
0000
0010
0010
0010
,
0100
0000
0000
0001
0000
0000
1000
0000
,
0000
0001
0001
0001
,
1000
0000
0000
0010
0000
0000
0100
0000
,
0000
0001
1000
1000
,
0010
0000
0000
0100
0000
0000
0001
0000
,
0000
1000
0100
0100
,
0020
0000
0031
0000
,
0002
0000
1003
0000
,
2000
0000
3010
0000
,
0020
0000
0130
0000
,
0110
0000
0101
0000
,
1001
0000
1010
0000
,
1000
0010
1000
0000
,
0001
1000
0001
0000
,
0000
0200
0000
0000
0000
0000
0000
0000
,
0300
0010
1000
0001
,
0020
0000
0030
0002
0000
0003
0200
0000
,
0000
0000
0300
0010
,
2000
0000
0000
3000
,
0000
0001
0000
0100
0000
0000
0001
0000
,
2000
0000
0000
0000
,
3002
0000
0000
0000
,
0103
0000
0000
0000
,
0000
0010
0100
0001
,
0100
0000
0000
0000
,
0001
1000
0001
0100
,
0010
0000
0010
0000
,
0100
0000
0100
0000
,
0001
0000
0001
0000
,
1000
0000
1000
0000
,
1010
0000
0001
1000
,
0001
0000
0100
0001
,
0100
0000
0010
0100
,
0010
0000
1000
0100
,
1000
0000
0000
0001
0000
0000
1000
0000
,
1000
0000
0010
0100
,
0010
0000
0100
0001
,
0100
0000
0001
0010
,
0001
0000
1000
0000
,
0010
0000
0100
0000
,
0010
0000
1000
0000
,
0001
0000
0011
0000
,
0010
0000
0001
0000
,
0100
0000
0010
0000
,
1000
0000
0100
0000
,
1000
0000
1100
0000
,
1000
0000
0010
0000
,
0100
0100
0100
0000
,
0001
0000
1000
0000
,
0010
0010
0010
0000
,
0100
0000
0001
0000
,
1000
1000
1000
0000
,
0010
0000
0100
0000
,
0010
0010
0010
0000
,
0000
2002
0000
0000
0000
0000
0000
0000
,
0000
0000
3003
0000
,
0200
0300
0002
0003
,
2000
0000
3000
0000
,
0020
0030
0200
0300
,
0002
0000
0003
0000
,
1000
0001
1000
0000
,
0010
0100
0010
0000
,
1000
0100
1000
0000
,
0001
0100
0001
0000
,
0100
0000
0001
0000
,
1000
0000
0010
0000
,
0110
0000
0000
0000
,
1001
0000
0000
0000
;

//--------------- dance-single - demicore alterative ----------------
#NOTES:
     dance-single:
     demicore alterative:
     Easy:
     12:
     0,0,0,0,0:
0000
0000
0000
0000
,
0000
0000
0000
0000
,
0000
0000
0000
0000
,
0000
0000
0000
0000
,
1000
1000
0010
0010
,
0100
0000
0001
0100
0001
0000
1000
0000
,
0010
0010
0100
0100
,
0001
0000
1000
0001
1000
0000
0001
0000
,
0100
0000
0001
1000
0010
0000
0100
0000
,
0001
0000
1000
0001
0010
0000
0001
0000
,
0100
0000
0010
1000
0001
0000
0100
0000
,
0020
0100
0100
0130
,
0001
0000
1000
0010
0100
0000
0001
0000
,
1000
0000
0001
0100
0010
0000
0100
0000
,
0010
0000
1000
0001
0010
0000
0001
0000
,
0100
0000
0010
0100
0000
0010
0100
0000
,
0110
0000
0000
1000
1000
0000
0000
0001
,
0001
0000
0000
0010
0010
0000
0001
0000
,
1001
0000
0000
1000
1000
0000
0000
0010
,
0010
0000
0000
0100
0100
0000
0001
0000
,
0101
0000
0000
0001
0100
0000
0000
0001
,
1000
0000
0000
0010
0100
0000
0010
0000
,
1010
0000
0000
1000
0001
0000
0000
0010
,
0001
0000
0000
0100
0010
0000
0100
0000
,
0010
1000
0000
0001
0000
0010
0002
0000
,
0003
0100
0001
0100
0010
0000
0100
0000
,
0010
0100
0000
0001
1000
0001
0200
0000
,
0300
0001
0000
0010
0001
0100
0001
0000
,
0100
0001
0000
1000
0000
0010
0200
0000
,
0300
0010
0100
0001
0100
0000
0001
0000
,
1000
0010
0000
1000
0010
1000
0002
0000
,
0003
0010
0000
0001
0100
0010
0100
0000
,
0010
1000
0001
0011
,
0010
0001
1000
1100
,
0100
0010
0001
0101
,
1000
0010
0100
0110
,
0200
0310
0002
0013
,
2000
3100
0002
0103
,
1000
0001
0100
0010
,
2000
3002
2003
3002
,
0103
0020
0000
0000
1000
0000
1000
0000
,
1000
0230
0302
2003
,
3020
0000
0130
0002
0000
1003
0200
0000
,
0000
1000
0000
1000
,
0320
0001
0000
0100
,
0000
0032
0000
2003
0000
0000
3010
0000
,
0100
0001
1001
1000
,
1010
0010
0110
0100
,
0101
0000
1000
0001
,
0100
0000
0001
1000
0010
0000
0100
0000
,
0110
0000
0100
0001
,
0100
0010
0100
0001
0100
0000
0001
0000
,
1001
1000
0010
0100
,
0101
0000
0001
0100
0010
0000
1000
0000
,
1010
0010
0100
0001
,
1001
1000
0001
0010
,
0011
0000
0001
0100
0001
0000
0100
0000
,
0010
0000
1000
0001
1000
0000
0001
0000
,
0100
0000
0001
0100
0001
0000
1000
0000
,
0010
0110
0100
0101
,
0001
0000
1000
0010
0000
1000
0010
0000
,
0100
0000
0001
1000
0001
0000
0100
0000
,
0010
0000
1000
0001
1000
0000
0001
0000
,
0010
0000
0001
0010
0000
0001
0010
0000
,
0001
0100
0010
0010
,
1000
0001
1000
0000
0001
0000
0100
0000
,
0010
0100
0001
0001
,
1000
0010
1000
0000
0010
0100
0010
0000
,
0100
0001
1000
1000
,
0001
0100
0001
0000
0100
0000
0010
0000
,
0100
0001
0010
0010
,
0001
0010
0001
0000
0100
0001
0100
0000
,
0010
1000
0001
0010
,
0001
0100
0110
0101
,
0001
1000
0010
0100
,
0001
0000
1000
0000
0010
1000
0010
0000
,
0100
0001
1000
0010
,
0100
0001
1001
1010
,
0100
0001
1000
0001
,
0010
0001
0010
0000
0001
1000
0001
0000
,
0000
2002
0000
0000
0000
0000
0000
0000
,
0000
0000
3003
0000
,
2000
3010
0002
0103
,
0200
1000
0010
0301
,
0002
0013
0200
0310
,
0002
1000
0010
0103
,
0001
0000
1000
0000
0010
1000
0010
0000
,
0100
0000
0001
0000
0010
0001
0010
0000
,
0001
0000
1000
0000
0010
0100
0010
0000
,
0100
0000
0001
0000
1000
0010
1000
0000
,
0001
0010
0001
1000
,
0010
0000
0100
0000
0010
0100
0010
0000
,
0100
0000
0000
0000
,
1001
0000
0000
0000
;

//--------------- dance-single - demicore retunes ----------------
#NOTES:
     dance-single:
     demicore retunes:
     Medium:
     16:
     0,0,0,0,0:
0000
0000
0000
0000
,
0000
0000
0000
0000
,
0000
0000
0000
0000
,
0000
0000
0000
0000
,
1000
0000
0001
0000
0010
0000
0001
0100
0000
0010
0000
1000
0010
0000
0100
0000
,
0010
0000
1000
0000
0001
0000
0010
0001
0000
0100
0000
0001
0010
0000
0001
0000
,
1000
0000
0010
0000
0100
0000
0001
1000
0000
0100
0000
0010
0001
0000
0100
0000
,
0010
0000
1000
0000
0010
0000
0100
0001
0000
1000
0000
0001
0010
0000
0001
0000
,
0101
0000
0000
0000
0001
1000
0100
1000
0010
0000
0100
0000
0001
0000
1000
0000
,
1010
0000
0000
0000
0001
1000
0010
0100
0001
0000
0010
0000
0001
0000
1000
0000
,
1100
0000
0000
0000
0010
0001
0100
0010
1000
0000
0001
0000
0010
0000
0001
0000
,
0101
0000
0000
0000
0220
0330
0000
0000
2020
3030
0000
0000
0202
0303
0000
0000
,
2002
3003
0000
0000
1000
0010
0100
0001
1000
0000
0010
0000
0100
0000
0001
0000
,
1001
0000
0000
0000
1000
0010
0100
0010
1000
0000
0001
0000
0010
0000
0001
0000
,
0101
0000
0000
0000
0100
0010
1000
0100
0010
0000
0001
0000
0100
0000
0001
0000
,
0011
0000
0000
1000
0000
0001
0100
0010
1000
0010
0000
0000
,
1010
0000
0000
0000
1000
0000
0001
0100
0020
0000
0000
0000
1030
0000
0001
0010
,
0200
0000
0000
0000
0310
0000
0001
1000
0100
0000
0010
0000
0001
1000
0010
0000
,
0200
0000
0000
0000
0301
0000
0010
0001
2000
0000
0000
0000
3010
0000
0100
0001
,
0020
0000
0000
0000
0031
0000
1000
0001
0010
0000
0001
0000
0100
0010
1000
0000
,
0001
0000
0100
0000
0010
0000
1000
0010
0100
0000
0001
0000
1000
0000
0001
0100
,
0010
0000
1000
0000
0001
0000
0010
0001
0100
0000
0001
0000
1000
0010
0100
0000
,
0001
0000
0100
0000
0010
0000
1000
0001
0010
0000
0001
0000
1000
0000
0100
0010
,
0001
0000
1000
0000
0001
0000
0010
0001
0100
0000
0001
0000
1000
0000
0010
1000
,
0001
0101
0000
1001
0000
1000
1020
0000
,
0130
0000
0001
0000
1000
0000
0010
0000
0110
0000
0000
0000
0001
1000
0010
0000
,
1000
1010
0000
0101
0001
0100
0120
0000
,
1030
0000
1001
0000
0000
0000
0010
0000
0001
0000
1000
0001
0000
0100
0001
0000
,
1000
1001
0000
0011
0000
0001
0102
0000
,
0013
0000
0001
0000
1000
0000
0010
0000
0110
0000
0000
0000
0010
1000
0001
0000
,
0010
0011
0000
0101
0001
1000
1010
0000
,
0010
0000
0110
0000
0100
0000
0101
0000
0001
0000
1000
0001
0000
0100
0010
0000
,
1000
0000
0001
0000
0010
0000
0001
0000
0100
0000
0010
1000
0000
0001
0100
0000
,
0001
0000
0010
0000
0001
0000
1000
0000
0001
0000
0100
0010
0000
1000
0010
0000
,
0100
0000
0001
0000
0010
0000
0001
0000
1000
0000
0100
0010
0000
0001
1000
0000
,
0020
0100
2030
0100
3002
0010
0203
0010
,
0301
1001
0110
0101
,
1010
0000
1100
0000
0011
0001
0101
0000
,
0100
0000
0001
0000
1000
0000
0100
0000
0010
0000
0001
1000
0000
0010
1000
0000
,
0001
0100
0101
0000
1000
0001
1001
0000
,
0100
0000
1002
0000
1000
0000
0003
0100
0010
0000
0100
0000
0001
0000
1000
0000
,
0010
0100
0102
0003
2010
3000
0120
0030
,
2010
0000
3000
0001
0100
0000
0102
0000
0000
1003
0010
0000
0210
0000
0000
0000
,
0301
0000
1000
0000
0010
0000
0100
0000
0001
0010
0001
0000
2000
0000
0000
0000
,
3020
0000
0100
0000
0130
0000
0000
0001
1000
0000
0010
0000
0110
0000
0100
0000
,
0001
2000
0010
3002
0100
0003
1001
0000
,
1010
0000
0000
1000
0010
1000
0001
0100
0001
1000
0000
0001
,
0010
0000
0000
0001
1000
0100
1000
0010
0100
0010
0000
0000
,
2001
0000
0000
0000
0100
0000
0000
0000
3010
0000
0000
0100
0001
0000
1000
0000
,
0010
0000
0000
0100
0010
0000
0100
0000
0001
0000
1000
0010
0000
0010
0100
0000
,
0002
0000
0000
0000
0010
0000
0000
0000
1003
0000
0000
0010
0100
0000
0001
0000
,
2000
0000
3002
0000
0023
0000
0032
0000
0103
0000
0010
1000
0000
1000
0001
0000
,
0200
0001
1000
0010
,
0302
0000
0000
0000
1003
0000
0010
0000
0100
0000
0001
1000
0000
1000
0100
0000
,
0020
1000
0001
0100
,
0032
0000
1003
0010
0100
0000
0110
0000
,
1001
0000
0000
0000
1000
0010
0100
0000
0001
0000
1000
0000
0001
0000
0010
0000
,
0011
0000
0000
0000
0001
1000
0010
0000
0100
0000
0010
0000
1000
0000
0001
0000
,
0101
0000
0000
0000
0100
0001
1000
0000
0010
0000
1000
0000
0100
0000
0010
0000
,
0011
0101
0110
1010
,
1001
0000
0010
1010
0000
1000
1100
0000
,
0101
0000
0000
0000
0100
0010
1000
0000
0001
0000
0100
0000
0001
0000
0010
0000
,
0110
0000
0000
0000
0010
0001
1000
0000
0010
0000
0100
0000
0001
0000
1000
0000
,
1001
0000
0000
0000
0000
0000
1000
0000
0000
0000
0001
0000
0100
0000
0001
0000
1000
0000
0010
0000
0000
0100
0000
0000
,
0010
0000
1000
0000
0001
0000
0100
0000
0001
0000
1000
0010
0000
0100
0010
0000
,
1000
0001
0010
0000
0001
0000
1000
0000
0010
0000
1000
0100
0000
0010
0001
0000
,
0100
0000
0010
0000
1000
0000
0001
0000
0010
0000
0001
0100
0000
0001
1000
0000
,
0010
0000
0100
0000
0002
0000
0000
0000
1003
0000
0001
1000
0020
0000
0000
0000
,
0130
0000
0001
0000
1000
0000
0100
0000
0010
0000
0001
1000
0000
0010
0100
0000
,
0001
1000
0010
0000
0200
0000
0000
0000
0301
0000
1000
0010
0000
0100
0010
0000
,
0100
0000
0001
0000
0010
0000
0001
0000
1000
0000
0100
1000
0000
0001
0010
0000
,
0001
0000
0100
0000
0020
0000
0000
0000
1030
0000
0001
0100
0002
0000
0000
0000
,
1003
0010
0100
0000
0001
0000
0100
0000
0020
0000
0000
2030
0000
0000
3001
0000
,
0100
0010
1000
0000
0002
0000
0000
0000
0103
0000
0000
0010
0000
0000
1000
0000
,
0001
1000
0010
0000
0100
0000
0001
0000
2000
0000
0000
3002
0000
0000
0013
0000
,
0001
0000
0100
0000
0020
0000
0000
0000
1030
0000
0001
1000
0200
0000
0000
0000
,
0310
0000
0001
0000
1000
0000
0010
0000
0100
0000
0001
1000
0000
0001
1000
0000
,
0010
0000
0100
0000
0001
0000
1000
0000
0010
0000
0100
0010
0000
0100
0001
0000
,
1000
0000
0001
0000
0010
0000
0001
0000
0100
0000
0010
1000
0000
0001
0100
0000
,
0010
1000
0001
0000
0100
0000
0010
0000
1000
0001
0010
0000
0001
0000
0100
0000
,
0000
2002
0000
0000
0000
0000
0000
0000
,
0000
0000
3003
0000
,
0002
0000
0103
0010
2000
0000
3001
0100
,
0020
0000
0000
0000
1030
0000
0001
0000
0100
0001
1000
0000
0010
0000
0100
0000
,
0002
0000
0000
0000
1003
0000
0010
0000
0100
0000
0001
0100
0000
0010
1000
0000
,
0001
0000
0100
0000
0000
0001
0000
0000
0101
0000
0000
1000
0000
0000
0010
0000
,
0100
0000
0001
0000
1000
0000
0010
0000
0100
0000
0010
0000
1000
0000
0010
1000
,
0010
0000
0100
0000
0001
0000
1000
0000
0100
0000
0010
0000
0001
0000
1000
0001
,
1000
0000
0010
0000
0100
0000
0001
0000
0010
0000
0001
0000
1000
0000
0100
1000
,
0100
0000
0010
0000
0001
0000
0100
0000
0010
0000
1000
0000
0001
0000
0100
0010
,
0100
0001
1000
0010
0100
0001
1000
0001
,
0010
0100
1000
0001
0100
0010
1000
0001
,
0100
0000
0000
0000
,
0001
1000
0000
0000
0000
0000
0000
0000
;

//--------------- dance-single - demicore改 ----------------
#NOTES:
     dance-single:
     demicore改:
     Hard:
     18:
     0,0,0,0,0:
0000
0000
0000
0000
,
0000
0000
0000
0000
,
0000
0000
0000
0000
,
0000
0000
0000
0000
,
0101
0000
0001
0000
1000
0000
0010
1000
0000
0001
0000
0100
0010
1000
0010
0000
,
0100
0000
0001
0000
1000
0000
0100
0010
0000
0001
0000
1000
0010
0100
0001
0000
,
0100
0000
0010
0000
1000
0000
0001
0100
0000
0010
0000
0100
0001
1000
0010
0000
,
0100
0000
0001
0000
1000
0000
0100
0010
0000
0100
0000
1000
0001
0100
0010
0000
,
0102
0000
1003
0000
0010
1000
0001
0100
0001
0000
1000
0000
0010
0000
0100
0000
,
0210
0000
0301
0000
1000
0010
0100
0001
1000
0000
0010
0000
0100
0000
0001
0000
,
0012
0000
1003
0000
0010
1000
0100
1000
0010
0000
0100
0000
0001
0000
1000
0000
,
0120
0000
1030
0000
2020
0030
3000
0000
2002
3000
0003
0000
0202
0003
0300
0000
,
1020
0000
0130
0000
0001
1000
0100
1000
0010
0000
0100
0000
0001
0000
0010
0000
,
0012
0000
0103
0000
0001
1000
0010
0100
0010
0000
1000
0000
0010
0000
0100
0000
,
1002
0000
0013
0000
0001
1000
0100
0010
0100
0000
0010
0000
0001
0000
1000
0000
,
0001
0100
0010
1000
0000
0001
0100
0001
1000
0100
0010
0001
,
0200
0000
0300
0000
0001
0000
1000
0010
0200
0000
0300
0001
1000
0000
0001
0100
,
0020
0000
0030
1000
0001
0000
0100
0001
0010
0000
0001
1000
0010
1000
0001
0000
,
2000
0000
3000
0000
0001
0000
0010
0001
0200
0000
0300
0000
0010
0000
1000
0001
,
0010
0000
0001
0000
1000
0000
0010
1000
0001
0000
0100
0010
0001
0010
0100
0000
,
0001
1000
0010
1000
0100
0000
0010
0000
0001
1000
0001
0010
0100
0000
0010
0000
,
0001
0000
1000
0001
0010
0000
0001
0100
0010
0000
1000
0001
0100
0010
0100
0000
,
0002
0000
2003
0000
3020
0000
0130
0001
2000
0000
3200
0000
0320
0000
0031
0100
,
0010
1000
0001
0000
0100
0000
0010
1000
0100
0010
0001
0000
0100
0010
1000
0000
,
0001
0110
0001
1001
0000
0010
1010
0000
,
0100
0011
1001
1010
0110
0000
1001
0000
,
0011
0101
0010
1100
0110
0011
1001
0000
,
0100
0011
0010
0101
1001
1010
0110
0000
,
1000
0001
0010
0000
0000
0000
0101
0000
0001
1000
0010
0100
0020
0000
0000
0000
,
1030
0000
0100
0000
0100
0000
0100
0000
0010
0001
1000
0000
0001
1000
0010
0100
,
0010
0000
1000
0000
0001
0100
0010
0000
1000
0000
0100
0000
0110
0000
0000
0000
,
0010
0000
0001
0000
1000
0000
0001
0000
0100
0010
1000
0001
0100
0000
0010
0000
,
1000
0000
0010
0000
0100
0000
0001
0000
1001
0000
1000
0010
0000
0100
0001
0000
,
0010
0001
0100
0000
0010
0000
1000
0000
1010
0000
1000
0001
0000
0010
0001
0000
,
1000
0001
0010
0000
0001
0000
0100
0000
0110
0000
0100
0001
0000
1000
0001
0000
,
0200
0000
0310
0000
0020
0000
0130
0000
0100
0001
1000
0001
0010
0000
0001
0000
,
0101
0000
0000
0001
0100
0000
0000
0010
1000
0000
0000
1000
0010
0100
0010
0000
,
0110
0000
0000
0100
0001
0000
0000
1000
0001
0000
0100
0000
0020
0000
0000
0000
,
1030
0000
0001
0000
0010
0001
0100
0000
0001
1000
0100
0010
0001
0000
0100
0010
,
2000
3020
0230
0302
,
1003
0000
1010
0000
0100
0000
0001
1000
0010
0000
0100
0001
0010
0000
0001
0000
,
1000
0000
0010
0000
1010
0000
0100
0000
0101
0000
0010
0000
0110
0000
0100
0001
,
0020
0000
0000
0031
0100
0000
0002
0000
0000
0103
0010
0000
2000
0000
3010
0000
,
0100
0001
1000
0001
0010
0000
0001
1000
0100
0000
0010
0001
0200
0000
0300
0000
,
0110
0000
0100
0000
0001
0000
0000
1000
0010
0000
0100
0001
1000
0000
0010
0000
,
0100
0000
0101
0000
0010
0000
2010
0000
0000
0000
3001
0100
0010
0000
0100
0000
,
0110
0000
0000
1000
0010
0100
0001
1000
0100
0010
0001
0100
,
0010
0000
0000
1000
0010
1000
0001
0100
0001
2000
0000
0000
,
3010
0000
0100
0000
0001
0000
1000
0010
0000
0100
0000
0010
1000
0001
1000
0000
,
0002
0000
0000
0103
0010
0000
1000
0001
0100
0000
0010
1000
0000
0001
1000
0000
,
0001
0000
0010
0000
0001
0000
1000
0010
0000
0100
0001
0100
0010
0000
0100
0000
,
0002
0000
2003
0000
3020
0000
0230
0000
0310
0000
1000
0001
0000
1000
0010
0000
,
0100
0000
0001
0000
0010
0000
0001
1000
0000
0010
1000
0100
0010
0000
0001
0000
,
0100
0000
0001
0000
1000
0000
0010
1000
0000
0001
0100
0010
0100
0000
0001
0000
,
1000
0000
0010
0000
0100
0000
0010
0001
0000
0100
0010
1000
0010
0000
0100
0000
,
0001
0000
1000
0000
0001
0000
0010
0001
0000
1000
0100
0010
0001
0000
0100
0000
,
0110
0000
0010
0000
1000
0001
0010
0001
0100
0000
0001
0000
1000
0010
0100
0000
,
0101
0000
0001
0000
1000
0010
0001
0010
1000
0000
0001
0000
0100
0001
1000
0000
,
1010
0000
0100
0000
0001
1000
0100
1000
0010
0000
0100
0000
0001
1000
0010
0000
,
0110
0000
0100
0001
2000
0000
3010
0000
0002
0000
0013
0000
0200
0000
0310
0000
,
0101
0000
0000
0001
1000
0000
1010
0000
0000
0100
0010
0000
0110
0000
0000
0100
,
0002
0000
1003
0000
0010
0100
0010
1000
0100
0000
0010
0000
0001
0100
0010
0000
,
2000
0000
3001
0000
0010
0001
0100
0010
1000
0000
0001
0000
0100
0010
0100
0000
,
0002
0000
0000
0000
0000
0000
1003
0000
0000
0000
0000
0000
0010
0000
0000
0000
0000
0000
1000
0000
0000
0001
0000
0000
0010
0000
0000
0000
0001
0000
0000
0000
1000
0000
0000
0000
0100
0000
0000
0000
0010
0000
0000
0000
0001
0000
0000
0000
,
0100
0000
0001
1000
0010
0000
0100
0001
0010
0000
0000
0101
0000
0000
1001
0000
,
1000
0000
0010
1000
0010
0000
0100
0001
0010
0000
0000
0101
0000
0000
0110
0000
,
0100
0000
0001
1000
0100
0000
0010
0001
0100
0000
0000
0110
0000
0000
1010
0000
,
1000
0001
0010
0001
0100
0000
0010
0000
1010
0000
1000
0000
0102
0000
0003
0000
,
1000
0000
0001
0010
0001
0000
1000
0010
0100
0000
0000
0101
0000
0000
1001
0000
,
1000
0000
0001
1000
0100
0000
0010
0001
0100
0000
0000
0101
0000
0000
0011
0000
,
0001
0000
1000
0010
0100
0000
0010
1000
0100
0000
0000
1100
0000
0000
1010
0000
,
1000
0000
0001
0100
0010
0000
1000
0001
0010
0000
0010
0000
0002
0000
0000
0000
,
1003
0000
0010
0100
0001
0000
1000
0001
0100
0000
0000
0110
0000
0000
0010
0000
,
0100
0000
0001
1000
0010
0000
1000
0010
0100
0000
0000
0101
0000
0000
0001
0000
,
1000
0000
0100
0010
0001
0000
0100
0010
1000
0000
0000
0001
0100
0000
0010
0000
,
0100
0000
0010
1000
0001
0000
0100
0001
1000
0000
0010
1000
0000
0001
1000
0000
,
0010
0001
1000
0001
0100
0000
0001
0000
0010
0000
0000
1010
0000
0000
1000
0000
,
0001
0100
0010
1000
0001
0000
0100
0000
0010
0000
0000
0110
0000
0000
0100
0000
,
0001
1000
0010
1000
0100
0000
1000
0000
0001
0000
0000
0011
0000
0000
0001
0000
,
0100
0010
1000
0001
0100
0000
0010
0000
1000
0001
0010
0001
0100
0010
1000
0001
,
0000
2002
0000
0000
0000
0000
0000
0000
,
0000
0000
3003
0000
,
2000
0000
0000
0000
3001
0000
0010
0001
0200
0000
0000
0000
0310
0000
1000
0001
,
0100
0000
0010
1000
0100
0000
0010
0001
0100
0000
0001
1000
0010
0000
0100
0001
,
0020
0000
0000
0000
0031
0000
1000
0001
0200
0000
0000
0000
0310
0000
1000
0001
,
0010
0001
0100
0000
0001
1000
0000
0010
0100
0000
0010
0100
0000
0001
0010
0000
,
0001
0000
1000
0000
0010
0000
0100
0000
0101
0000
0001
0000
1000
0000
0010
0100
,
0001
0000
1000
0000
0100
0000
0010
0000
0011
0000
0001
0000
1000
0000
0010
1000
,
0100
0000
0010
0001
0100
0000
0010
0000
1000
0000
0001
1000
0010
0000
0100
0000
,
0001
1000
0010
1000
0001
0000
0100
0000
0010
0100
0001
0100
0010
0000
1000
0000
,
0001
0100
0010
0100
1000
0100
0010
1000
,
0001
0100
0010
0100
0001
1000
0100
1000
0010
0100
0001
1000
0100
0010
0001
0100
,
0010
0000
0000
0000
,
0010
0100
0010
0000
0000
0000
0000
0000
0000
0000
0000
0000
0000
0000
0000
0000
;

//--------------- dance-single - demicore UNLEASHED ----------------
#NOTES:
     dance-single:
     demicore UNLEASHED:
     Challenge:
     19:
     0,0,0,0,0:
0000
0000
0000
0000
,
0000
0000
0000
0000
,
0000
0000
0000
0000
,
0000
0000
0000
0000
,
1001
0000
1000
0000
0010
0000
1000
0100
0000
0010
0001
0010
0100
1000
0001
0000
,
0101
0000
0100
0000
0010
0000
1000
0001
0000
0010
0001
0010
1000
0001
0100
0000
,
1010
0000
0100
0000
0001
0000
0100
0010
0000
1000
0010
0001
0010
0100
0001
0000
,
1001
0000
1000
0000
0010
0000
0100
0001
0000
1000
0010
1000
0001
0010
0100
0000
,
2010
0000
3001
0000
0100
0001
1000
0001
0010
0000
0001
0000
1000
0000
0010
0000
,
0210
0000
0301
0000
1000
0010
0100
0010
0001
0000
0100
0000
0010
0000
1000
0000
,
0011
0000
0001
0000
1000
0001
0100
0001
1000
0000
0010
0000
0100
0000
0001
0000
,
2001
0000
3100
0000
1000
0010
0100
0000
1000
0100
0010
0000
0100
0001
1000
0000
,
0012
0000
0103
0000
0010
0001
1000
0010
0001
0000
0010
0000
1000
0000
0100
0000
,
2010
0000
3001
0000
0010
0001
1000
0010
0001
0000
0100
0000
0010
0000
1000
0000
,
2010
0000
3100
0000
0001
1000
0010
0001
1000
0000
0100
0000
0001
0000
1000
0000
,
2001
0000
0000
0000
0000
0000
3010
0000
0000
0000
0000
0000
0100
0000
0000
0000
0000
0000
0001
0000
0100
0000
0010
0000
0100
0000
0000
0001
0000
0000
1000
0000
0000
0010
0000
0000
0100
0000
0000
0000
0000
0000
0000
0000
0000
0001
0000
0000
,
2000
0000
0010
0000
3001
0000
0010
0001
0200
0000
1000
0000
0310
0000
1000
0001
,
0020
0000
0100
0000
0031
0000
1000
0001
0010
0000
0001
0100
0010
0000
1000
0000
,
0002
0000
0010
0000
1003
0000
0100
1000
0020
0000
0001
0000
0130
0000
0001
1000
,
0200
0000
1000
0000
0310
0000
0001
0010
0100
0000
1000
0001
0010
0001
0100
0000
,
1001
0000
1000
0001
0010
0000
0001
0100
0010
0000
1000
0100
0010
0000
0100
0010
,
0001
0000
0100
0010
1000
0000
0001
0010
0100
0000
0001
0100
1000
0000
0010
0000
,
0100
0000
0000
0001
0000
0000
0010
0000
0000
0100
0000
0000
1000
0000
0000
0001
0000
0000
0100
0000
0000
0010
0000
0000
1000
0000
0000
0010
0000
0000
0100
0000
0000
0001
0000
0000
1000
0000
0010
0000
1000
0000
0001
0000
0100
0000
0010
0000
,
0100
0000
0001
0000
1000
0100
0010
0001
0100
0000
0010
0100
0001
0000
1000
0001
,
0100
0000
0110
0000
0000
0000
1001
0000
0001
0100
0010
1000
0200
0000
0300
1000
,
0010
0000
0110
0000
1100
0000
0110
0000
2001
0000
0000
0000
3001
0100
0010
0000
,
0110
0000
0101
0000
1000
0001
0010
0000
0001
1000
0100
0010
0002
0000
1003
0000
,
0001
0100
0010
0000
0100
0000
0110
0000
1100
0000
0101
0000
0012
0000
0000
0000
,
1003
0000
1010
0000
0001
0100
0010
0000
1000
0100
0010
0001
0200
0000
0310
0000
,
0100
0001
0010
0000
0011
0000
1001
0000
2100
0000
3010
0000
0102
0000
1003
0000
,
0100
0001
0010
0000
0001
0000
1000
0000
0010
0100
0001
0100
0020
0000
1030
0000
,
0100
0000
0010
0001
1000
0000
0010
0100
0001
0000
1000
0000
1002
0000
0000
0000
,
0103
0000
0010
0000
1000
0000
0001
0100
0010
0000
1000
0100
0000
0010
0001
0000
,
0100
0000
0100
0000
0001
1000
0010
0000
0100
0001
1000
0010
0001
0000
0010
0000
,
0100
0000
0001
0000
1000
0010
0100
0000
0002
0000
1003
0010
0000
0100
0010
0000
,
1010
0000
1000
0000
0101
0000
0001
0000
0100
0010
1000
0001
0010
0000
0001
0000
,
0001
1000
0010
0000
1001
0000
0000
0000
0100
0001
0010
0000
1001
0000
0000
0000
,
0010
1000
0100
0000
1010
0000
0000
0000
1000
0001
0010
0001
0100
0000
0000
0000
,
0010
0000
0010
1000
0100
0000
0010
0001
1000
0000
0010
0100
0001
0000
1000
0000
,
0020
0130
2000
3001
0020
0031
0200
0310
,
1000
0000
0002
0000
0010
0000
0103
0010
1000
0000
0001
0000
1001
0000
1000
0000
,
0010
0000
0100
0001
2000
0000
0010
3100
0002
0000
1000
0013
0200
0000
0001
1300
,
0020
0000
1000
0001
0000
0000
0230
0000
1000
0001
0000
0000
0320
0000
0100
0000
,
1030
0000
0001
1000
0010
0000
0100
0001
0010
0000
0100
1000
0020
0000
0000
0000
,
0130
0000
0001
0000
1000
0000
0001
1000
0010
0000
0010
0100
0001
0000
1000
0000
,
0010
0000
1000
0010
0100
0000
0001
1000
0010
0000
0100
0001
1000
0000
0010
0100
,
0101
0000
0000
1000
0001
0010
0100
1000
0010
0010
0100
0001
,
1001
0000
0000
0000
0100
0000
0010
0000
1000
0000
0001
0000
0100
0000
0010
1000
0100
0000
2000
0000
0000
0000
0000
0000
,
3001
0000
0100
0000
0010
0000
1000
0001
0000
0001
0100
0010
1000
0001
0010
0000
,
0001
0000
1000
0010
0110
0000
0001
1000
0200
0000
0310
0002
0000
1003
0020
0000
,
0130
0000
0001
0000
1010
0000
1000
0001
0000
0010
0001
1000
0010
0100
0010
0000
,
2000
0000
3002
0000
0023
0000
0032
0000
0103
0000
0010
1000
0000
0001
1000
0000
,
0011
0000
0001
0000
1000
0000
0001
0100
0000
0010
1000
0010
0001
0100
0010
0000
,
1010
0000
1000
0000
0001
0000
0010
0001
0000
1000
0001
0010
0001
0100
0010
0000
,
0101
0000
0001
0000
1000
0000
0010
1000
0000
0100
1000
0100
0010
0001
0100
0000
,
0101
0000
0010
0000
1000
0000
0001
1000
0000
1000
0010
0100
0010
1000
0001
0000
,
0120
0000
0031
0000
1000
0001
0010
0001
0100
0000
0010
0000
1000
0000
0001
0000
,
0210
0000
1300
0000
0001
1000
0100
0010
0001
0000
0100
0000
0010
0000
1000
0000
,
1020
0000
0031
0000
0100
0001
1000
0001
0100
0000
0010
0000
1000
0000
0001
0000
,
0011
0000
0001
0000
1000
0010
0100
0000
0001
1000
0010
0000
0100
0001
0010
0000
,
0100
0010
1000
0000
1010
0000
1000
0001
0010
0000
0011
0000
0001
0100
0010
0000
,
0110
0000
0100
0000
0001
1000
0100
1000
0010
0000
0100
0000
0001
0000
1000
0000
,
1010
0000
0100
0000
0001
0100
1000
0100
0010
0000
1000
0000
0001
0000
0010
0000
,
0011
0000
0000
0000
0000
0000
0001
0000
0000
0000
0000
0000
0100
0000
0000
0000
0000
0000
0001
0000
1000
0000
0001
0000
0010
0000
0000
0001
0000
0000
0100
0000
0000
0010
0000
0000
1000
0000
0000
0001
0000
0000
0100
0000
0000
0010
0000
0000
,
0100
0000
0001
1000
0010
0000
0100
0001
1000
0000
0010
1000
0000
0001
0100
0000
,
0001
1000
0010
0001
1000
0000
0100
0010
1000
0000
0001
0100
0000
0001
1000
0000
,
0010
0000
0100
0001
1000
0000
0010
0100
0001
0000
1000
0100
0000
0010
0001
0000
,
0100
0001
1000
0100
0020
0000
0031
1000
0010
0100
0001
1000
0200
0000
0310
0001
,
1000
0000
0010
0100
0001
0000
1000
0001
0100
0000
0010
1000
0000
0001
0100
0000
,
0010
1000
0001
0100
0010
0000
1000
0001
0010
0000
0001
0100
0000
0010
1000
0000
,
0100
0000
0010
0001
1000
0000
0001
1000
0010
0000
0100
0001
0000
0010
0001
0000
,
1000
0100
0010
0001
0200
0000
0310
0000
1000
0001
0010
0001
2000
0000
3001
0000
,
0100
0001
0010
0100
1000
0001
0010
0000
0001
0000
0100
0010
0000
1000
0001
0000
,
0100
0010
1000
0001
0010
0000
0001
1000
0100
0000
0010
0001
0000
1000
0010
0000
,
0100
0001
1000
0010
0100
0001
0010
0000
0001
0000
1000
0010
0000
0100
0010
0000
,
0100
0001
0010
0100
2000
0000
3001
0000
0100
0010
1000
0010
0100
0001
1000
0010
,
0100
0001
0010
0001
1000
0000
0010
0100
0001
0000
1000
0100
0000
0010
0001
0000
,
0100
0001
0010
0001
1000
0000
0010
1000
0100
0000
0010
0001
0000
0100
0001
0000
,
1000
0001
0010
0001
0100
0000
0010
1000
0001
0000
0100
0001
0000
1000
0010
0100
,
0001
0010
0001
1000
0100
0010
0001
0100
0010
1000
0001
0010
0001
0100
0010
1000
,
0000
2002
0000
0000
0000
0000
0000
0000
,
0000
0000
3003
0000
,
1000
0001
0010
0001
2000
0000
3010
0000
0100
0001
0010
0001
0200
0000
0310
0000
,
1000
0001
0010
0001
1000
0100
0010
0001
0100
0000
0010
1000
0000
0001
1000
0010
,
0100
0010
0001
0010
0200
0000
0301
1000
0010
0000
0100
0001
0000
1000
0001
0000
,
0100
0001
1000
0010
0100
0001
0000
1000
0001
0000
0010
0001
0000
1000
0010
0000
,
1010
0000
1000
0000
0001
0000
1000
0010
0100
0000
0001
0000
1000
0000
0100
0010
,
0001
0000
0100
0010
1000
0000
0001
0100
0010
0000
1000
0000
1001
0000
0100
0001
,
0010
0000
0001
1000
0010
0000
0100
0001
0010
0000
0001
0000
1000
0000
0010
1000
,
0001
0000
1000
0010
0100
0000
0001
1000
0010
0000
1000
0001
0000
0010
0001
0000
,
1000
0010
0100
0001
1000
0100
0010
0001
0100
0010
0001
0010
0100
0001
1000
0100
,
0010
0001
0100
0010
1000
0001
0010
0001
0100
0010
1000
0001
0100
0010
1000
0100
,
0010
0000
0000
0000
,
0001
1000
0010
0000
0000
0000
0000
0000
0000
0000
0000
0000
0000
0000
0000
0000
;
